#TITLE:Yukizukiyo;
#SUBTITLE:;
#ARTIST:Ryu*;
#TITLETRANSLIT:;
#SUBTITLETRANSLIT:;
#ARTISTTRANSLIT:;
#CREDIT:Grithokskulk;
#BANNER:Yukizukiyo.png;
#BACKGROUND:Yukizukiyo-bg.png;
#LYRICSPATH:;
#CDTITLE:REFLEC BEAT.png;
#MUSIC:Yukizukiyo.ogg;
#OFFSET:-1.555;
#SAMPLESTART:15.475;
#SAMPLELENGTH:15.000;
#SELECTABLE:YES;
#BPMS:0.000=155.000;
#STOPS:32.000=1.180
,133.000=1.160
;
#BGCHANGES:;

//---------------dance-single - ----------------
#NOTES:
     dance-single:
     :
     Easy:
     3:
     0.245,0.275,0.099,0.235,0.000: // measure 1
2000
0000
0000
0000
,  // measure 2
0000
0000
0000
3000
,  // measure 3
0002
0000
0000
0000
,  // measure 4
0000
0000
0000
0003
,  // measure 5
0200
0000
0000
0000
,  // measure 6
0000
0000
0000
0300
,  // measure 7
0020
0000
0000
0030
,  // measure 8
0010
0000
0100
0000
,  // measure 9
1001
1000
0100
1000
,  // measure 10
0000
0002
0003
2000
,  // measure 11
3000
0010
0100
0010
,  // measure 12
0000
0200
0300
0020
,  // measure 13
0030
1000
0001
1000
,  // measure 14
0000
0200
0300
0020
,  // measure 15
0030
0001
0010
0001
,  // measure 16
0000
0200
0300
0020
,  // measure 17
0030
0100
0001
1000
,  // measure 18
0000
0100
1000
0001
,  // measure 19
0000
0010
0001
1000
,  // measure 20
0000
0010
1000
0001
,  // measure 21
0000
0010
0100
0010
,  // measure 22
0000
0001
0100
0001
,  // measure 23
0000
1000
0100
1000
,  // measure 24
0000
0010
0000
0100
,  // measure 25
0100
0010
0000
1000
,  // measure 26
0100
0010
0001
0010
,  // measure 27
0100
1000
0000
0001
,  // measure 28
0010
0100
1000
0100
,  // measure 29
0010
0001
0000
1000
,  // measure 30
0010
0100
0001
0100
,  // measure 31
0010
1000
0000
0001
,  // measure 32
0100
0010
1000
0010
,  // measure 33
0100
0001
0000
1001
,  // measure 34
0000
0000
2000
0000
,  // measure 35
3001
0000
0002
0000
,  // measure 36
1003
0000
0020
0000
,  // measure 37
0130
0000
0200
0000
,  // measure 38
0310
0000
2000
0000
,  // measure 39
3010
0000
0002
0000
,  // measure 40
0013
0000
2000
0000
,  // measure 41
3100
0000
0002
0000
,  // measure 42
0103
0000
0020
0000
,  // measure 43
0000
0000
0000
0000
,  // measure 44
0000
0030
0200
0000
,  // measure 45
0000
0000
0000
0000
,  // measure 46
0000
0300
0002
0000
,  // measure 47
0000
0000
0000
0000
,  // measure 48
0000
0003
2000
0000
,  // measure 49
0000
3000
0200
0300
,  // measure 50
0020
0030
1001
0000
,  // measure 51
1001
0000
1001
0000
,  // measure 52
0100
0100
0010
0001
,  // measure 53
0100
0000
0010
0000
,  // measure 54
0100
0000
0001
1000
,  // measure 55
0100
0000
1000
0000
,  // measure 56
1000
0000
0010
1000
,  // measure 57
0001
0000
0010
0000
,  // measure 58
0100
0000
0010
0001
,  // measure 59
1000
0000
0010
0000
,  // measure 60
0110
0000
0100
0001
,  // measure 61
1000
0100
1000
0000
,  // measure 62
1001
0000
0010
0100
,  // measure 63
0001
0010
0100
0000
,  // measure 64
0110
0000
0001
1000
,  // measure 65
0010
1000
0001
0000
,  // measure 66
0110
0000
0001
1000
,  // measure 67
0010
0100
0010
0000
,  // measure 68
0110
0000
1001
0000
;

//---------------dance-single - ----------------
#NOTES:
     dance-single:
     :
     Medium:
     6:
     0.517,0.519,0.172,0.624,0.000:
2000
3200
0320
0230
,
2300
0000
3010
0100
0002
0000
0000
0000
,
0023
0032
0203
2300
,
3200
0320
2030
3200
,
0320
0230
2300
3002
,
0023
0000
0031
0100
0020
0000
0130
0001
,
0020
0230
0302
0203
,
2300
0000
0002
0000
,
3003
0000
0100
0010
0000
0010
0000
0010
,
0000
0010
1000
0000
0100
1000
0100
0000
,
0010
0001
0100
0010
0000
0010
0000
0010
,
0000
0010
0100
0000
0001
1000
0001
0000
,
0010
0100
0010
0001
0000
0001
0000
0001
,
0000
0001
0100
0000
0001
1000
0001
0000
,
1000
0100
1000
0010
0000
0010
0000
0010
,
0000
0010
0100
0000
0001
1000
0001
0000
,
1001
0000
0010
0100
0000
0010
0000
0001
,
0000
0100
0010
0100
0000
0001
0000
1000
,
0100
0000
1000
0010
0000
0100
0000
0010
,
0000
1000
0100
1000
0000
0001
0000
0100
,
0010
0000
0100
0001
0000
0010
0000
0100
,
0000
0010
0100
0010
0000
0001
0000
0100
,
0010
0000
0100
0010
0000
1000
0000
0001
,
0000
0010
0200
0000
0000
0000
0010
0000
,
0310
0000
0022
0000
0033
0000
1000
0010
,
1000
0000
0001
0100
0001
0000
0010
0001
,
0010
0000
2200
0000
3300
0000
0010
1000
,
0010
0000
0100
0010
0100
0000
0001
1000
,
0001
0000
0022
0000
0033
0000
1000
0010
,
1000
0000
0100
0010
0100
0000
1000
0001
,
1000
0000
0202
0000
0303
0000
1000
0100
,
1000
0000
0001
0010
0000
0010
0000
0010
,
0000
0010
0200
0000
0000
0000
0000
0000
,
0300
0000
0200
0000
,
0010
0010
0310
0000
0020
0000
0000
0000
,
0001
0001
0031
0000
0002
0000
0000
0000
,
0100
0100
0103
0000
0200
0000
0000
0000
,
0010
0010
0310
0000
2000
0000
0000
0000
,
0100
0100
3100
0000
0200
0000
0000
0000
,
0010
0010
0310
0000
0020
0000
0000
0000
,
0001
0001
0031
0000
0002
0000
0000
0000
,
1000
1003
0002
0023
,
0230
0000
2300
0000
3200
0000
0310
0001
,
0010
0000
0001
0100
0002
0000
0203
0000
,
0320
0230
0302
2003
,
3200
0320
0230
2300
,
3020
0000
0230
0000
0320
0000
1030
0001
,
2000
0000
3001
0010
0002
0000
0203
0000
,
0320
0230
0302
0000
,
2000
0000
0000
3003
0000
1001
0000
1001
,
0000
1001
0000
1001
1001
0000
0000
0000
,
0110
0000
0000
0000
0001
0010
0100
0000
,
0010
0001
0100
0010
0100
0000
0001
1000
,
0001
0000
1000
0100
1000
0000
0010
0000
,
0100
0010
1000
0100
0010
0000
0010
0000
,
0100
0100
0100
0000
0010
0000
0001
0100
,
0010
0000
0100
0001
1000
0000
0100
0010
,
0100
0000
1000
0010
0100
0000
0010
0000
,
1000
0001
0010
0010
,
0001
0100
0010
0000
0100
0001
0010
0000
,
0001
0010
0100
1000
0010
0000
0110
0000
,
0100
0000
0110
0000
0001
0010
0100
0000
,
0010
0001
1000
0010
0100
0000
0110
0000
,
0010
0000
0110
0000
1000
0001
0010
0000
,
0001
1000
0010
1000
0001
0000
1001
0000
,
1000
0000
1001
0000
0001
0010
0001
0000
,
1000
0010
1000
0000
0010
0000
0000
0100
,
0000
0110
1001
0000
;

//---------------dance-single - ----------------
#NOTES:
     dance-single:
     :
     Hard:
     10:
     0.901,0.946,0.199,1.000,0.574:
2000
3020
0032
0023
,
0230
0000
0000
0000
0301
0000
0010
0000
0100
0000
0020
0032
0023
0030
0200
0300
,
0020
0032
0203
2300
,
3200
0000
0000
0000
0320
0000
0000
0000
1030
0000
0200
0320
0230
0300
2000
3000
,
0020
0230
0302
0023
,
2030
0000
0000
0000
3010
0000
0001
0000
0100
0000
0020
0230
0320
0030
2000
3000
,
0200
0320
0230
2300
,
3002
0000
2000
0000
,
0000
3003
0000
0000
0100
0000
0010
0000
0100
0000
0001
0000
0010
0000
1000
0000
,
0010
0000
0001
0000
0100
0000
0010
1000
0000
1000
0100
0000
0010
0000
0100
0010
,
0000
0010
0100
0000
0010
0000
0001
0000
0100
0000
1000
0000
0100
0000
0010
0000
,
1000
0000
0100
0000
0010
0000
0001
0010
0000
0010
0001
0000
0100
0000
0010
0100
,
0000
0100
0010
0000
0100
0000
0001
0000
0100
0000
1000
0000
0100
0000
0010
0000
,
1000
0000
0100
0000
0010
0000
0100
1000
0000
1000
0010
0000
0100
0000
0001
0010
,
0000
0010
0100
0000
0010
0000
0001
0000
0010
0000
1000
0000
0010
0000
0001
0000
,
0100
0000
0010
0000
1010
0000
0000
0000
0100
0001
0100
0001
0010
0000
0000
0000
,
0100
1000
0100
1000
0020
0000
0100
0000
0230
0000
0001
0000
0302
0000
0013
0000
,
1000
0010
0002
0100
0203
0010
0320
1030
,
0100
0010
0200
1000
2300
0010
3020
0130
,
0001
0010
0002
0100
0203
0010
0320
0130
,
0001
0010
0100
0010
0002
0000
1000
0000
2003
0000
0010
0000
3020
0000
0130
0000
,
1000
0200
0001
0310
0020
0100
0230
0301
,
0100
1000
0020
0100
0230
1000
2300
3100
,
0010
0000
1000
0000
0100
0000
0020
0000
0000
0000
1000
0000
0030
0000
0002
0023
,
0032
0003
0200
0300
0220
0000
0000
0000
0330
0000
0000
0000
0100
0001
0100
0000
,
0010
1000
0010
0000
1000
0100
1000
0000
0001
0000
0010
0000
0100
0000
0010
0000
,
0001
0100
0001
0010
0200
0000
0000
0000
0300
0000
0000
0000
0010
0001
0010
0000
,
0001
0100
0001
0000
1000
0010
1000
0000
0010
0100
0010
0000
1000
0100
1000
0000
,
0100
0010
0100
1000
0020
0000
0000
0000
0030
0000
0000
0000
0100
0001
0100
0000
,
0001
0010
0001
0000
0010
0100
0010
0000
0001
0100
0001
0000
0100
0010
0100
0000
,
0010
1000
0010
0000
2000
0000
0000
0000
3000
0000
0000
0000
0100
0010
0100
0000
,
1000
0010
1000
0000
0001
0000
0101
0000
0000
0000
0110
0000
0000
0000
0101
0000
,
0000
0000
1001
0000
1100
0000
0100
0010
0000
0010
0100
0000
1000
0000
0001
0100
,
0000
0100
0001
0000
0000
0000
0000
0000
0001
1000
0001
1000
0001
2000
0000
0000
,
0010
0000
0010
0000
3010
0000
0000
0000
0001
0100
0001
0100
0001
0200
0000
0000
,
0010
0000
0010
0000
0310
0000
0000
0000
0100
0001
0100
0001
0100
0002
0000
0000
,
1000
0000
1000
0000
1003
0000
0000
0000
0100
0010
0100
0010
0100
0020
0000
0000
,
1000
0000
1000
0000
1030
0000
0000
0000
0001
0100
0001
0100
0001
0200
0000
0000
,
0010
0000
0010
0000
0310
0000
0000
0000
0001
1000
0001
1000
0001
2000
0000
0000
,
0100
0000
0100
0000
3100
0000
0000
0000
0010
0100
0010
0100
0010
0200
0000
0000
,
1000
0000
1000
0000
1300
0000
0000
0000
1000
0001
1000
0001
1000
0002
0000
0000
,
0100
0000
0000
0100
0000
0000
0103
0000
0020
0000
0000
0000
0230
0000
0000
0000
,
2300
0000
3200
0000
0302
0000
0013
1000
,
0020
0000
0031
0100
0002
0000
2003
0000
,
3200
0320
0230
2300
,
3020
0000
0000
0001
0000
0000
1030
0000
0100
0000
0100
0000
0010
1000
0000
1000
,
0100
0000
0010
0000
0100
1000
0000
1000
0010
0000
0100
0000
0001
0010
0000
0010
,
0100
0000
0010
0000
0001
0100
0000
0100
0010
0000
0100
0001
0100
0000
0001
0010
,
0001
0000
0010
0100
0010
0000
0100
1000
0200
0000
0010
0000
0010
0000
0310
0000
,
0200
1000
1000
1300
0000
1001
0000
0110
,
0000
0000
1001
0000
0000
0000
0011
0000
1100
0000
0001
1000
0000
1000
0010
0000
,
0100
0000
0020
2030
3020
0030
0200
0300
0001
0000
0010
0000
0100
0010
0000
0002
,
0000
0000
0100
0000
0010
0000
0103
0000
0020
0000
0000
1000
0000
0000
0031
0000
,
0200
0000
0000
1000
0000
0000
0301
0000
0100
0000
1000
0000
0010
0100
0000
0020
,
0000
0000
1030
0000
0010
0100
0001
0010
0100
0000
0000
0200
0000
0000
0010
0000
,
0310
0000
0002
2003
3002
0003
0200
0300
0010
0000
0100
0000
0001
0010
0000
0200
,
0000
0000
1000
0000
0010
0000
1300
0000
0020
0000
0000
1000
0000
0000
0001
0000
,
0230
0000
0000
1000
0000
0000
0301
0000
0100
0000
0000
0010
0000
0000
0001
0000
,
0000
0100
0000
0000
1000
0000
0100
0000
0110
0000
0000
1001
0000
0000
0110
0000
,
0000
0000
0002
2003
3002
0003
0020
0030
0100
0000
1000
0000
0010
0100
0000
1000
,
0000
0000
0200
0302
0023
0030
0200
0300
0020
0000
0000
1000
0000
0000
0001
0000
,
0130
0000
2000
3020
0230
0300
0020
0030
1000
0000
0100
0000
0010
0100
0000
1000
,
0000
0000
0020
0230
0320
0030
2000
3000
0001
0000
0020
0230
0320
0030
0002
0003
,
0100
0000
0020
2030
3200
0300
0020
0030
0100
0000
1000
0000
0010
0100
0000
0001
,
0000
0000
2000
3200
0320
0030
0200
0300
0010
0000
0001
0100
0000
0010
0100
0000
,
0001
0000
2000
3200
0320
0030
0200
0300
0011
0000
0000
1100
0000
0000
1010
0000
,
0000
0101
0000
0000
0110
0000
1001
0000
1000
0000
0100
0010
0000
0100
1000
0010
,
0100
0000
0002
0023
0230
0300
0020
0030
1001
0000
0000
0000
0000
0000
0000
0000
;
