#TITLE:Yr So Wet 3.0;
#SUBTITLE:;
#ARTIST:Ultrademon + dj Kiff;
#TITLETRANSLIT:;
#SUBTITLETRANSLIT:;
#ARTISTTRANSLIT:;
#CREDIT:;
#BANNER:Yr So Wet 3.0.png;
#BACKGROUND:Yr So Wet 3.0-bg.png;
#LYRICSPATH:;
#CDTITLE:grithokskulk.png;
#MUSIC:Yr So Wet 3.0.mp3;
#OFFSET:-6.959;
#SAMPLESTART:75.475;
#SAMPLELENGTH:15.000;
#SELECTABLE:YES;
#BPMS:0.000=140.000;
#STOPS:;
#BGCHANGES:;

//---------------dance-single - ----------------
#NOTES:
     dance-single:
     :
     Easy:
     4:
     0.280,0.471,0.427,0.019,0.000: // measure 1
0000
0000
2000
0000
,  // measure 2
0000
0000
3001
0100
,  // measure 3
0010
0000
0100
0000
,  // measure 4
0001
0010
0100
1000
,  // measure 5
0100
0000
1000
0000
,  // measure 6
0100
1000
0010
0000
,  // measure 7
0100
0001
0010
0000
,  // measure 8
0001
0010
0100
1000
,  // measure 9
0001
0000
0001
0001
,  // measure 10
0010
0010
0010
0010
,  // measure 11
0100
0000
0100
0100
,  // measure 12
0100
0000
0100
0100
,  // measure 13
1000
0000
1000
1000
,  // measure 14
0010
0010
0010
0010
,  // measure 15
0100
0000
0100
0100
,  // measure 16
0100
0000
0100
0100
,  // measure 17
0001
0000
0000
0000
,  // measure 18
1000
0000
0000
0000
,  // measure 19
0100
0000
0000
0000
,  // measure 20
0010
0000
0100
1000
,  // measure 21
0100
0000
0000
0000
,  // measure 22
0010
0000
0000
0000
,  // measure 23
0100
0000
0000
0000
,  // measure 24
0010
0000
0000
0000
,  // measure 25
0001
0001
0001
0000
,  // measure 26
1000
1000
1000
0000
,  // measure 27
0010
0010
0010
0000
,  // measure 28
0100
0100
0100
0110
,  // measure 29
0010
0010
0010
0000
,  // measure 30
1000
1000
1000
0000
,  // measure 31
0001
0001
0001
0000
,  // measure 32
1000
0010
0100
0001
,  // measure 33
1001
1001
1001
1001
,  // measure 34
1001
1001
1001
1001
,  // measure 35
1001
1001
1001
1001
,  // measure 36
1001
1001
1001
0000
,  // measure 37
0110
0110
0110
0110
,  // measure 38
0110
0110
0110
0110
,  // measure 39
0110
0110
0110
0110
,  // measure 40
0110
0110
0110
0000
,  // measure 41
1100
0000
0001
0100
,  // measure 42
1001
0000
0001
0010
,  // measure 43
1100
0000
1000
0010
,  // measure 44
0101
0000
1000
1000
,  // measure 45
1010
0000
0001
0010
,  // measure 46
0110
0000
0010
0001
,  // measure 47
1001
0000
0010
0100
,  // measure 48
0101
0000
1000
0100
,  // measure 49
1100
0100
0100
0000
,  // measure 50
1001
0001
0001
0000
,  // measure 51
0101
0100
0100
0000
,  // measure 52
0110
0010
0010
0000
,  // measure 53
1010
1000
0100
0000
,  // measure 54
1100
0100
0010
0000
,  // measure 55
0110
0010
0001
0000
,  // measure 56
0001
0010
0100
1000
,  // measure 57
0002
0000
0000
0003
0000
0000
0000
0000
;

//---------------dance-single - ----------------
#NOTES:
     dance-single:
     :
     Medium:
     6:
     0.483,0.471,0.520,0.306,0.000:
0000
0000
0000
2000
0002
0000
3000
0000
,
0003
0100
0010
0000
2000
0000
3002
0000
,
0013
0100
0000
1000
0001
1000
0000
0010
,
0100
0010
0000
0100
0000
0001
0000
0010
,
0000
0100
0000
1000
0100
0000
0010
0000
,
0001
0100
0010
0000
0100
0010
1000
0000
,
0001
0010
0100
0000
0001
0010
0100
0000
,
2000
3200
0320
0032
,
1003
0000
1001
0000
0001
0001
0010
0100
,
1000
0000
0100
0100
0100
0000
0010
0000
,
0120
0000
0030
0100
0100
0000
1000
0000
,
2001
0000
0000
0001
0000
3001
0000
0001
,
0100
0000
0110
0000
1000
1000
0010
0100
,
0001
0000
1000
1000
0001
0000
0001
0000
,
0120
0000
0030
0100
0100
0000
0010
0000
,
2001
0000
0000
0001
0000
3001
0000
0000
,
0110
0000
0000
0001
2000
0000
0000
0000
,
0001
0000
3001
0010
0100
0000
1000
0000
,
0010
0100
0000
0001
1000
0001
0000
0010
,
0001
0010
0000
0100
0000
1000
0000
0010
,
0100
0000
0001
0010
0100
0000
0010
0000
,
0001
0100
0010
0000
1000
0100
0010
0000
,
0100
1000
0000
0100
1000
0010
0000
0100
,
0002
0023
0230
2300
,
3001
2000
0001
0000
3001
0000
1001
0000
,
0010
0200
0010
0000
0310
0000
0110
0000
,
0001
0020
0001
0000
0031
0000
0011
0000
,
1000
0020
1000
0000
1030
0000
1010
0000
,
0100
0020
0100
0000
0130
0000
0110
0000
,
0001
0200
0001
0000
0301
0000
0101
0000
,
1000
0002
1000
0000
1003
0000
1001
0000
,
0001
0020
0001
0000
0031
0000
0011
0000
,
1001
1001
1001
1001
,
0110
0110
0110
0110
,
0101
0101
0101
0101
,
1010
1010
1010
1010
,
1100
1100
1100
1100
,
0011
0011
0011
0011
,
0101
0101
0101
0101
,
0110
0110
0110
1001
,
1000
0001
1000
0100
0000
0010
0100
0000
,
1000
0010
0100
0010
0000
1000
0010
0000
,
0100
0001
0010
0001
0000
0100
0001
0000
,
0010
0100
1000
0100
0000
0010
0100
0000
,
1000
0100
0001
0100
0000
1000
0100
0000
,
1000
0010
0001
0010
0000
1000
0010
0000
,
0100
0001
0010
0001
0000
0100
0001
0000
,
1001
0000
0110
0000
1000
1000
0100
0010
,
0001
2000
0001
0000
3001
0000
0110
0000
,
1000
0020
1000
0000
1030
0000
0101
0000
,
0010
0002
0010
0000
0013
0000
1100
0000
,
1000
0002
1000
0000
1003
0000
0110
0000
,
0100
0020
0100
0000
0130
0000
1001
0000
,
1000
0200
1000
0000
1300
0000
0011
0000
,
0100
0002
0100
0000
0103
0000
1010
0000
,
0100
0010
0100
0000
0001
0000
1000
0000
,
0200
0000
0000
0300
0000
0000
0000
0000
;

//---------------dance-single - ----------------
#NOTES:
     dance-single:
     :
     Hard:
     9:
     0.609,0.550,0.399,0.158,0.418:
1001
0000
1000
0100
0000
0001
0100
0000
,
0010
0000
1000
0100
1000
0000
0001
0000
0010
0000
0100
0000
0010
0000
0000
0000
,
0002
0100
0010
0103
,
1001
0000
0000
0000
1000
0000
0010
0000
0000
0000
0001
0010
0100
0000
0000
0000
,
0011
0000
0001
0100
0000
0010
0100
0001
,
1000
0000
0000
1000
0100
0000
0000
0100
0010
0000
0000
0010
0001
0000
0000
0000
,
0001
0000
0100
0001
0100
0000
0010
0000
1000
0000
0000
1000
0000
0000
1000
0000
,
0001
0000
0010
0001
0010
0000
0001
0000
1000
0000
0010
0000
0100
0000
0001
0000
,
1000
0010
0000
0000
0100
0001
0000
0000
0010
0001
0000
0000
1000
0100
0010
0000
,
0001
0100
0000
0000
0010
1000
0000
0000
0100
0010
0000
0000
0001
0010
0100
0000
,
0010
0001
0000
0000
0001
0100
0000
0000
0010
1000
0000
0000
0100
1000
0010
0000
,
0100
0010
0000
0000
0100
0001
0000
0000
0100
0010
0000
0000
1000
0100
0010
0000
,
0001
0000
0000
0000
0101
0000
0000
0000
0001
0000
0100
0010
0100
0000
0000
0000
,
0001
0000
1000
0100
0010
0000
0100
0000
1000
0000
0000
1000
0000
0000
1000
0000
,
0001
0000
0100
0010
0100
0000
0001
0000
0010
0000
0001
0000
1001
0000
0000
0000
,
1000
0000
0010
0100
0010
0000
1000
0000
0100
0000
0010
0000
0011
0000
0000
0000
,
2001
0000
0000
3001
0000
0000
0200
0000
0010
0000
0000
0310
0000
0000
2000
0000
,
0100
0000
0000
3100
0000
0000
0020
0000
0001
0000
0000
0031
0000
0000
0200
0000
,
0010
0000
0000
0310
0000
0000
0200
0000
1000
0000
0000
1300
0000
0000
0200
0000
,
0001
0000
0000
0301
0000
0000
0002
0000
0010
0000
0000
0013
0000
0000
0020
0000
,
0100
0000
0000
0031
0000
0000
0200
0000
1000
0000
0000
0301
0000
0000
2000
0000
,
0100
0000
0000
3010
0000
0000
0200
0000
1000
0000
0000
0301
0000
0000
0020
0000
,
0001
0000
0000
1030
0000
0000
0200
0000
0010
0000
0000
1300
0000
0000
0001
0000
,
0100
0000
0000
0001
1000
0000
0000
0100
0010
0000
0010
0000
0001
0010
0100
1000
,
0001
0000
0110
0000
1000
0000
0000
0000
0001
0000
0000
0001
1000
0000
0000
0000
,
1000
0000
0110
0000
0001
0000
0000
0000
1000
0000
0000
1000
0001
0000
0100
0000
,
0010
0000
1001
0000
0100
0000
0000
0000
0010
0000
0000
0010
0100
0000
0000
0000
,
0010
0000
1001
0000
0100
0000
0000
0000
0100
0000
0100
1000
0100
0000
0010
0000
,
0001
0000
0110
0000
1000
0000
0000
0000
0001
0000
0000
0001
1000
0000
0010
0000
,
0100
0000
1001
0000
0010
0000
0000
0000
1000
0000
0000
1000
0001
0000
1000
0000
,
0001
0000
0110
0000
1000
0000
0000
0000
0001
0000
0000
1000
0010
0000
0100
0000
,
0010
0000
1001
0000
0100
0000
0000
0000
0010
0000
0100
0010
0100
0000
0000
0000
,
1001
0000
0000
0000
0110
0000
0000
0000
1001
0000
0000
0010
0100
0000
0001
0000
,
1010
0000
0000
0000
0101
0000
0000
0000
1010
0000
0000
0001
0100
0000
0010
0000
,
1001
0000
0000
0000
0110
0000
0000
0000
1001
0000
0000
0010
0100
0000
0001
0000
,
1010
0000
0000
0000
0101
0000
0000
0000
1000
0000
0100
0010
0100
0000
1000
0000
,
1001
0000
0000
0000
0110
0000
0000
0000
1001
0000
0000
0010
0100
0000
1000
0000
,
0011
0000
0000
0000
1100
0000
0000
0000
0011
0000
0000
1000
0100
0000
0010
0000
,
1001
0000
0000
0000
0110
0000
0000
0000
1001
0000
0000
0010
0100
0000
1000
0000
,
0011
0000
0000
0000
1100
0000
0000
0000
0010
0000
0001
1000
0001
0000
0100
0000
,
0010
0000
1000
0001
1000
0000
0100
0000
0000
0000
0010
0001
0010
0000
0001
0000
,
0100
0000
0001
0100
0000
1000
0100
0000
,
1000
0010
0000
0100
0001
0001
0010
0100
,
2000
0000
0000
0000
0100
0000
0000
0000
0001
0000
0000
0000
0010
3000
0000
0000
,
0100
0000
0001
0010
0001
0000
0010
0000
0000
0000
0001
0000
0100
0000
0000
0000
,
0001
0000
1000
0100
0000
0001
0100
1000
,
0100
0000
0010
0000
0010
0000
0000
1000
0100
0000
0010
0000
0010
0000
0001
0000
,
0100
0000
0000
0100
1000
0000
0000
1000
0100
0000
0000
0100
0001
0000
0000
0000
,
0010
0000
1001
0000
0100
0000
0000
0000
1000
0010
0000
0010
0100
0000
0001
0000
,
0010
0000
1100
0000
0001
0000
0000
0000
0100
0001
0000
0001
0010
0000
0100
0000
,
1000
0000
0101
0000
0010
0000
0000
0000
1000
0100
0000
0100
0010
0000
0100
0000
,
1000
0100
0000
0000
0010
0001
0000
0000
0100
0000
0001
1000
0001
0000
0100
0000
,
0001
0000
1010
0000
0100
0000
0000
0000
0001
0010
0000
0001
0100
0000
0010
1000
,
0100
0000
0011
0000
1000
0000
0000
0000
0001
1000
0000
0010
0100
0000
0010
1000
,
0100
0000
1001
0000
0010
0000
0000
0000
0001
0010
0000
0100
0010
0000
0001
0100
,
0010
0000
1000
0000
0010
0000
0000
0000
0100
0010
0100
0010
1000
0000
1000
0000
,
0200
0000
0000
0300
0000
0000
0000
0000
;
