#TITLE:YoiYoi Kokon;
#SUBTITLE:;
#ARTIST:REOL;
#TITLETRANSLIT:;
#SUBTITLETRANSLIT:;
#ARTISTTRANSLIT:;
#CREDIT:Grithokskulk;
#BANNER:YoiYoi Kokon.png;
#BACKGROUND:YoiYoi Kokon-bg.png;
#LYRICSPATH:;
#CDTITLE:grithokskulk.png;
#MUSIC:YoiYoi Kokon.mp3;
#OFFSET:-7.712;
#SAMPLESTART:51.795;
#SAMPLELENGTH:15.000;
#SELECTABLE:YES;
#BPMS:0.000=150.000,80.000=75.000,92.000=150.000,171.000=75.000,187.000=150.000;
#STOPS:98.000=0.380
;
#BGCHANGES:;

//---------------dance-single - ----------------
#NOTES:
     dance-single:
     :
     Easy:
     3:
     0.250,0.341,0.223,0.089,0.000: // measure 1
1001
0000
0110
0000
,  // measure 2
1001
0000
0110
0000
,  // measure 3
1000
0100
1000
0100
,  // measure 4
0010
0001
0010
0000
,  // measure 5
0001
0001
0001
0000
,  // measure 6
0100
0100
0100
0000
,  // measure 7
0010
0000
1000
0000
,  // measure 8
0100
1000
0100
0000
,  // measure 9
0010
0010
0010
0000
,  // measure 10
0100
0100
0100
0000
,  // measure 11
1000
1000
1000
0000
,  // measure 12
2002
0000
0000
3003
,  // measure 13
0001
0001
0001
0001
,  // measure 14
0100
0100
0100
0100
,  // measure 15
0010
0010
0010
0010
,  // measure 16
1000
1000
1000
1000
,  // measure 17
0100
0100
1000
1000
,  // measure 18
0010
0010
0100
0100
,  // measure 19
0001
0010
0100
1000
,  // measure 20
0002
0000
0003
0000
,  // measure 21
1000
1001
0001
1001
,  // measure 22
1000
1001
0001
0000
,  // measure 23
0010
0110
0100
0110
,  // measure 24
0010
0000
0110
0000
,  // measure 25
0200
0000
0300
0010
,  // measure 26
1000
0100
0000
0100
,  // measure 27
1000
0010
0000
0100
,  // measure 28
0100
0010
0010
1000
,  // measure 29
0001
1000
0000
0001
,  // measure 30
0001
0001
0000
0010
,  // measure 31
0010
0010
0000
0100
,  // measure 32
1000
0100
0000
0110
,  // measure 33
0110
0110
0110
0200
,  // measure 34
0300
0020
0030
0002
,  // measure 35
0003
0200
0300
0010
,  // measure 36
1000
0100
1000
0020
,  // measure 37
0030
0100
0010
0110
,  // measure 38
0000
1000
0001
1001
,  // measure 39
0000
1000
1000
0100
,  // measure 40
0000
0010
0000
0100
,  // measure 41
0000
0010
0000
0002
,  // measure 42
0000
0000
0000
0000
,  // measure 43
0000
0000
0000
1003
,  // measure 44
1001
0001
1001
1000
,  // measure 45
1001
0001
1001
0010
,  // measure 46
0110
0100
0110
0010
,  // measure 47
0110
0100
0110
0010
,  // measure 48
0010
0010
0000
0100
,  // measure 49
0100
0100
0000
0001
,  // measure 50
0000
1000
0000
0100
,  // measure 51
0100
0100
0000
1000
,  // measure 52
1000
1000
0000
0001
,  // measure 53
0001
0001
0000
0100
,  // measure 54
0000
0010
0000
1000
,  // measure 55
1000
1000
0000
0100
;

//---------------dance-single - ----------------
#NOTES:
     dance-single:
     :
     Medium:
     5:
     0.366,0.365,0.418,0.187,0.000:
1001
0000
1010
0000
,
0101
0000
0110
0000
,
0100
0100
0100
0100
,
0200
0000
0000
0300
,
1100
0101
1100
1000
,
0010
0000
0000
0000
0100
0010
0100
0000
,
0110
0000
0000
0000
0001
1000
0001
0000
,
1000
0100
0110
0000
,
1100
0101
1100
1000
,
0010
0000
0000
0000
0100
0001
0100
0000
,
0101
0000
0000
0000
0001
0010
0001
0020
,
0000
0000
0000
0030
,
0010
0000
0001
0000
0100
0000
0010
1000
,
0200
0300
0200
0300
,
0100
0000
1000
0000
0010
0000
0100
0001
,
0020
0030
0020
0030
,
0100
0000
1000
0000
0010
0000
1000
0100
,
0010
0001
0100
0001
,
0010
0001
0100
0000
0010
0000
0100
0000
,
1001
1001
1001
0000
,
1000
1100
0100
0110
,
0010
0011
0001
1001
,
1000
1010
0010
0110
,
0100
0101
0001
0011
,
0220
0000
0000
0000
0330
0000
1000
0100
,
1000
0100
0000
0000
1100
0000
0010
0001
,
0010
0001
0000
0000
0011
0000
0100
0001
,
0100
0000
0010
0100
0010
0000
1000
0000
,
0100
0000
0010
0000
0001
0000
0100
0010
,
0100
0010
0000
0000
0110
0000
1000
0010
,
1000
0010
0000
0000
1010
0000
0100
0000
,
0001
0010
0100
0110
,
0110
0110
0110
0100
,
1000
0000
0010
0100
0010
0000
0100
0001
,
0100
0000
0001
0010
0001
0000
2000
0000
,
3200
0320
0032
2003
,
3200
0320
0031
1001
,
0000
0000
0001
1000
0001
0000
1001
0000
,
0000
0000
0010
0100
0010
0000
1000
0000
,
0100
0000
0010
0000
0100
1000
0010
0000
,
0200
0310
0020
0230
,
0000
0000
0000
0010
,
0010
0310
0110
1000
,
1001
0001
0101
0100
,
0110
0010
1010
1000
,
1100
0100
0110
0010
,
0110
0100
1100
1000
,
0010
1000
0100
0000
0010
1000
0200
0000
,
0010
0010
0310
0001
,
1000
0001
0100
0000
1000
0001
0200
0000
,
0010
0000
0010
0000
0310
0000
0000
0100
,
1000
0100
1000
0000
1100
0000
0000
0001
,
0100
0001
0100
0000
0101
0000
0000
0010
,
0100
0010
0000
1000
0001
1000
0020
0000
,
0030
1000
0001
1001
;

//---------------dance-single - ----------------
#NOTES:
     dance-single:
     :
     Hard:
     8:
     0.528,0.593,0.659,0.098,0.049:
1010
0000
0101
0000
,
0011
0010
0000
0000
0110
0000
0000
0000
,
1100
0010
0011
0001
,
0100
0001
0010
0100
1000
0000
1001
0000
,
1100
0000
0011
0000
0100
0001
0010
0001
,
0200
0010
0310
0000
0100
0010
1000
0100
,
0020
0001
0031
0000
0100
0001
0010
1000
,
0010
0001
0100
0000
0110
0000
0000
0000
,
1010
0000
0101
0000
1010
0000
1000
0100
,
0020
0100
0130
0000
1000
0010
0001
0010
,
2000
0001
3001
0000
1000
0100
0010
0002
,
0000
0000
0003
1001
,
1100
0000
0000
0000
0011
0000
0000
0000
0101
0000
0000
0001
0100
0000
0010
0000
,
1000
0100
0100
0000
0010
0001
0010
0000
,
0101
0000
0000
0000
1010
0000
0000
0000
1100
0000
0000
1000
0100
0000
0010
0000
,
0100
1000
1000
0000
0010
1000
0010
0000
,
1010
0000
0000
0000
0101
0000
0000
0000
0011
0000
0000
0001
0100
0000
0010
0000
,
1010
0000
0000
0000
1001
0000
0000
0000
1100
0000
0000
1000
0100
0000
0010
0000
,
0001
0100
0100
0000
0010
1000
1000
0000
,
0100
0000
0010
0100
0010
0000
0100
0000
1000
0000
0001
0000
1001
0000
0000
0000
,
1001
0001
0101
0010
0110
0010
1010
1000
,
0000
1000
1100
0100
0110
0010
0011
0000
,
0101
0001
0101
0100
0110
0010
1010
1000
,
1100
0011
0011
1100
,
2002
0000
0000
0000
3003
0000
0010
0100
,
0001
0001
0000
0010
1000
0010
0001
0100
,
0100
0010
0000
0010
1000
0100
0010
0010
,
0100
0100
1000
1000
0010
0010
0100
0100
,
0001
0010
0000
0010
0001
0100
1000
0100
,
0001
0010
0000
0010
0001
0100
0010
0010
,
1000
1000
0000
1000
0100
0001
0100
0100
,
0010
0010
0001
0001
0100
0100
0110
0000
,
1010
0000
1100
0000
0011
0000
0001
0100
,
0010
1000
0100
0100
1000
1000
0001
0000
,
1000
0100
0010
0100
1000
0000
0010
0010
,
1000
1000
0100
0100
0001
0001
0100
0100
,
0000
0010
0100
1000
0010
0100
0110
0000
,
0000
1000
0100
0010
0001
0100
0110
0000
,
0000
0001
0100
0010
1000
0100
1000
1000
,
1100
0000
0001
0001
0101
0000
1010
0000
,
1100
0011
0101
2002
,
0000
0003
0000
0001
,
0001
0000
3001
0000
1001
0000
1000
1010
,
0010
0110
0100
0101
0001
0011
0010
0110
,
0100
1100
1000
1001
0001
0100
0001
0101
,
0100
0110
0010
1010
1000
1001
0001
0011
,
0010
0110
0100
1100
1000
0001
1001
0000
,
0010
0000
0100
0000
0001
0000
0000
0000
0010
0000
0100
0000
0001
0000
0000
0001
,
0010
0000
0000
0000
0010
0000
0000
0010
0100
0000
0000
0000
0100
0000
1000
0000
,
0010
0000
0000
0000
0100
0000
0001
0000
0010
0000
0001
0000
0100
0000
0000
0100
,
0010
0000
0000
0000
0010
0000
0000
0010
1000
0000
0000
0000
0000
0000
0100
1000
,
0100
0000
0010
0000
0001
0000
0001
0000
1001
0000
0000
0000
0000
0000
0001
0100
,
0001
0100
0010
0010
0110
0000
1000
0100
,
0010
0000
0010
0100
1000
0001
0200
0000
,
0300
0000
0010
0100
0010
0000
2000
0000
,
0000
0000
0000
0000
0000
0000
0000
0000
0000
3000
0000
0000
0000
0000
0000
0000
;
