#TITLE:Years Of War;
#SUBTITLE:(Rob Mayth Remix);
#ARTIST:Porter Robinson ft. Breanne Düren and Sean Caskey;
#TITLETRANSLIT:;
#SUBTITLETRANSLIT:;
#ARTISTTRANSLIT:;
#CREDIT:Grithokskulk;
#BANNER:Years Of War (Rob Mayth Remix).png;
#BACKGROUND:Years Of War (Rob Mayth Remix)-bg.png;
#LYRICSPATH:;
#CDTITLE:grithokskulk.png;
#MUSIC:Years Of War (Rob Mayth Remix).mp3;
#OFFSET:-1.165;
#SAMPLESTART:27.755;
#SAMPLELENGTH:15.000;
#SELECTABLE:YES;
#BPMS:0.000=144.000;
#STOPS:254.000=0.420
;
#BGCHANGES:;

//---------------dance-single - ----------------
#NOTES:
     dance-single:
     :
     Easy:
     4:
     0.289,0.317,0.043,0.152,0.000: // measure 1
0200
0000
0000
0300
,  // measure 2
0010
0001
0100
0001
,  // measure 3
2000
0000
0000
3000
,  // measure 4
0100
1000
0010
0100
,  // measure 5
0002
0000
0000
0003
,  // measure 6
0001
0100
0010
1000
,  // measure 7
0200
0300
0200
0300
,  // measure 8
0200
0000
0000
0300
,  // measure 9
1000
0100
1000
0100
,  // measure 10
1000
0100
1000
0100
,  // measure 11
0010
0001
0010
0001
,  // measure 12
0010
0001
0010
0001
,  // measure 13
0100
0100
0100
0100
,  // measure 14
0010
0010
0010
0010
,  // measure 15
1000
0010
0100
0001
,  // measure 16
2002
0000
0000
3003
,  // measure 17
1000
0100
0010
0100
,  // measure 18
1000
1000
0001
0001
,  // measure 19
0100
0010
0100
0010
,  // measure 20
1000
0100
0010
0110
,  // measure 21
0100
1000
0010
0100
,  // measure 22
0001
0001
1000
1000
,  // measure 23
0001
0010
0100
1000
,  // measure 24
0020
0100
0100
0130
,  // measure 25
0001
0010
0100
1000
,  // measure 26
0001
0001
1000
1000
,  // measure 27
0010
0100
0010
0100
,  // measure 28
0001
0001
1000
1000
,  // measure 29
0100
1000
0010
0100
,  // measure 30
0001
0001
1000
1000
,  // measure 31
0100
0010
0100
1000
,  // measure 32
0020
0030
0200
0300
,  // measure 33
1001
1001
1001
0000
,  // measure 34
1000
0100
0010
0100
,  // measure 35
1000
0010
1000
0000
,  // measure 36
0001
0010
0100
0000
,  // measure 37
1000
0001
0100
0000
,  // measure 38
0001
0010
0100
1000
,  // measure 39
0010
0010
0010
0000
,  // measure 40
0100
0010
0100
0010
,  // measure 41
2000
0000
0000
3000
,  // measure 42
0002
0000
0000
0003
,  // measure 43
0020
0000
0000
0030
,  // measure 44
0200
0000
0000
0300
,  // measure 45
2000
0000
0000
3000
,  // measure 46
0002
0000
0000
0003
,  // measure 47
0200
0000
0000
0300
,  // measure 48
0020
0000
0000
0030
,  // measure 49
1000
0100
1000
0000
,  // measure 50
0001
0001
0001
0001
,  // measure 51
1000
0010
1000
0000
,  // measure 52
0001
0001
0001
0001
,  // measure 53
1000
0100
1000
0000
,  // measure 54
0001
0001
0001
0001
,  // measure 55
1000
0010
1000
0100
,  // measure 56
1000
0001
1000
0001
,  // measure 57
0100
0100
0100
0100
,  // measure 58
0010
0010
0010
0010
,  // measure 59
0100
0010
0100
0010
,  // measure 60
0100
0010
0100
0010
,  // measure 61
1000
1000
0001
0001
,  // measure 62
1000
1000
0001
0001
,  // measure 63
1000
0001
1000
0001
,  // measure 64
2000
0002
3003
1000
,  // measure 65
0100
0010
0000
0010
,  // measure 66
0100
1000
0000
0010
,  // measure 67
0100
0010
0000
0100
,  // measure 68
0001
0100
0000
0001
,  // measure 69
0001
1000
0000
0100
,  // measure 70
1000
0100
0000
1000
,  // measure 71
0010
0100
0000
0001
,  // measure 72
0001
0001
0001
1000
,  // measure 73
0100
0010
0000
0100
,  // measure 74
1000
0001
0000
0100
,  // measure 75
0010
0100
0000
0001
,  // measure 76
1000
0001
0000
1000
,  // measure 77
0100
0010
0000
0100
,  // measure 78
0010
0100
0000
1000
,  // measure 79
1000
0001
0000
0100
,  // measure 80
0001
1000
0000
0110
;

//---------------dance-single - ----------------
#NOTES:
     dance-single:
     :
     Medium:
     7:
     0.477,0.489,0.238,0.505,0.000:
2000
0002
0000
3003
,
1000
0000
0100
1000
0100
0000
0010
0000
,
0002
2000
0000
3003
,
0100
0010
0100
0000
0001
0000
1000
0000
,
0200
0020
0000
0330
,
1000
0100
1000
0000
0001
0000
0100
0000
,
0020
0030
0020
0030
,
0020
0000
0000
0030
,
2000
3002
2003
3002
,
2003
3002
2003
3002
,
0203
0320
0230
0320
,
0230
0320
0230
0320
,
2030
3002
2003
3002
,
2003
3002
2003
3002
,
1003
0001
1000
0001
1000
0001
1000
0001
,
2000
0001
3001
1001
,
0110
0000
1001
0000
0110
0000
1000
0100
,
1000
0000
0001
0100
0001
0000
0010
0000
,
0100
0010
0100
0010
0100
0000
0001
0000
,
1000
0010
1000
0010
1000
0000
0001
0000
,
0110
1001
0110
0001
,
1000
0000
0100
1000
0100
0000
1000
0000
,
0010
0100
0010
0100
0010
0000
1000
0000
,
0200
0010
0010
0310
,
0011
1100
0011
1000
,
0010
0000
0100
0010
0100
0000
0001
0000
,
1010
0101
1010
0001
,
0010
0100
0010
0100
0010
0000
0001
0000
,
0101
1010
0101
1000
,
0100
0000
0010
0100
0010
0000
0100
0000
,
1000
0001
1000
0001
1000
0000
0010
0000
,
0100
0010
0100
0010
0100
0000
0110
0000
,
1001
0000
0110
0000
1001
0000
1000
0100
,
1000
0000
0001
0100
0001
0000
0010
0000
,
0100
1000
0100
1000
0100
0000
1000
0000
,
0010
0100
0010
0100
0010
0000
1000
0000
,
0011
1100
0011
0100
,
0010
0000
1000
0100
1000
0000
0001
0000
,
0100
0010
0100
0010
0100
0000
0001
0000
,
2000
0100
0010
3100
,
1002
0000
0203
0000
,
0320
0000
0230
0000
,
0302
0000
0023
0000
,
0230
0000
0310
0001
,
0200
0000
0320
0000
,
2030
0000
3200
0000
,
2300
0000
3020
0000
,
2030
0000
0100
3100
,
0010
0001
0010
0001
,
1000
0100
1000
0100
,
1000
0010
1000
0010
,
0100
0001
0100
0001
,
0010
0100
0010
0100
,
1000
0001
1000
0001
,
1000
0010
1000
0010
,
0100
0001
0100
0001
0100
0000
0010
0000
,
2000
3002
2003
3002
,
0203
0320
0230
0320
,
2030
3002
2003
3002
,
0203
0320
0230
0320
,
1030
0001
1000
0001
1000
0001
1000
0000
,
0010
0100
0010
0100
0010
0100
0010
0000
,
1000
0001
1000
0000
0100
0010
0100
0000
,
1000
0001
1001
1000
,
1010
0000
0010
0000
0100
0001
0100
0000
,
0010
0100
0010
0000
1000
0000
0001
0010
,
0001
0010
0001
0000
1000
0000
0010
0100
,
0010
0100
0010
0000
1000
0000
1100
0000
,
0110
0000
0011
0000
0001
1000
0001
0000
,
0100
0010
0100
0000
0001
0000
1000
0100
,
1000
0100
1000
0000
0010
0000
0200
0000
,
0302
0023
0230
1300
,
0010
0000
0100
0000
0001
0010
0001
0000
,
1000
0010
1000
0000
0001
0000
0010
0100
,
0010
0100
0010
0000
0001
0000
1000
0010
,
1000
0010
1000
0000
0001
0000
0110
0000
,
1010
0000
1100
0000
1000
0010
1000
0000
,
0001
0010
0001
0000
1000
0000
0100
0010
,
0100
0010
0100
0000
0001
0000
0100
0010
,
0100
0010
0100
0000
0001
0000
1001
0000
;

//---------------dance-single - ----------------
#NOTES:
     dance-single:
     :
     Hard:
     9:
     0.692,0.691,0.455,0.520,0.267:
2000
3200
0320
0032
0000
0000
1000
0000
,
1003
0010
0100
0010
1000
0000
0110
0000
,
0002
0023
0230
2300
0000
0000
0001
0000
,
3001
0010
0001
0000
0100
0000
0110
0000
,
2000
3020
0230
0302
0000
0000
1000
0000
,
0103
0010
0100
0000
0001
0000
1001
0000
,
2000
0100
3000
0020
0001
0030
0200
0020
,
0300
0100
0130
0110
,
2000
3002
2003
3002
,
0203
0320
0230
0320
,
2030
3200
2300
3200
,
0320
0032
0023
0032
,
1003
0010
1000
0100
0010
0001
0100
0010
,
1000
0100
0010
0001
0100
0010
1000
0100
,
0010
0000
0100
0000
0010
0000
0100
0000
1000
0001
1000
0001
1000
0001
1000
0001
,
0200
0000
0320
0000
1030
0001
1001
0000
,
1000
0100
0000
0000
0100
0010
0000
0000
0010
0001
0000
0000
0001
0000
0100
0000
,
0010
0000
0000
0010
1000
0000
0100
0000
0001
0000
0000
0001
0100
0000
1000
0000
,
1010
0000
0010
0000
0110
0000
0100
0000
0101
0000
0000
0001
0100
0000
0010
0000
,
1000
0000
0100
0000
0001
0000
0100
0000
1000
0000
0000
1000
0100
0000
0010
0000
,
0001
0100
0000
0000
0100
0010
0000
0000
0010
1000
0000
0000
1000
0000
0100
0000
,
0010
0000
0000
0010
0100
0000
1000
0000
0010
0000
0000
0010
0001
0000
0010
0000
,
1010
1000
1100
0100
0110
0000
0010
0001
,
0200
0000
0000
2300
0000
0000
3200
0000
0001
0000
0301
0000
0011
0000
0000
0000
,
0100
1000
0000
0000
1000
0100
0000
0000
0100
0010
0000
0000
0010
0000
0001
0000
,
0010
0000
0000
0010
0100
0000
1000
0000
0010
0000
0000
0010
0100
0000
0001
0000
,
0011
0000
0010
0000
0110
0000
0100
0000
1100
0000
0000
1000
0100
0000
0010
0000
,
0001
0000
0100
0000
1000
0000
0100
0000
0001
0000
0000
0001
0010
0000
0100
0000
,
0010
0001
0000
0000
0001
0100
0000
0000
0100
0010
0000
0000
0010
0000
1000
0000
,
0100
0000
0000
0100
1000
0000
0010
0000
0100
0000
0000
0100
0010
0000
1000
0000
,
1100
0100
0110
0010
0011
0000
0001
0100
,
0010
0000
1000
0000
0010
0000
0001
0000
0010
0000
0000
0010
1000
0000
0100
0000
,
0210
0000
0010
0000
0310
0000
0010
0001
,
0100
0000
0000
0100
0010
0000
1000
0000
0100
0000
0000
0100
1000
0000
0010
0000
,
0110
0100
0101
0001
0011
0000
1001
0000
,
0100
1000
0010
0001
0010
0010
0110
0000
,
0100
0001
0000
0000
0001
1000
0000
0000
1000
0100
0000
0000
0100
0000
1000
0000
,
0010
0000
0000
0010
0100
0000
0010
0000
1000
0000
0000
1000
0100
0000
0010
0000
,
0110
0000
0100
0000
1100
0000
1000
0000
1010
0000
0000
0010
0100
0000
0000
0000
,
0200
0000
1000
0000
0001
0001
0301
0000
,
0020
0032
2003
3200
0000
0000
0310
0000
,
0010
0000
0001
0000
0200
0000
0000
0010
0000
0000
0320
0000
1000
0000
1030
0000
,
0200
0000
0000
0320
0000
0031
0010
0000
,
0100
1000
0100
0010
0200
0000
2300
0000
,
3002
0203
0320
2030
0000
0000
3010
0000
,
0001
0000
0010
0000
0002
0000
0000
0100
0000
0000
0203
0000
0010
0000
0310
0000
,
2000
0000
0000
0000
0000
0000
0001
3000
0100
0000
0000
0000
0110
0000
0000
0000
,
1000
0100
0001
0100
1000
0010
0001
0010
,
0110
0000
1000
0100
1100
0000
0010
0001
,
0011
0101
0110
1010
,
1100
0000
1000
0001
1001
0000
0001
0100
,
0110
0101
0110
1010
,
1100
0000
0010
0100
1100
0000
1000
0010
,
0011
1010
0110
0101
,
1001
1100
1001
0101
,
1000
0100
0001
0100
1000
0010
0001
0010
,
2000
3002
2003
3002
,
0203
0320
0230
0320
,
2030
3002
2003
3002
,
0203
0320
0230
0320
,
1030
0001
0001
0001
0010
0100
0100
0100
,
1000
0010
0010
0010
1000
0001
0001
0001
,
0010
0100
0010
0000
1000
0001
1000
0000
0001
0100
0001
0000
0100
0010
0100
0000
,
0001
0010
0100
1000
0001
0100
0010
1000
0100
0000
0000
0000
0100
0010
0000
0000
,
0001
0010
0000
0000
0100
1000
0000
0000
0010
0000
0100
0000
0001
0000
0000
0001
,
1000
0000
0100
0000
0001
0000
0000
0001
0100
0000
1000
0000
1010
0000
0010
0000
,
0110
0000
0100
0000
0101
0000
0000
0001
0100
0000
0010
0000
1000
0000
0100
0000
,
0001
0000
0100
0000
1000
0000
0000
1000
0010
0000
0100
0000
0001
0100
0000
0000
,
0010
1000
0000
0000
0100
0010
0000
0000
0001
0000
1000
0000
0010
0000
0000
0010
,
0100
0000
0001
0000
0010
0000
0000
0010
0100
0000
0010
0000
0011
0000
0001
0000
,
0101
0000
0100
0000
0110
0000
0000
0010
1000
0000
0100
0000
0010
0000
1000
0000
,
0010
0000
0001
0000
0100
0000
1000
0000
0100
0000
0001
0000
0010
0001
0000
0000
,
0100
0010
0000
0000
1000
0100
0000
0000
1000
0000
0010
0000
0110
0000
0000
0010
,
1000
0000
0100
0000
0001
0000
0000
0001
0100
0000
1000
0000
1010
0000
0010
0000
,
0110
0000
0100
0000
0101
0000
0000
0001
0010
0000
1000
0000
0010
0000
0001
0000
,
0100
0000
1000
0000
0100
0000
0000
0001
0010
0000
0100
0000
0010
0001
0000
0000
,
1000
0010
0000
0000
0100
0001
0000
0000
1000
0000
0100
0000
0010
0000
0000
0010
,
0100
0000
1000
0000
0010
0000
0000
0010
0100
0000
0001
0000
1001
0000
1000
0000
,
1100
0100
0110
0000
0010
0001
0100
1000
,
0100
0000
0010
0000
1000
0000
0000
1000
0100
0000
0010
0000
0001
0000
0000
0000
;
