#TITLE:Wir fliegen;
#SUBTITLE:;
#ARTIST:Hiroyuki Sawano;
#TITLETRANSLIT:;
#SUBTITLETRANSLIT:;
#ARTISTTRANSLIT:;
#CREDIT:Grithokskulk;
#BANNER:Wir fliegen.png;
#BACKGROUND:Wir fliegen-bg.png;
#LYRICSPATH:;
#CDTITLE:grithokskulk.png;
#MUSIC:Wir fliegen.mp3;
#OFFSET:-7.150;
#SAMPLESTART:59.975;
#SAMPLELENGTH:15.000;
#SELECTABLE:YES;
#BPMS:0.000=135.000;
#STOPS:214.000=0.480
;
#BGCHANGES:;

//---------------dance-single - ----------------
#NOTES:
     dance-single:
     :
     Easy:
     4:
     0.295,0.287,0.054,0.450,0.000: // measure 1
2000
3000
0002
0003
,  // measure 2
0200
0300
0020
0030
,  // measure 3
0200
0300
0002
0003
,  // measure 4
0020
0000
0000
0030
,  // measure 5
0100
0100
0010
0010
,  // measure 6
0100
0100
0010
0100
,  // measure 7
1000
1000
0001
0001
,  // measure 8
1000
1000
0001
1000
,  // measure 9
0010
0010
0100
0100
,  // measure 10
0010
0010
0100
0010
,  // measure 11
1000
1000
0001
0001
,  // measure 12
1000
1000
0001
0010
,  // measure 13
0100
0200
0300
0010
,  // measure 14
0020
0030
0001
0100
,  // measure 15
0010
0020
0030
1000
,  // measure 16
0200
0320
0030
0100
,  // measure 17
1000
2000
3000
0001
,  // measure 18
0200
0320
0030
0000
,  // measure 19
1000
0100
0010
0001
,  // measure 20
2000
3020
0030
0100
,  // measure 21
0002
0003
2000
3000
,  // measure 22
0200
0300
0020
0030
,  // measure 23
0200
0000
0000
0300
,  // measure 24
0020
0000
0030
0001
,  // measure 25
0002
0003
0200
0300
,  // measure 26
0010
0100
0002
0003
,  // measure 27
2000
3000
0200
0300
,  // measure 28
1000
0002
0003
1000
,  // measure 29
0200
0000
0000
0000
,  // measure 30
0300
0000
0000
0100
,  // measure 31
0110
0010
0001
1000
,  // measure 32
0010
0010
1000
0001
,  // measure 33
1001
1000
0100
0010
,  // measure 34
0001
1000
0001
0100
,  // measure 35
0110
0010
1000
0100
,  // measure 36
0010
0100
0010
0001
,  // measure 37
0001
1000
1000
0010
,  // measure 38
0100
0010
0100
0001
,  // measure 39
1001
1000
0100
0010
,  // measure 40
0001
1000
0001
0100
,  // measure 41
0110
0010
1000
0100
,  // measure 42
0010
0100
0010
0001
,  // measure 43
1001
1000
0010
0100
,  // measure 44
0001
0100
0010
1000
,  // measure 45
1001
0001
1001
1000
,  // measure 46
0010
0100
0010
1000
,  // measure 47
0002
0003
2000
3000
,  // measure 48
0200
0300
2000
3000
,  // measure 49
0002
0003
0020
0030
,  // measure 50
0200
0000
0000
0300
,  // measure 51
2000
3000
0020
0030
,  // measure 52
2000
3000
0002
0003
,  // measure 53
0020
0030
0200
0300
,  // measure 54
2000
3000
0000
1000
,  // measure 55
0100
0010
0001
1000
,  // measure 56
0100
0010
0001
1000
,  // measure 57
0010
0100
0001
1000
,  // measure 58
0010
0100
0001
1000
,  // measure 59
0100
0010
0001
1000
,  // measure 60
0100
0010
0001
1000
,  // measure 61
1000
0001
1000
0001
,  // measure 62
0001
0010
0100
0020
,  // measure 63
0030
0002
0003
0100
,  // measure 64
0100
0010
0010
2000
,  // measure 65
3000
0200
0300
1000
,  // measure 66
0001
1000
0001
0200
,  // measure 67
0300
0020
0030
0100
,  // measure 68
0001
0010
0100
2000
,  // measure 69
3000
0002
0003
0100
,  // measure 70
0001
0010
0001
0200
,  // measure 71
0300
0020
0030
2000
,  // measure 72
3000
0200
0300
2000
,  // measure 73
3000
0002
0003
0200
,  // measure 74
0300
0020
0030
0200
,  // measure 75
0300
0002
0003
2000
,  // measure 76
3000
0200
0300
0020
,  // measure 77
0030
0200
0300
2000
,  // measure 78
0000
0000
3000
0001
;

//---------------dance-single - ----------------
#NOTES:
     dance-single:
     :
     Medium:
     6:
     0.385,0.392,0.161,0.457,0.000:
2000
0000
3200
0000
,
0320
0000
0032
0000
,
0203
0000
0320
0000
,
2030
0000
0000
3000
,
0001
1001
0001
1001
,
0001
0000
1001
0000
0001
0010
0001
0000
,
1000
1001
1000
1001
,
1000
0000
1001
0000
1000
0100
1000
0000
,
0010
0110
0010
0110
,
0010
0000
0110
0000
1000
0001
1000
0000
,
0100
0110
0100
0110
,
0100
0110
0100
1000
,
0010
0100
0002
0000
0000
0000
1000
0000
,
2000
3003
1000
0100
,
0010
0100
0020
0000
0030
0000
0100
0000
,
0100
0010
0200
0000
0000
0000
1300
0000
,
0100
1000
0200
0000
0000
0000
0310
0000
,
0100
1000
0020
0000
0000
0000
0030
0000
,
0100
0001
0100
0000
0001
1000
0001
0000
,
0200
0000
0020
0000
0330
0000
1000
0100
,
2000
0000
3002
0000
,
0203
0000
0320
0000
,
0230
0000
0000
0000
0000
0000
0300
0001
,
0002
0000
0000
0000
0003
0000
1000
0100
,
2000
0000
3000
0001
0002
0000
0203
0000
,
0320
0000
0230
0000
0301
0000
1000
0100
,
2000
0000
3200
0320
,
0230
0000
2300
0000
3020
0000
0130
0010
,
0200
0000
0000
0000
,
0300
0000
0000
0000
0000
0000
0001
1000
,
0001
0000
1000
0000
0100
0010
0100
0000
,
1000
0010
1000
0000
1001
0000
0010
0001
,
0010
0000
0100
0000
1000
0001
1000
0000
,
0010
0100
0010
0000
0101
0000
1000
0100
,
1000
0000
0001
0000
0010
0100
0010
0000
,
0001
0100
0001
0000
1001
0000
1000
0010
,
1000
0000
0001
0010
0001
0000
1000
0010
,
1000
0000
1001
0000
0110
0000
0001
1000
,
0001
0000
0100
0000
0010
1000
0010
0000
,
1000
0100
1000
0000
1001
0000
1000
0001
,
1000
0000
0001
0000
0100
0010
0100
0000
,
0001
0010
0001
0000
1100
0000
1000
0001
,
1000
0000
0010
0000
0100
0001
0100
0000
,
0001
0010
0001
0000
1100
0000
1000
0001
,
1000
0000
0010
0100
0010
0000
1000
0010
,
2000
3002
2003
3000
,
0200
0000
2300
0000
,
3020
0000
0230
0000
,
0302
0000
0023
0000
,
0230
0000
0000
0300
,
2000
0000
3002
0000
,
0203
0000
0320
0000
,
0230
0000
0302
0000
,
1003
0000
0000
0100
,
1000
1000
0000
0010
0100
0010
0000
0000
,
0110
0000
1000
0001
1000
0000
0001
0000
,
0010
0010
0000
0100
0010
0100
0000
1000
,
0000
0001
1000
0010
,
0100
0010
0000
1000
0001
1000
0000
0100
,
0100
0000
0010
0100
0010
0000
0001
0000
,
1001
0000
0001
0000
1001
0000
1000
0001
,
1000
0000
0100
0010
0100
2000
0000
0000
,
0000
3001
0000
0001
0001
0000
1000
0001
,
2000
3000
0010
0100
0010
0200
0000
0000
,
0000
0310
0000
0100
0100
0000
0001
1000
,
0001
0000
1000
0100
1000
0200
0000
0000
,
0000
0310
0000
0100
0100
0000
1000
0100
,
1000
0000
0001
0100
0001
0200
0000
0000
,
0000
0301
0000
0000
1000
0000
0001
1000
,
0001
0000
0010
0100
0010
0000
0002
0000
,
0000
2003
0000
3002
,
0000
0203
0000
0320
,
0000
2030
0000
3200
,
0000
0320
0000
0032
,
0103
2000
3100
0002
,
0013
2000
3010
0002
,
0103
0000
2000
0000
3100
0000
0001
0010
,
0001
0000
1000
0010
1000
0000
0110
0000
;

//---------------dance-single - ----------------
#NOTES:
     dance-single:
     :
     Hard:
     8:
     0.516,0.496,0.161,0.524,0.091:
1000
2000
0000
0100
3200
0000
0010
0320
,
0000
0001
0032
0000
1000
2003
0000
0010
,
3020
0000
0100
0230
0000
0001
0302
0000
,
1003
0000
0000
1000
0100
0000
0010
0000
0100
0000
0000
0000
0110
0000
0000
0000
,
0001
0000
0000
0001
1000
0000
0000
0000
0001
0000
0000
0001
1000
0000
0000
0000
,
0001
0000
0000
0001
1000
0000
0000
0000
0001
0000
0010
0000
1000
0000
0010
0000
,
0001
0000
0000
0001
0100
0000
0000
0000
0001
0000
0000
0001
0100
0000
0000
0000
,
0001
0000
0000
0001
0100
0000
0000
0000
0010
0000
1000
0000
0100
0000
0010
0000
,
0100
0000
0000
0100
1000
0000
0000
0000
0100
0000
0000
0100
1000
0000
0000
0000
,
0100
0000
0000
0100
1000
0000
0000
0000
0010
0000
0100
0000
0010
0000
1000
0000
,
0100
0000
0000
0100
0010
0000
0000
0000
0100
0000
0000
0100
0010
0000
0000
0000
,
0100
0000
0000
0100
0010
0000
0000
0000
0010
0000
0001
0000
0100
0000
0000
0000
,
0010
1000
0200
0000
0300
1000
0100
0010
,
0200
0000
0010
1300
,
0010
0001
0200
0000
0300
0010
0100
0001
,
0010
0100
0020
0000
0030
0000
0001
0010
,
0100
1000
0020
0000
0030
0100
0010
2000
,
0000
0001
0002
0000
3000
0000
0003
0000
,
1000
1000
0100
0100
0010
0010
0100
0100
,
2000
0000
0002
0000
3003
0000
0100
0001
,
0020
0000
0000
0000
0000
0000
0100
0000
0230
0000
0000
1000
0000
0000
1000
0000
,
2300
0000
0000
0000
0000
0000
0010
0000
3020
0000
0000
0100
0000
0000
0100
0000
,
0200
0000
0000
0000
0000
0000
0330
0002
,
2000
0000
0000
0000
3003
0000
1000
0100
,
0020
0000
0000
0100
0230
0000
1000
0000
,
0001
0000
0010
0000
1300
0010
0001
0010
,
0200
0000
0000
0010
0320
0000
1000
0000
,
0001
0000
0130
0000
0001
0010
1000
0010
,
0002
0000
0000
0000
,
0003
0000
0000
0000
0000
0000
1000
0001
,
1001
0000
0000
0000
1100
0000
0000
0010
0001
0000
0100
0000
0010
0000
1000
0000
,
0200
0000
0010
0000
0310
0000
0000
0010
0100
0000
0000
0000
1000
0000
0010
0000
,
1010
0000
0000
0000
0101
0000
0000
0001
0010
0000
1000
0000
0010
0000
0001
0000
,
0200
0000
0010
0000
0310
0000
0000
1000
0010
0000
0000
0000
1000
0000
0100
0000
,
1100
0000
0000
0000
0011
0000
0000
0001
0010
0000
0100
0000
0010
0000
0001
0000
,
0200
0000
0010
0000
0310
0000
0000
1000
0010
0000
0000
0000
1000
0000
0001
0000
,
1001
0000
1000
0100
1001
0000
1000
0100
,
0011
0000
1100
0000
1001
0000
0001
0100
,
0110
0000
0000
0000
1010
0000
0000
1000
0100
0000
0001
0000
0100
0000
1000
0000
,
0020
0000
0100
0000
0130
0000
0000
0100
0001
0000
0000
0000
0001
0000
1000
0000
,
1100
0000
0000
0000
0011
0000
0000
0001
1000
0000
0010
0000
0001
0000
0010
0000
,
2000
0000
0100
0000
3100
0000
0000
1000
0001
0000
0000
0000
1000
0000
0100
0000
,
1100
0000
0000
0000
0011
0000
0000
0001
1000
0000
0010
0000
0001
0000
0010
0000
,
0200
0000
0001
0000
0301
0000
0000
1000
0001
0000
0000
0000
1000
0000
0010
0000
,
0110
0000
0001
1000
1001
0000
0001
0010
,
0011
1100
2002
3003
,
0020
0000
0200
0030
,
2000
0300
0200
3000
,
0002
0300
0020
0003
,
0200
0000
0000
0330
,
0200
0000
1000
1000
,
2000
0300
0010
0010
,
0020
3000
0200
0000
,
0330
0000
0000
0000
0000
0000
1000
0100
,
0010
0001
1000
0100
0010
0001
1000
0100
,
0010
0001
1000
0100
0010
0001
1000
0010
,
0100
0001
1000
0010
0100
0001
1000
0010
,
0100
0001
1000
0010
0100
0001
1000
0010
,
0001
0010
1000
0010
0001
0010
1000
0010
,
0001
0010
1000
0010
0001
0010
1000
0100
,
0001
0100
1000
0100
0001
0100
1000
0100
,
0001
0100
1000
0010
0100
0001
2000
0000
,
0100
0001
3000
0200
0010
1000
0320
0001
,
0032
0000
0103
1000
0100
0001
0020
0000
,
0100
0001
0230
0000
1000
0010
2300
0010
,
3020
0000
0130
0001
0010
1000
0020
0000
,
0001
0100
0032
0000
1000
0010
2003
0100
,
3200
0000
0010
1000
0310
0100
0020
0000
,
0001
0100
0032
0000
1000
0010
2003
0100
,
3200
0000
0310
0001
0100
1000
0200
0000
,
0301
0100
0002
0000
1003
0100
2000
0000
,
3010
0100
0020
0000
1030
0010
2000
0000
,
3001
0010
0002
0000
0103
0010
0200
0000
,
0301
0100
0002
0000
1003
0100
2000
0000
,
3010
1000
0020
0000
0130
0010
0200
0000
,
0301
0100
0002
0000
1003
0001
2000
0000
,
3100
1000
0200
0000
0310
0100
1000
0010
,
0100
0001
1000
0100
0010
0000
1100
0000
;
