#TITLE:White Light;
#SUBTITLE:;
#ARTIST:Superfly;
#TITLETRANSLIT:;
#SUBTITLETRANSLIT:;
#ARTISTTRANSLIT:;
#CREDIT:Grithokskulk;
#BANNER:White Light.png;
#BACKGROUND:What Light-bg.png;
#LYRICSPATH:;
#CDTITLE:grithokskulk.png;
#MUSIC:White Light.mp3;
#OFFSET:0.558;
#SAMPLESTART:54.035;
#SAMPLELENGTH:15.000;
#SELECTABLE:YES;
#BPMS:0.000=89.000;
#STOPS:;
#BGCHANGES:0.750=White Light.avi=1.000=1=0=1,
99999=-nosongbg-=1.000=0=0=0 // don't automatically add -songbackground-
;

//---------------dance-single - ----------------
#NOTES:
     dance-single:
     :
     Easy:
     3:
     0.202,0.249,0.148,0.059,0.000: // measure 1
0000
0000
0000
0000
,  // measure 2
0000
0000
0000
0000
,  // measure 3
0000
0000
1000
0100
,  // measure 4
0010
0000
0010
0010
,  // measure 5
0100
0000
1000
0001
,  // measure 6
0100
0000
0100
0100
,  // measure 7
0010
0000
1000
0001
,  // measure 8
0100
0000
0001
0001
,  // measure 9
0010
0000
0100
0010
,  // measure 10
0001
0000
0100
0100
,  // measure 11
0010
0000
1000
0100
,  // measure 12
1000
0000
0001
0010
,  // measure 13
0200
0300
0010
0100
,  // measure 14
1000
0000
0010
0100
,  // measure 15
0010
1000
0100
1000
,  // measure 16
0001
0000
0100
0010
,  // measure 17
2000
3000
0100
0010
,  // measure 18
0001
0000
0001
0010
,  // measure 19
0100
1000
0020
0030
,  // measure 20
0200
0300
2002
0000
,  // measure 21
3003
1000
1000
0100
,  // measure 22
1001
0001
0100
0010
,  // measure 23
0110
1000
0001
0010
,  // measure 24
0110
0010
0001
0100
,  // measure 25
0110
0010
1000
1000
,  // measure 26
1001
0001
0010
0010
,  // measure 27
0110
0100
1000
0001
,  // measure 28
1001
0010
0110
0110
,  // measure 29
1001
0000
1000
0100
,  // measure 30
0001
0100
1000
0100
,  // measure 31
0001
0100
1000
0010
,  // measure 32
0001
0010
1000
0010
,  // measure 33
0001
0010
1000
0010
,  // measure 34
0110
0001
0010
0100
,  // measure 35
0110
0010
0001
1000
,  // measure 36
1001
0010
0100
0001
,  // measure 37
1001
0100
0010
0010
,  // measure 38
0110
0100
1000
1000
,  // measure 39
1001
0001
0100
0010
,  // measure 40
1000
0001
0110
1001
,  // measure 41
0220
0330
1000
0100
,  // measure 42
0001
0100
1000
0100
,  // measure 43
0001
0100
1000
0010
,  // measure 44
0001
0010
1000
0010
,  // measure 45
0001
0010
1000
0100
,  // measure 46
0001
0100
1000
0100
,  // measure 47
0001
0100
1000
0010
,  // measure 48
0001
0010
1000
0001
,  // measure 49
0010
0000
0000
0000
;

//---------------dance-single - ----------------
#NOTES:
     dance-single:
     :
     Medium:
     5:
     0.322,0.302,0.467,0.037,0.000:
0000
0000
1000
1100
,
0001
0101
1000
1100
,
0001
0101
1000
1010
,
0010
0100
0100
0000
0101
0000
1010
0000
,
1001
0000
1000
1100
,
0010
0100
0100
0000
0011
0000
1100
0000
,
1001
0000
0010
0110
,
1000
0100
0100
0000
0011
0000
1001
0000
,
0110
0000
0001
0101
,
0010
1000
1000
0000
1100
0000
0011
0000
,
1001
0000
0000
0000
1000
0100
1000
0000
,
0020
0000
0130
0000
0001
0010
0001
0010
,
0200
0000
0310
0000
0001
1000
0001
0000
,
2000
0000
3100
0000
1000
0010
1000
0000
,
0110
0000
1001
0000
0100
1000
0100
0000
,
0020
0000
0230
0000
1300
0010
0100
0010
,
1000
0000
1001
0000
0010
0001
0010
0001
,
0100
0000
0010
1000
0100
0100
1000
0010
,
0100
0000
0001
1000
1001
0000
0100
0000
,
0110
0000
0010
0000
0001
1000
0001
1000
,
1001
0000
0001
0010
0100
0100
0000
0010
,
0100
0000
1000
0010
0100
0100
0000
0010
,
0100
0000
0001
0010
0001
0001
0000
1000
,
0010
0000
1000
0100
0010
0010
0000
0100
,
1000
0010
0100
0001
0010
0000
0110
0000
,
0010
0001
0100
0010
1000
0000
1001
0000
,
1000
0100
0010
0100
1000
0010
0010
0100
,
0001
0000
0010
0001
1001
0000
1001
0000
,
0110
0000
1000
1001
,
0001
0010
0100
0000
0010
0000
0110
0000
,
1100
1001
0101
0110
,
1000
0010
1000
0000
1001
0000
0110
0000
,
1001
0000
1000
0100
0010
0100
0100
1000
,
0000
1000
0010
0000
0100
0010
0010
0100
,
0000
0001
0010
0000
0100
0010
0010
0001
,
0000
0100
0010
0000
1000
0001
0001
1000
,
0000
0100
1000
0010
1000
0000
1100
0000
,
0001
0101
1000
1010
,
0001
0000
0011
0000
1000
0100
0100
0010
,
0000
0100
0010
0000
0011
0000
1100
0000
,
1001
0000
1000
1010
,
0001
0011
1000
1010
,
0001
0011
1000
1100
,
0001
0101
1000
1100
,
0001
0101
1000
1010
,
0001
0011
1000
1010
,
0001
0011
1000
1100
,
0001
0101
1000
1100
,
0110
0000
0000
0000
;

//---------------dance-single - ----------------
#NOTES:
     dance-single:
     :
     Hard:
     8:
     0.480,0.498,0.504,0.356,0.245:
0000
0000
1000
1100
,
0001
0101
1000
1010
,
0001
0000
0000
0000
0011
0000
0000
0000
1000
0000
0000
0000
1001
0000
0000
0001
,
0010
0001
0100
0010
0110
0000
1010
0000
,
2200
0000
0000
0000
3300
0000
0000
0000
0001
0000
0000
0000
0101
0000
0000
0001
,
0100
0010
0010
0100
0101
0000
1010
0000
,
2002
0000
0000
0000
3003
0000
0000
0000
0100
0000
0000
0000
0101
0000
0000
0001
,
0100
0010
0010
0100
0101
0000
1010
0000
,
2200
0000
0000
0000
3300
0000
0000
0000
0010
0000
0000
0000
1100
0000
0000
1000
,
0010
0100
0100
0001
0011
0000
1100
0000
,
2002
0000
0000
0000
3003
0000
0000
0000
1000
0100
0000
0100
0010
0000
0100
0000
,
2000
0000
0010
0000
3010
0000
0000
0000
0010
0100
0000
0100
0001
0000
0010
0000
,
0200
0000
0010
0000
0310
0000
0000
0000
0001
1000
0000
1000
0010
0000
1000
0000
,
0200
0000
1000
0000
1300
0000
0000
0000
0010
0100
0000
0100
0001
0000
0000
1000
,
0100
1000
0000
0001
0100
0001
0000
1000
0100
0000
0010
0000
0100
0000
0000
0100
,
2000
0000
0010
0000
3010
0000
0000
0100
0001
0000
1000
0000
0010
0000
0100
0000
,
0101
0000
0000
0000
1010
0000
0000
1000
0100
0000
0010
0000
0100
0000
1000
0000
,
0010
0100
0100
0001
0020
0100
0130
0010
,
0000
0000
0001
0000
1000
0001
1000
0000
2010
0000
0001
0000
0001
0000
3001
0000
,
0012
1000
1000
1003
0110
0110
0110
0110
,
0110
0000
0000
0000
1000
0100
1000
0100
2000
0000
0010
0000
3010
0000
0200
0000
,
0301
0000
0000
0000
0010
0100
0010
0100
0020
0000
0001
0000
0031
0000
2000
0000
,
3010
0000
0000
0000
0100
0010
0100
0010
2000
0000
0100
0000
3100
0000
0020
0000
,
0031
0000
1000
0000
0010
0100
0010
0100
0020
0000
1000
0000
1030
0000
0200
0000
,
1300
0000
1100
0000
0011
0000
0101
0000
0110
0000
0000
0010
1000
0000
0100
0000
,
0010
0100
0010
0000
0001
0100
0001
0000
0010
0000
0000
0010
0100
0000
1000
0000
,
0001
1000
0001
0000
1000
0010
1000
0010
2000
0000
0100
0000
3100
0000
0020
0000
,
0031
0000
0000
0000
0100
0001
0100
0001
1002
0103
0000
0000
0210
0301
0000
0000
,
2002
0000
0000
0000
3003
0000
0000
0000
1000
0000
0000
0000
1100
0000
0000
0100
,
1000
0100
1000
0000
0010
0000
0100
0000
0101
0000
0000
0000
1010
0000
0000
0000
,
0210
0000
0000
0000
0301
0000
0000
0000
1001
0000
0000
0000
0011
0000
0000
0010
,
0100
0010
0100
0000
0010
0000
0001
0000
0101
0000
0000
0000
0110
0000
0000
0000
,
1010
0000
0000
0000
1000
0001
1000
0001
2000
0000
0100
0000
3100
0000
0020
0000
,
0130
0000
0000
0000
1000
0010
1000
0010
2000
0000
0010
0000
3010
0000
0200
0000
,
0301
0000
0000
0000
1000
0001
1000
0001
2000
0000
0100
0000
3100
0000
0020
0000
,
0130
0000
1000
0000
0010
0100
0010
0100
0002
0000
0010
0000
0013
0000
0200
0000
,
1300
0000
1100
0000
0011
0000
0101
0000
0110
0000
0000
0010
1000
0000
0100
0000
,
0010
0001
0010
0000
0100
1000
0100
0000
1000
0000
0000
1000
0010
0000
0100
0000
,
0001
0000
0010
0000
0010
0100
0010
0100
0020
0000
0001
0000
0031
0000
0200
0000
,
0310
0000
1000
0000
0001
1000
0001
1000
2010
3001
0000
0000
0012
1003
0000
0000
,
2002
0000
0000
0000
3003
0000
0000
0000
1000
0000
0000
0000
1100
0000
0000
0100
,
0010
0100
0010
0000
1000
0000
0010
0000
0110
0000
0000
0000
0101
0000
0000
0000
,
2002
0000
0000
0000
3003
0000
0000
0000
1100
0000
0000
0000
0011
0000
0000
1000
,
0001
1000
0001
0000
1000
0000
0100
0000
0110
0000
0000
0000
1100
0000
0000
0000
,
2002
3003
1000
1100
,
0001
0101
1000
1100
,
0001
0101
1000
1010
,
0001
0011
1000
1010
,
0001
0000
0000
0000
;
