#TITLE:Weather Girl;
#SUBTITLE:;
#ARTIST:Shiny Toy Guns;
#TITLETRANSLIT:;
#SUBTITLETRANSLIT:;
#ARTISTTRANSLIT:;
#CREDIT:Grithokskulk;
#BANNER:Weather Girl.png;
#BACKGROUND:Weather Girl-bg.png;
#LYRICSPATH:;
#CDTITLE:grithokskulk.png;
#MUSIC:Weather Girl.mp3;
#OFFSET:-14.052;
#SAMPLESTART:67.555;
#SAMPLELENGTH:15.000;
#SELECTABLE:YES;
#BPMS:0.000=130.000;
#STOPS:;
#BGCHANGES:;

//---------------dance-single - ----------------
#NOTES:
     dance-single:
     :
     Easy:
     2:
     0.195,0.210,0.010,0.297,0.000: // measure 1
0000
0000
0000
0000
,  // measure 2
1000
0100
1000
0100
,  // measure 3
0020
0030
0020
0030
,  // measure 4
0001
0100
0001
0100
,  // measure 5
0020
0030
0020
0030
,  // measure 6
1000
0001
0020
0030
,  // measure 7
0001
1000
0020
0030
,  // measure 8
1000
0100
1000
0100
,  // measure 9
0010
0001
0020
0030
,  // measure 10
0001
0100
0020
0030
,  // measure 11
0100
0001
0020
0030
,  // measure 12
0100
1000
0020
0030
,  // measure 13
0100
0001
1000
1000
,  // measure 14
0010
1000
0100
1000
,  // measure 15
0020
0030
0100
0001
,  // measure 16
0020
0030
0100
0100
,  // measure 17
1000
1000
0001
1000
,  // measure 18
0020
0030
0100
0001
,  // measure 19
0020
0030
0001
1000
,  // measure 20
0020
0030
0100
0001
,  // measure 21
0020
0030
0100
0100
,  // measure 22
1000
1000
0001
0001
,  // measure 23
0020
0030
0001
0100
,  // measure 24
0020
0030
0001
0000
,  // measure 25
0020
0030
0100
1000
,  // measure 26
1001
0000
0020
0030
,  // measure 27
0001
0000
0020
0030
,  // measure 28
1000
0000
0020
0030
,  // measure 29
0001
0000
0020
0030
,  // measure 30
1000
0020
0000
0000
,  // measure 31
0000
0000
0030
0001
,  // measure 32
1000
0020
0000
0000
,  // measure 33
0000
0000
0030
0100
,  // measure 34
0020
0000
0000
0000
,  // measure 35
0000
0000
0030
1000
,  // measure 36
0020
0000
0000
0000
,  // measure 37
0000
0000
0000
0030
,  // measure 38
1000
0020
0000
0000
,  // measure 39
0000
0000
0030
0100
,  // measure 40
0001
0020
0000
0000
,  // measure 41
0000
0000
0030
0100
,  // measure 42
0020
0000
0000
0000
,  // measure 43
0000
0000
0030
0001
,  // measure 44
0020
0000
0000
0000
,  // measure 45
0000
0000
0000
0030
,  // measure 46
0000
0001
0001
0000
,  // measure 47
0000
1000
1000
0000
,  // measure 48
0000
0100
0100
0000
,  // measure 49
0000
1000
1000
0001
;

//---------------dance-single - ----------------
#NOTES:
     dance-single:
     :
     Medium:
     5:
     0.313,0.303,0.077,0.230,0.000:
0000
0000
0000
0000
,
1000
0000
0100
0000
0010
0100
0010
0000
,
0100
0100
0000
1000
0000
0000
0001
0000
,
0010
0001
0010
0000
0100
0010
0100
0000
,
1000
0000
0010
0000
0001
0010
0001
0000
,
0200
1000
0010
0301
,
0020
1000
0001
0130
,
2000
3010
0002
0013
,
2000
0000
3100
0000
0010
0100
1000
0000
,
0100
0000
1000
0000
0010
0000
0100
0010
,
0100
0001
1000
0100
,
1100
0000
1000
0000
0010
0000
0100
0001
,
0100
0000
0001
0000
0010
0100
0010
0000
,
0001
0000
0100
0000
0010
0100
0010
0000
,
0110
0000
0000
0000
0001
1000
0001
0000
,
1100
0000
0001
0010
,
0100
0000
0100
0000
0010
0001
0010
0000
,
0001
0000
0100
0000
0010
0100
0010
0000
,
1000
0000
0000
0000
0100
1000
0100
0000
,
1000
0000
0001
0000
0010
0100
0010
0000
,
0100
0010
0010
0010
,
0010
0000
0100
1000
0100
0000
1000
0001
,
0000
0000
0100
0000
0010
0100
0010
0000
,
0110
0000
0001
0001
0000
1000
1000
0000
,
0100
0000
0010
0010
0000
0100
0000
2000
,
0000
0010
0010
0010
,
0000
0001
0001
0001
,
0000
0100
0100
0100
,
0000
0010
0010
3010
,
0200
0302
0013
0000
,
0100
0000
0010
0002
,
2003
3020
0130
0000
,
0001
0000
0010
0200
,
2300
3000
0010
0000
,
0100
0000
0010
2000
,
3002
0003
0010
0000
,
0001
0000
0100
0010
,
0200
0000
0302
0000
0013
0000
0100
0010
,
0100
0010
0001
2000
,
3020
0000
2030
0000
3100
0000
0010
0100
,
0010
0100
1000
0002
,
0203
0000
0310
0000
0100
0000
0001
0010
,
0001
0010
0100
0020
,
0032
0000
0103
0000
0001
0000
0010
0100
,
0010
0100
1000
0010
,
0000
0100
0100
0000
0010
0000
0110
0000
,
0000
0001
0001
0000
1000
0000
1001
0000
,
0000
0100
0100
0000
0010
0000
0110
0000
,
0000
0100
0100
0000
1000
0000
0011
0000
;

//---------------dance-single - ----------------
#NOTES:
     dance-single:
     :
     Hard:
     6:
     0.399,0.350,0.220,0.057,0.019:
0000
0000
0000
0000
0000
0000
1000
0100
,
0010
0000
0110
0000
0100
0100
1000
0000
,
0010
0010
0100
1000
0100
0000
0001
0000
,
0010
0100
0010
0000
0001
0001
0100
0000
,
0010
0100
0001
0000
1000
0100
1000
0000
,
1001
0000
0001
0010
1000
0010
0001
1000
,
0010
0000
1000
0010
0001
0010
1000
0001
,
0010
0000
0001
0100
0001
0000
1000
0100
,
1000
0000
0001
0010
0100
0100
0010
0001
,
0100
0000
0010
0000
0110
0000
0100
0010
,
1000
0000
0100
1000
0001
0000
1010
0000
,
0101
0000
1000
0100
0010
0000
0100
0010
,
0100
0000
1000
0000
0010
0010
0100
0010
,
1000
0000
0001
0010
0001
0100
0000
0110
,
0000
0010
0100
0001
0010
0000
0100
0110
,
0000
0100
0010
0001
0100
0000
0010
0100
,
0010
0000
1000
0001
0010
0010
0001
1000
,
0010
0000
1000
0100
0010
0100
1000
0010
,
0000
0100
0001
0010
0001
0100
0010
1000
,
0000
0001
0010
0100
1000
0100
0010
0001
,
0000
0100
0010
0000
0110
0000
1001
0000
,
1100
0000
0010
0100
1000
1000
0010
0100
,
0000
0001
0010
0000
0001
0000
0101
0000
,
1010
0000
0100
0100
0000
0010
0010
0000
,
0100
1000
0010
0100
0000
0001
0000
1001
,
0000
0000
1000
0000
1000
0000
0000
0100
0000
0000
0100
0000
0010
0000
0010
0000
,
0000
0100
0100
0000
1100
0000
0011
0000
,
0000
0000
0001
0000
0001
0000
0000
0100
0000
0000
0010
0000
0010
0000
0000
0000
,
0000
0100
0100
0000
0110
0000
1001
0000
,
2000
0000
0100
0000
0001
0000
0010
0010
,
0000
0100
0000
0010
0000
0010
3100
0000
,
0002
0000
0010
0000
1000
0000
0010
0010
,
0000
1000
0000
0100
0000
0010
0203
0000
,
0320
0000
1000
0000
0001
0000
0100
0100
,
0000
0001
0000
0100
0000
1000
2030
0000
,
3200
0000
1000
0000
0010
0000
0001
0001
,
0000
0010
0000
1000
0000
0001
0301
0000
,
0010
0100
1000
0000
1001
0000
0100
0010
,
1000
0000
0001
0001
0000
0010
0010
0000
,
0100
0010
0001
0000
1001
0000
1000
0010
,
0100
0000
0010
0010
0000
0100
0001
0000
,
1000
0100
0010
0000
0110
0000
0100
1000
,
0010
0000
0100
0100
0000
0001
0001
0000
,
1000
0100
0010
0000
0110
0000
0100
1000
,
0010
0000
1000
1000
0000
0001
0001
0000
,
0000
0000
0100
0000
0100
0000
0000
0010
0000
0000
0100
0000
0100
0000
0000
0000
,
0000
0001
0001
0000
0010
0000
0110
0000
,
0000
0000
0100
0000
0100
0000
0000
1000
0000
0000
0010
0000
0010
0000
0000
0000
,
0000
0100
0100
0000
0001
0000
1001
0000
;

//---------------dance-single - ----------------
#NOTES:
     dance-single:
     :
     Challenge:
     8:
     0.526,0.444,0.210,0.115,0.416:
0000
0000
0000
0000
,
0100
0000
0100
0000
0010
0000
0000
1000
0000
0100
1000
0000
0100
0000
0000
0000
,
0010
0000
0010
0000
0100
0000
0000
0010
0100
0000
0010
0001
0010
0000
0000
0000
,
0001
0000
0100
0000
0101
0000
0000
0010
0000
0100
0000
0001
0010
0000
0000
0100
,
0000
0000
0010
0000
0010
0000
0000
0000
0100
0000
1000
0010
0100
0000
0000
0000
,
0010
0000
1000
0000
1000
0000
0000
0100
0000
0000
0010
0000
0110
0000
0000
0000
,
0100
0000
1000
0000
0010
0100
0000
0010
0000
0000
0100
0001
0010
0000
0000
0000
,
0100
0000
0000
0000
0110
0000
0000
0010
0000
0000
0010
0000
0011
0000
0000
0001
,
0000
0000
0100
0001
0010
0000
0000
0000
0100
0000
0100
1000
0010
0000
0000
0000
,
0100
0000
0010
0000
0110
0000
0000
0010
0000
0000
1000
0000
1100
0000
0000
0000
,
0010
0000
0100
0000
1100
0000
0000
1000
0000
0000
0010
0100
0001
0000
0010
0001
,
0100
0000
0010
0000
0110
0000
0000
0100
0000
0000
0010
0000
1010
0000
0000
1000
,
0000
0000
0000
0000
0100
0000
0010
0000
0100
0000
1000
0010
0100
0000
0010
1000
,
0001
0000
0000
0000
0011
0000
0000
0010
0000
0000
0100
0010
0001
0000
0000
0000
,
0100
0000
0100
0000
0110
0000
0000
0010
1000
0000
0100
0010
0001
0000
0000
0000
,
0100
0000
0100
0000
0101
0000
0000
0001
0000
0000
0010
0100
1000
0000
0000
0010
,
0000
0000
0100
0000
0110
0000
0000
0000
0100
0000
0001
0010
0100
0000
1000
0010
,
0100
0000
0000
0000
0011
0000
0000
1000
0000
0000
0010
0000
0110
0000
0000
0000
,
1000
0000
0100
0000
1100
0000
0000
0010
0000
0000
0100
0010
1000
0000
0000
0000
,
0001
0000
0010
0000
0110
0000
0000
0010
0000
0000
0001
0000
0101
0000
0000
0010
,
0000
0000
0000
0000
0110
0000
0000
0000
0010
0000
0100
0001
0010
0000
0100
1000
,
0010
0000
0100
0000
0110
0000
0000
1000
0000
0000
0001
0000
0110
0000
0000
0000
,
0001
0000
0010
1000
0010
0000
0001
0100
0001
0000
1000
0010
1000
0000
0000
0000
,
0001
0000
0000
0000
0100
0000
0010
0100
0000
0000
0001
0000
0001
0000
0000
0010
,
0000
0000
0100
0000
0110
0000
0000
0000
0010
0000
0001
0100
0010
0000
1000
0100
,
0010
0000
0100
1000
0100
1000
0000
0100
0000
0010
0000
0100
1000
0100
0000
0000
,
0000
0000
0010
0001
0010
0001
0000
0000
0100
0100
0000
0000
0010
0010
0000
0000
,
0000
0000
0100
0001
0100
0001
0000
1000
0000
0000
0100
0010
0100
0010
0000
0000
,
0000
0000
1000
0001
1000
0001
0000
0000
0100
0100
0000
0000
0010
0010
0000
0000
,
0200
1000
1000
1000
0010
0010
0010
0001
,
0001
0001
0010
0010
0001
0001
0001
0001
,
0320
1000
1000
1000
0100
0100
0100
0001
,
0001
0001
0100
0100
0100
1000
2030
0100
,
3200
0010
0010
0010
1000
1000
1000
0001
,
0001
0001
0010
0010
0010
0010
2300
0010
,
3020
0100
0100
0100
1000
1000
1000
0001
,
0001
0001
0100
0100
0100
0100
0100
0030
,
0002
0010
0100
0000
0100
0000
0100
0100
,
0010
0000
0010
1000
0000
1000
0100
0100
,
0023
1000
0100
0000
0001
0000
0001
0001
,
0100
0000
0100
0001
0000
0001
0230
0000
,
2300
0010
0001
0000
0100
0000
0100
0100
,
0010
0000
0010
0001
0000
0001
3200
0000
,
0320
0001
1000
0000
0100
0000
0100
0100
,
0001
0000
0001
0100
0000
0100
0001
0000
,
0130
0000
1000
0100
1000
0100
0000
1000
0000
0010
0000
0100
0010
0100
0000
0000
,
0000
0000
0001
1000
0001
1000
0000
0000
0010
0010
0000
0000
0100
0100
0000
0000
,
0000
0000
0001
0010
0100
0010
0000
0001
0000
0000
0010
0100
1000
0100
0000
0000
,
0000
0000
1000
0010
0100
0010
0000
0000
1000
1000
0000
0000
0001
0001
0000
0000
;
