#TITLE:Violently Car;
#SUBTITLE:;
#ARTIST:samplingmasters MEGA;
#TITLETRANSLIT:;
#SUBTITLETRANSLIT:;
#ARTISTTRANSLIT:;
#CREDIT:Grithokskulk;
#BANNER:Violently Car.png;
#BACKGROUND:Violently Car-bg.png;
#LYRICSPATH:;
#CDTITLE:pop'n music.png;
#MUSIC:Violently Car.mp3;
#OFFSET:-4.023;
#SAMPLESTART:12.415;
#SAMPLELENGTH:15.000;
#SELECTABLE:YES;
#BPMS:0.000=170.000,152.000=194.000,240.000=220.000,272.000=250.000,304.000=280.000,336.000=300.000;
#STOPS:;
#BGCHANGES:;

//---------------dance-single - ----------------
#NOTES:
     dance-single:
     :
     Easy:
     2:
     0.176,0.232,0.000,0.049,0.000: // measure 1
1000
0000
0000
0000
,  // measure 2
0001
0000
0000
0000
,  // measure 3
0010
0000
0000
0000
,  // measure 4
0001
0000
0001
0000
,  // measure 5
0100
0000
0100
0000
,  // measure 6
0100
0000
0100
0000
,  // measure 7
0010
0010
0000
0000
,  // measure 8
1000
1000
0000
0000
,  // measure 9
0001
0000
0000
0000
,  // measure 10
1000
0000
0000
0000
,  // measure 11
0100
0100
0000
0000
,  // measure 12
0010
0010
0000
0000
,  // measure 13
0100
0000
0000
0000
,  // measure 14
1000
0000
0000
0000
,  // measure 15
0001
0001
0000
0000
,  // measure 16
0100
0100
0000
0000
,  // measure 17
0010
0000
0000
0000
,  // measure 18
0100
0000
0000
0000
,  // measure 19
0001
0001
0000
0000
,  // measure 20
0010
0010
0000
0000
,  // measure 21
0100
0000
0000
0000
,  // measure 22
0010
0000
0000
0000
,  // measure 23
0001
0000
0100
0000
,  // measure 24
0010
0000
0100
0000
,  // measure 25
0001
0000
0000
0000
,  // measure 26
1000
0000
0000
0000
,  // measure 27
0100
0000
1000
0000
,  // measure 28
0010
0000
0100
0000
,  // measure 29
0010
0000
0000
0000
,  // measure 30
1000
0000
0000
0000
,  // measure 31
0001
0000
0010
0000
,  // measure 32
0100
0000
0010
0000
,  // measure 33
0001
0000
0000
0000
,  // measure 34
0100
0000
0000
0000
,  // measure 35
0010
0000
1000
0000
,  // measure 36
0100
0000
1000
0000
,  // measure 37
0010
0000
0000
0000
,  // measure 38
0100
0000
0000
0000
,  // measure 39
0010
0000
0100
0000
,  // measure 40
0100
0000
0001
0000
,  // measure 41
0001
0000
0010
0000
,  // measure 42
0100
0000
0100
0000
,  // measure 43
0010
0000
0010
0000
,  // measure 44
0010
0010
0010
0000
,  // measure 45
0200
0000
0000
0000
,  // measure 46
0000
0000
0300
0000
,  // measure 47
0020
0000
0000
0000
,  // measure 48
0000
0000
0030
0000
,  // measure 49
0002
0000
0000
0000
,  // measure 50
0000
0000
0003
0000
,  // measure 51
2000
0000
0000
0000
,  // measure 52
3000
0000
0001
0000
,  // measure 53
0100
0000
0010
0000
,  // measure 54
0100
0000
0000
0000
,  // measure 55
0001
0000
0010
0000
,  // measure 56
0001
0000
0000
0000
,  // measure 57
1000
0000
0010
0000
,  // measure 58
1000
0000
0000
0000
,  // measure 59
0010
0000
0100
0000
,  // measure 60
0020
0000
0000
0030
,  // measure 61
0100
0000
0100
0000
,  // measure 62
0000
0000
0001
0000
,  // measure 63
0010
0000
0010
0000
,  // measure 64
0000
0000
0100
0000
,  // measure 65
0010
0000
0010
0000
,  // measure 66
0000
0000
0001
0000
,  // measure 67
1000
0000
0001
0000
,  // measure 68
0100
0000
0010
0000
,  // measure 69
0100
0000
0100
0000
,  // measure 70
0000
0000
0001
0000
,  // measure 71
0010
0000
0010
0000
,  // measure 72
0000
0000
0100
0000
,  // measure 73
0010
0000
0010
0000
,  // measure 74
0000
0000
0001
0000
,  // measure 75
1000
0000
0010
0000
,  // measure 76
0100
0000
0010
0000
,  // measure 77
1000
0000
1000
0000
,  // measure 78
0000
0000
0001
0000
,  // measure 79
0010
0000
0010
0000
,  // measure 80
0000
0000
0100
0000
,  // measure 81
0010
0000
0010
0000
,  // measure 82
0000
0000
0001
0000
,  // measure 83
0100
0000
0010
0000
,  // measure 84
1000
0000
0001
0000
,  // measure 85
0010
0000
0010
0000
,  // measure 86
0000
0000
0100
0000
,  // measure 87
1000
0000
1000
0000
,  // measure 88
0000
0000
0010
0000
,  // measure 89
0100
0000
0100
0000
,  // measure 90
0000
0000
0001
0000
,  // measure 91
0010
0000
0010
0000
,  // measure 92
0100
0000
0100
0000
,  // measure 93
1000
0000
0001
0000
,  // measure 94
1000
0000
0001
0000
,  // measure 95
0200
0000
0000
0000
,  // measure 96
0310
0000
0000
0000
;

//---------------dance-single - ----------------
#NOTES:
     dance-single:
     :
     Medium:
     6:
     0.480,0.581,0.253,0.424,0.000:
1000
0000
0000
0010
0000
0000
1000
0000
,
0000
0100
0000
0000
0010
0000
0000
0100
,
0000
0000
1000
0000
0000
0001
0000
0000
,
0100
0100
0010
0010
,
2000
0000
0001
0000
,
0001
0000
3001
0000
,
0100
0000
0100
0000
0000
0010
0000
0010
,
1000
0000
1000
0000
0000
0001
0000
0001
,
0020
0000
0000
0000
,
0230
0000
0000
0000
,
0310
0000
0010
0000
0000
0001
0000
0100
,
0010
0000
0010
0000
0000
0100
0000
0001
,
2000
0000
0000
0000
,
3002
0000
0003
0000
,
0100
0000
0010
0000
0000
0100
0000
0001
,
0010
0000
0100
0000
0000
0010
0000
0001
,
2000
0000
3100
0000
,
0002
0000
0103
0000
,
1000
0000
0010
0000
0000
0100
0000
0010
,
1000
0000
0100
0000
0000
0010
0000
0100
,
2000
0000
3010
0000
,
0002
0000
0000
0000
1003
0001
1000
0000
,
0002
1003
2000
3100
,
0200
0310
0020
0130
,
0200
1300
2000
3010
,
0020
0130
0200
0301
,
0002
0013
0020
0130
,
0200
0310
0020
0031
,
0002
0103
0200
0310
,
0220
0330
1001
1001
,
2000
3100
0002
0103
,
2000
3010
0002
0013
,
0200
0310
0002
0013
,
2000
3100
0020
0130
,
2000
3100
0002
0013
,
0200
0310
0002
0013
,
2000
3010
0200
0310
,
0001
1000
0001
1001
,
0002
0010
0100
1003
,
0200
0001
1000
0310
,
0002
0100
0010
1003
,
0200
0001
1000
0310
,
2000
3100
0002
0103
,
1000
0001
1000
0001
1000
0001
1000
0000
,
0020
0001
1000
0100
,
1000
0100
1000
1030
,
0200
0001
1000
0010
,
0001
0001
1000
1300
,
0002
0100
0010
0100
,
0010
0000
0010
0000
0100
0000
0100
0003
,
2000
0100
0010
3100
,
1001
1001
0110
0110
,
0001
0000
0010
0000
0100
0010
0100
0000
,
0001
0100
0010
0010
,
0100
0000
0001
0000
1000
0100
1000
0000
,
0001
0100
0001
0000
0010
0000
0010
0000
,
0100
0000
1000
0000
0010
0100
0010
0000
,
1000
0001
1000
0000
0001
0000
0010
0000
,
0100
0000
0010
0000
0001
0100
0001
0000
,
2002
0000
3003
0000
,
1000
0000
1000
0000
0100
0010
0000
0000
,
0000
0000
0000
0000
0100
1000
0100
0000
,
0010
0000
0001
0000
0100
0001
0000
0000
,
0000
0000
0000
0000
0100
0010
0100
0000
,
0010
0000
1000
0000
0001
0010
0000
0000
,
0000
0000
0000
0000
0100
1000
0100
0000
,
1100
0000
0011
0000
,
0101
0101
1010
1010
,
0010
0000
0100
0000
0001
1000
0000
0000
,
0000
0000
0000
0000
0100
0010
0100
0010
,
0100
0000
0010
0000
0001
0100
0000
0000
,
0000
0000
0000
0000
0010
0100
0010
0100
,
0010
0000
1000
0000
0100
1000
0000
0000
,
0000
0000
0000
0000
0001
1000
0001
0000
,
1001
0000
0110
0000
,
1001
1001
0110
0110
,
0001
0000
0010
0000
0100
0010
0000
0000
,
0000
0000
0010
0010
,
0001
0100
0010
0000
,
0000
0000
0100
0100
,
0001
0000
1000
0000
0100
0010
0000
0000
,
0000
0000
1000
1000
,
1001
0000
0110
0000
,
1001
1001
0110
0110
,
0001
0000
0010
0000
0100
0010
0000
0000
,
0000
0000
0010
0010
,
0001
0000
0100
0000
0010
0100
0000
0000
,
0000
0000
0100
0100
,
0010
0000
1000
0000
0100
1000
0000
0000
,
0000
0000
1000
1000
,
1100
0000
0011
0000
,
0101
0000
1010
0000
,
0001
0010
0100
1000
,
0010
0100
0001
0000
,
2000
0000
0000
0000
,
3001
0000
0000
0000
;

//---------------dance-single - ----------------
#NOTES:
     dance-single:
     :
     Hard:
     8:
     0.659,0.658,0.351,0.310,0.000:
1000
0100
0010
0001
0010
0100
1000
0010
,
0100
0001
0010
0100
1000
0010
0001
0010
,
1000
0100
0001
0100
0010
0100
1000
0010
,
0200
0302
0023
0230
,
2300
0000
3020
0000
,
0230
0000
0301
0000
,
0011
0000
1100
0000
0010
1000
0100
0010
,
0100
0000
1000
0000
0010
0100
0001
0000
,
0020
0000
0130
0010
0100
0000
0011
0000
,
1001
0000
0001
0100
0001
0000
0101
0000
,
0110
0000
0101
0000
1000
0100
0001
0100
,
1100
0000
0011
0000
0001
0100
0010
0000
,
2000
0000
3100
0010
0100
0000
1000
0000
,
0220
0000
0330
0000
1000
0001
1000
0000
,
0011
0000
1100
0000
0001
0100
0010
0100
,
0001
0000
1000
0000
0001
0100
1000
0000
,
1100
0000
0001
0010
0001
0000
0100
0000
,
0110
0000
0001
0100
0010
0000
1000
0000
,
1100
0000
0011
0000
0001
1000
0010
0100
,
0010
0000
1000
0000
0001
0010
0100
0000
,
0011
0000
0001
0100
0010
0000
0100
0000
,
2002
0000
3003
0000
1000
0100
0010
0000
,
0200
0001
1000
0010
,
2300
0010
0001
0100
,
3020
0001
1000
0100
,
2030
0000
0100
0000
3001
0010
0100
0000
,
0020
1000
0001
0100
,
0032
0100
0010
0100
,
2003
0100
0010
3100
,
0220
0330
0001
1000
,
0020
0001
1000
0100
,
2030
0000
0100
0000
3001
0010
0100
0000
,
0020
1000
0001
0100
,
0032
0000
0100
0000
0013
0100
0010
0000
,
0002
0100
0010
0100
,
2003
0000
0100
0000
3010
0100
0010
0000
,
2000
0100
0001
3010
,
0110
0110
1001
1001
,
0001
0010
0100
2000
0010
0000
3100
0000
,
0001
0100
1000
0200
0010
0000
1300
0000
,
0010
0100
0001
0020
0100
0000
1030
0000
,
0010
0001
0100
0020
1000
0000
0130
0000
,
0001
0010
0100
0000
1000
0010
0100
0000
,
0001
0010
1000
0010
0001
0100
1000
0100
,
0020
0000
1000
0000
0001
0001
0001
0000
,
0100
0100
0130
0001
0000
0001
1000
0000
,
0200
0000
0001
0000
1000
1000
1000
0000
,
0010
0010
0310
0100
0000
0100
1000
0000
,
0020
0000
1000
0000
0001
0001
0001
0000
,
0100
0100
0130
0001
0000
0001
0010
0000
,
0200
0000
0001
0000
1000
1000
1300
0000
,
0110
1001
0110
0101
,
1000
0000
0100
0000
0010
0100
1000
0000
,
0010
0100
0001
0010
0000
0010
0100
0000
,
0011
0000
1100
0000
0001
0100
1000
0000
,
1000
0100
0010
1000
0000
1000
0100
0000
,
0110
0000
1001
0000
0001
0010
0100
0000
,
0010
0001
0100
0010
0000
0010
0100
0000
,
0101
0000
1010
0000
1000
0100
0010
0000
,
0100
1000
0100
1000
0100
0000
1001
0000
,
0001
0000
0010
0000
0100
0010
0000
0001
,
0000
0100
0000
0010
0100
0001
0100
0010
,
0100
0000
0001
0000
1000
0100
0000
0010
,
0000
0100
0000
1000
0010
0100
0010
1000
,
0010
0000
0100
0000
0001
0010
0000
1000
,
0000
0010
0000
0001
0100
0010
0100
0000
,
0001
0100
0001
0000
1000
0100
1000
0000
,
0001
0010
0001
0000
1000
0010
1000
0000
,
0001
0000
0010
0000
0100
0010
0000
0001
,
0000
0100
0000
0010
0100
0001
0100
0000
,
0010
0000
1000
0000
0100
0001
0000
0100
,
0000
1000
0000
0010
0100
0010
1000
0000
,
0100
0000
0010
0000
0100
1000
0000
0010
,
0000
0100
0000
0001
0010
0100
0010
0000
,
0011
0100
0110
0010
,
1010
0000
0101
0000
0001
0010
0100
0000
,
1000
0000
0010
0000
0100
0010
0000
1000
,
0000
0100
0000
0010
0100
1000
0010
0100
,
0010
0000
1000
0000
0001
0010
0000
0100
,
0000
0010
0000
0001
0100
0010
0100
0001
,
1000
0000
0100
0000
0001
0100
0000
1000
,
0000
0010
0000
0100
0010
1000
0010
0000
,
0100
0001
0010
0000
0100
1000
0010
0000
,
0100
0010
0100
0010
0100
0000
0001
0000
,
0010
0000
0100
0000
1000
0010
0000
0100
,
0000
0010
0000
1000
0001
0010
0001
1000
,
0010
0000
0100
0000
0010
1000
0000
0100
,
0000
0001
0000
0100
1000
0010
0100
0001
,
0010
0000
1000
0000
0010
0001
0000
0100
,
0000
0010
0000
0100
0001
1000
0100
0000
,
0011
0001
0101
0100
,
0110
0010
1010
1000
,
0100
1000
0100
1000
0001
0100
0001
0100
,
0010
1000
1001
0000
,
0200
0000
0000
0000
,
0310
0000
0000
0000
;
