#TITLE:Vermilion;
#SUBTITLE:;
#ARTIST:Remo-con;
#TITLETRANSLIT:;
#SUBTITLETRANSLIT:;
#ARTISTTRANSLIT:;
#CREDIT:Grithokskulk;
#BANNER:Vermilion.png;
#BACKGROUND:Vermilion-bg.png;
#LYRICSPATH:;
#CDTITLE:jubeat.png;
#MUSIC:Vermilion.mp3;
#OFFSET:-3.655;
#SAMPLESTART:72.195;
#SAMPLELENGTH:15.000;
#SELECTABLE:YES;
#BPMS:0.000=143.000;
#STOPS:;
#BGCHANGES:;

//---------------dance-single - ----------------
#NOTES:
     dance-single:
     :
     Easy:
     4:
     0.294,0.306,0.115,0.230,0.000: // measure 1
0000
0000
0000
0000
,  // measure 2
0000
0000
0000
0000
,  // measure 3
1000
0100
1000
0100
,  // measure 4
0010
0001
0010
0001
,  // measure 5
0100
0001
0100
0001
,  // measure 6
2000
3000
0002
0003
,  // measure 7
0010
0100
0010
0100
,  // measure 8
1000
0001
1000
0001
,  // measure 9
0100
0010
0100
0010
,  // measure 10
2000
0000
0000
3000
,  // measure 11
0001
0010
0001
0010
,  // measure 12
0001
0100
0001
0100
,  // measure 13
0010
1000
0010
1000
,  // measure 14
0100
1000
0100
1000
,  // measure 15
0100
0100
0020
0030
,  // measure 16
0001
0001
2000
3000
,  // measure 17
0010
0010
0100
0100
,  // measure 18
0001
0001
2000
3002
,  // measure 19
0023
0000
0000
0030
,  // measure 20
0200
0000
0000
0300
,  // measure 21
0020
0000
0000
0030
,  // measure 22
0200
0000
0300
1000
,  // measure 23
2000
0000
0000
0000
,  // measure 24
0000
0000
0000
3001
,  // measure 25
0020
0000
0000
0000
,  // measure 26
0030
0000
0000
0110
,  // measure 27
0100
0100
0100
0100
,  // measure 28
0100
0100
0100
0100
,  // measure 29
0100
0100
0010
0001
,  // measure 30
0100
0100
0010
1000
,  // measure 31
0100
0100
0100
0100
,  // measure 32
0100
0100
0100
0100
,  // measure 33
0100
0100
0100
0100
,  // measure 34
0100
0100
0100
0100
,  // measure 35
0010
0010
0100
0100
,  // measure 36
1001
0000
0110
0000
,  // measure 37
1000
0010
1000
0010
,  // measure 38
0100
0100
0001
0010
,  // measure 39
0100
0100
0010
0001
,  // measure 40
0100
0100
0100
0100
,  // measure 41
0010
1000
0001
0010
,  // measure 42
0001
1000
0010
1000
,  // measure 43
0001
0010
0100
1000
,  // measure 44
0010
0000
0110
0110
,  // measure 45
1000
0001
0020
0030
,  // measure 46
0001
1000
0020
0030
,  // measure 47
0100
0001
2000
3000
,  // measure 48
0200
0300
0020
0030
,  // measure 49
0100
0010
0001
0200
,  // measure 50
0310
0100
0001
2000
,  // measure 51
3100
0010
0100
1000
,  // measure 52
1001
0000
0110
0000
,  // measure 53
1001
1001
0110
0220
,  // measure 54
0000
0330
0000
0000
;

//---------------dance-single - ----------------
#NOTES:
     dance-single:
     :
     Medium:
     6:
     0.415,0.473,0.219,0.282,0.000:
0100
0000
0000
0010
0000
0000
1000
0000
,
0100
0010
0100
0000
1001
0000
0000
0000
,
0001
0000
0100
0000
0010
0100
0010
0000
,
0100
0000
0001
0000
1000
0100
1000
0000
,
0100
0000
0010
0000
0100
1000
0100
0000
,
1000
0001
2000
0000
3010
0100
0020
0000
,
0130
0000
0001
0000
0010
0001
0010
0000
,
0001
0000
0100
0000
0010
1000
0010
0000
,
1000
0000
0100
0000
0010
0100
0010
0000
,
0001
0010
0100
1000
0020
0000
0030
0000
,
0100
0000
0001
0000
1000
0100
1000
0000
,
0001
0000
0010
0000
0001
0100
0001
0000
,
1000
0000
0100
0000
0010
0100
0010
0000
,
0001
0000
0100
0000
0010
0100
0010
0000
,
1000
0100
0010
0001
1000
0000
0000
0000
,
0001
0010
0100
1000
0001
0000
0000
0000
,
1000
0010
1000
0000
0001
0010
0001
0000
,
0100
0010
0100
0000
1001
0000
0110
0000
,
0002
0000
0000
0010
0000
0000
0100
0000
,
2003
0000
0000
0100
0000
0000
0010
3000
,
0002
0000
0000
0010
0000
0000
0100
0003
,
0200
0000
0000
0010
0000
0300
0001
0001
,
0020
0000
0000
0000
,
0000
0000
0230
0320
,
0032
0000
0000
0000
,
0003
0000
1001
0110
,
0001
0010
0100
1000
,
0001
0010
0100
1000
,
0001
0000
0010
0000
0100
1000
0100
0000
,
0010
0000
0001
0000
0100
0001
0100
0000
,
0001
0100
0010
1000
,
0001
0100
0010
1000
,
0001
0100
0010
1000
,
0001
0100
0010
1000
,
0001
0100
0010
0000
1000
0001
0100
0000
,
0010
0000
0000
0110
0000
0000
0100
0000
,
0001
0011
1000
1010
,
0001
0000
0010
0100
0010
0000
0001
0000
,
1000
1010
0001
0011
,
0110
0000
0110
0000
0110
0000
0220
0330
,
0001
0000
0100
0000
0010
0100
0001
0000
,
1000
0000
0100
0000
0010
0100
1000
0000
,
0010
0000
0100
0000
0001
1000
0100
0000
,
1000
0010
1010
0101
,
0020
0000
0032
0000
0103
0001
0100
0000
,
0020
0000
0230
0000
0301
1000
0001
0000
,
2000
0000
3200
0000
0310
0100
0010
0000
,
0100
1000
1100
0000
1000
0001
1001
0000
,
0002
0000
0203
0000
0310
0100
0010
0000
,
0200
0000
0302
0000
1003
0100
1000
0000
,
0200
0000
0320
0000
0130
1000
0100
0000
,
1000
0000
0000
1001
0000
0000
0001
0000
,
0100
0010
1001
0220
,
0000
0330
0000
0000
;

//---------------dance-single - ----------------
#NOTES:
     dance-single:
     :
     Hard:
     9:
     0.660,0.668,0.596,0.261,0.371:
1010
0000
0000
0101
0000
0000
0011
0000
0000
1001
0000
0000
1001
0000
0110
0000
,
0001
0010
0100
1000
0020
0200
0330
0000
,
0001
0000
0010
0000
0110
0000
0000
0000
0010
0001
0010
0001
0010
0000
0001
0000
,
0100
0000
0010
0000
0110
0000
0000
0000
1000
0001
1000
0001
1000
0000
0100
0000
,
0010
0000
0100
0000
1100
0000
0000
0000
1000
0010
1000
0010
1000
0000
0010
0000
,
0100
0001
1001
1000
0100
0010
0011
0001
,
0100
0000
0010
0000
0110
0000
0000
0000
1000
0001
0010
0001
1000
0000
0010
0000
,
0100
0000
0001
0000
1001
0000
0000
0000
1000
0100
0010
0100
1000
0000
0100
0000
,
0010
0000
0100
0000
1100
0000
0000
0000
1000
0010
0100
0010
1000
0000
0000
0000
,
0001
0001
0010
0010
0200
0020
0330
0000
,
0001
0000
1000
0000
1001
0000
0000
0000
1000
0010
0100
0010
1000
0000
0001
0000
,
0010
0000
0100
0000
0110
0000
0000
0000
0010
0001
0100
0001
0010
0000
0100
0000
,
0010
0000
0001
0000
1001
0000
0000
0000
1000
0010
0100
0010
1000
0000
0100
0000
,
0010
0000
0100
0000
1100
0000
0000
0000
1000
0001
0100
0001
0010
0000
0000
0000
,
0100
0100
0010
0010
0011
1100
0000
0000
,
1000
1000
0010
0010
0110
0101
0000
0000
,
0001
0000
0001
0000
0010
0000
0100
0010
0001
0000
0001
0000
0100
0000
0010
1000
,
0100
0100
1000
1000
1010
0000
0101
0000
,
0020
0000
0000
0100
0000
0000
0001
0000
,
0230
0000
0000
0001
0000
0000
1000
0000
,
0320
0000
0000
1000
0000
0000
0100
0000
,
0032
0000
0000
0100
0000
0000
0010
0010
,
0203
0000
0000
1000
0000
0000
0010
0010
,
0302
0000
0000
0010
0000
0000
1000
1000
,
0203
0000
0000
1000
0000
0000
0010
0010
,
0302
0000
0000
0010
0000
0000
1003
1000
,
1000
0000
0001
0000
0010
0100
0010
0000
,
0001
0000
0100
0000
1000
0100
0010
1000
,
0100
0000
0000
0000
0010
0000
0000
0200
2300
3000
0000
0000
1000
0000
0010
0000
,
0100
0000
0000
0000
0001
0000
0000
0020
0032
0003
0000
0000
0010
0000
0001
0000
,
0100
0000
0110
0000
0010
1000
0100
0000
,
0010
0000
1100
0000
1000
0001
0100
0000
,
0001
0000
0011
0000
0001
0100
0010
0000
,
0100
0000
0101
0000
1000
0100
0010
0000
,
0100
0100
0010
0000
0001
0100
0010
1000
,
1010
0000
0000
0101
0000
0000
0011
0000
0000
1001
0000
0000
1001
0000
0110
0000
,
0101
0000
0000
0000
1001
0000
0000
0000
1100
0000
0000
0110
0000
0000
0011
0000
,
1001
0000
0000
0100
0000
0010
0000
1000
0000
0100
0000
0000
1100
0000
0000
0000
,
0011
0000
0000
0000
0101
0000
0000
0000
0110
0000
0000
1001
0000
0000
0110
0000
,
0001
0010
0100
0000
1000
0010
0100
0000
0001
0010
0200
0000
0020
0000
0330
0000
,
0001
0000
0010
0000
0100
0000
0000
0010
0000
0001
0000
0000
0100
0000
0010
0000
,
0100
0000
0001
0000
1000
0000
0000
0100
0000
1000
0000
0000
0010
0000
0100
0000
,
0010
0000
1000
0000
0100
0000
0000
0010
0000
0100
0000
0000
1000
0000
0001
0000
,
0010
0001
0100
0000
0101
0000
1010
0000
,
2000
0000
0000
0000
3200
0000
0000
0000
0310
0100
1000
0010
0100
0000
0010
0000
,
2000
0000
0000
0000
3002
0000
0000
0003
0010
0001
0100
0010
0100
0000
0001
0000
,
2000
0000
0000
0000
3200
0000
0000
0000
1300
0010
0100
0010
1000
0000
0001
0000
,
0010
0000
0100
0000
0110
0000
0010
0000
0001
0100
0010
0100
0001
0000
1000
0000
,
0000
0100
1000
0100
0000
1000
0010
1000
0000
0010
0100
0010
0100
0000
0001
0000
,
0000
0010
0001
0010
0000
0001
0100
0001
0000
0100
0010
0100
0010
0000
0100
0000
,
0000
0001
1000
0001
0000
1000
0100
1000
0000
0100
0010
0100
0010
0000
0100
0000
,
1100
0000
0000
0011
0000
0000
0101
0000
0000
0110
0000
0000
1001
0000
0110
0000
,
1000
0100
0010
0001
0011
0100
1100
0020
,
0000
0030
0000
0000
;
