#TITLE:Valanga;
#SUBTITLE:;
#ARTIST:DJ TOTTO;
#TITLETRANSLIT:;
#SUBTITLETRANSLIT:;
#ARTISTTRANSLIT:;
#CREDIT:Grithokskulk;
#BANNER:Valanga.png;
#BACKGROUND:Valanga-bg.png;
#LYRICSPATH:;
#CDTITLE:REFLEC BEAT.png;
#MUSIC:Valanga.mp3;
#OFFSET:-10.355;
#SAMPLESTART:63.695;
#SAMPLELENGTH:14.980;
#SELECTABLE:YES;
#BPMS:0.000=186.000;
#STOPS:;
#BGCHANGES:;

//---------------dance-single - ----------------
#NOTES:
     dance-single:
     :
     Easy:
     5:
     0.343,0.452,0.155,0.258,0.000: // measure 1
0000
0000
1000
0001
,  // measure 2
0100
0010
1000
0001
,  // measure 3
1000
0100
1000
0000
,  // measure 4
0001
0010
0001
0000
,  // measure 5
2000
3001
0200
0310
,  // measure 6
0002
0003
0020
0030
,  // measure 7
1000
0001
0100
0110
,  // measure 8
0010
1000
0001
0000
,  // measure 9
1000
1001
0002
1003
,  // measure 10
2000
3000
0020
0030
,  // measure 11
0100
0110
0200
0310
,  // measure 12
1000
0010
0100
1111
,  // measure 13
1000
0010
1000
0100
,  // measure 14
1000
0010
1000
0100
,  // measure 15
1000
1000
0100
0100
,  // measure 16
0010
0010
0001
0001
,  // measure 17
0100
0001
0010
0001
,  // measure 18
0100
0001
0010
0001
,  // measure 19
1000
0001
0010
0001
,  // measure 20
1000
0001
0100
0001
,  // measure 21
0010
0001
1000
0001
,  // measure 22
0100
0001
1000
0001
,  // measure 23
0010
0010
0001
0001
,  // measure 24
0000
0100
0100
0000
,  // measure 25
0110
0000
1001
0000
,  // measure 26
0110
0000
0001
0001
,  // measure 27
1001
0000
0110
0000
,  // measure 28
1001
0000
1000
1000
,  // measure 29
1100
0000
0011
0000
,  // measure 30
1100
0000
0001
0001
,  // measure 31
0101
0000
1010
0000
,  // measure 32
0101
0000
0010
0010
,  // measure 33
0200
0000
0000
0300
,  // measure 34
0020
0030
0002
0003
,  // measure 35
0200
0000
0000
0300
,  // measure 36
0010
1000
0100
0010
,  // measure 37
0002
0000
0000
0003
,  // measure 38
2000
3000
0020
0030
,  // measure 39
0200
0000
0000
0300
,  // measure 40
0020
0030
2000
3000
,  // measure 41
0200
0000
0000
0000
,  // measure 42
0300
0000
0000
0000
,  // measure 43
0010
0100
0010
0000
,  // measure 44
0001
1000
0010
0000
,  // measure 45
1000
0010
0100
0001
,  // measure 46
0020
0000
0100
0130
,  // measure 47
2000
3000
0010
0100
,  // measure 48
0010
0010
1000
0001
,  // measure 49
0020
0000
0100
0130
,  // measure 50
0220
0000
0000
0330
,  // measure 51
0001
0000
1000
0010
,  // measure 52
0100
0000
0010
1000
,  // measure 53
0100
0100
0010
0010
,  // measure 54
0200
0000
0010
0310
,  // measure 55
0002
0003
1000
0010
,  // measure 56
0100
0000
0010
0010
,  // measure 57
2000
0000
0002
0000
,  // measure 58
0000
0000
0000
3003
,  // measure 59
0001
0010
0001
0100
,  // measure 60
0001
0010
0001
0100
,  // measure 61
0010
1000
0100
1000
,  // measure 62
0010
1000
0100
1000
,  // measure 63
0001
0010
0001
1000
,  // measure 64
0001
0100
0001
0010
,  // measure 65
0001
0001
0010
0010
,  // measure 66
0100
0100
1000
1000
,  // measure 67
0010
1000
0010
0100
,  // measure 68
0010
0001
0010
0100
,  // measure 69
0001
0100
0010
0100
,  // measure 70
1000
0100
0010
0100
,  // measure 71
0001
0010
0100
0010
,  // measure 72
0001
0010
1000
0010
,  // measure 73
0100
0100
1000
1000
,  // measure 74
0010
0000
0010
0000
0100
0000
0000
0202
,  // measure 75
0000
0000
0000
0000
,  // measure 76
0303
0000
0000
0000
;

//---------------dance-single - ----------------
#NOTES:
     dance-single:
     :
     Medium:
     7:
     0.441,0.452,0.069,0.155,0.000:
0020
0000
0000
0000
,
0230
0000
0000
0000
,
0302
0000
0000
0000
,
0203
0000
0000
0000
,
2300
0000
0000
0000
,
3200
0000
0000
0000
,
0320
0000
0000
0000
,
2030
0000
0000
3000
,
0001
0010
0100
0000
0001
0010
0100
0000
,
0001
0010
0100
0000
0001
0010
0100
1000
,
0010
1000
0100
0000
0010
1000
0100
0000
,
0010
1000
0100
0000
0010
1000
0100
1000
,
0010
0100
0001
0000
0010
0100
0001
0000
,
0010
0100
0001
0000
0010
0100
0001
0000
,
0001
0010
0100
1000
,
0001
0010
0100
0000
1000
0100
0010
0000
,
0001
0100
1000
0000
0001
0100
1000
0000
,
0001
0100
1000
0000
0001
0100
1000
0000
,
1000
0100
0001
0000
1000
0100
0001
0000
,
1000
0100
0001
0000
1000
0100
0001
0000
,
0001
0010
1000
0000
0001
0010
1000
0000
,
0001
0010
1000
0000
0001
0010
1000
0000
,
0001
0100
0010
0000
0100
0010
1000
0100
,
0000
0010
0010
0000
0100
1000
0100
0000
,
0001
0001
0000
0001
0001
0000
0001
0001
,
0000
0001
0001
0000
0000
0000
0000
0000
,
1000
1000
0000
1000
1000
0000
1000
1000
,
0000
1000
1000
0000
0000
0000
0000
0000
,
0010
0010
0000
0010
0010
0000
0010
0010
,
0000
0010
0010
0000
0000
0000
0000
0000
,
0100
0100
0000
0100
0100
0000
0100
0100
,
0000
0100
0100
0000
0000
0000
0000
0000
,
0001
0001
0000
0010
0010
0000
0001
0001
,
0000
0100
0100
0000
0000
0000
0000
0000
,
0010
0010
0000
1000
1000
0000
0100
0100
,
0000
0010
0010
0000
0000
0000
0000
0000
,
0100
0100
0000
1000
1000
0000
0001
0001
,
0000
0100
0100
0000
0000
0000
0000
0000
,
0001
0001
0000
0010
0010
0000
0100
0100
,
0000
1000
1000
0000
0010
0010
0000
0000
,
0200
0000
0000
0000
,
0000
0000
0000
0300
,
0010
0000
1000
0000
0100
0010
0100
0020
,
0000
0000
0130
0000
0010
0001
0010
0000
,
0001
0100
0010
1000
,
0200
0000
0300
0000
1000
0010
1000
0000
,
0001
0000
1000
0000
,
0010
0000
0100
0000
0001
0010
0001
0000
,
1001
0000
0000
0000
0010
0100
0010
0000
,
1001
0000
0000
0000
1000
0100
0010
0001
,
0100
0000
0010
0000
0100
0001
0100
0000
,
0002
1003
2000
3001
,
0001
0010
0001
0000
1000
0010
1000
0000
,
0220
0000
0330
0000
1000
0001
1000
0000
,
0200
0000
0300
0000
0010
0100
0010
0000
,
1000
0010
0100
0001
,
1001
0000
0000
0110
0000
0000
0000
0000
,
0100
0010
0100
0000
0010
0000
0110
0000
,
1000
0010
1000
0000
0001
0100
0001
0000
,
1000
0010
1000
0000
0001
0010
0001
0000
,
1000
0100
1000
0000
0001
0100
0001
0000
,
1000
0010
1000
0000
0001
0010
0001
0000
,
0100
0010
0100
0000
0010
0100
0010
0000
,
1000
0010
1000
0000
0001
0010
0001
0000
,
1000
0100
0010
0000
0001
0100
0010
0000
,
1000
0010
0001
0010
1000
0000
1001
0000
,
1000
0100
1000
0000
0001
0010
0001
0000
,
0100
0001
0010
0000
0100
1000
0010
0000
,
1000
0010
0001
0000
1000
0100
0001
0000
,
1000
0100
0001
0000
1000
0010
0001
0000
,
1000
0010
0100
0000
0001
0010
0100
0000
,
0100
1000
0010
0000
0100
0001
0010
0000
,
0001
0001
0000
1000
1000
0000
0010
0010
,
0000
0100
0100
0000
0001
0000
0000
2002
,
0000
0000
0000
0000
,
3003
0000
0000
0000
;

//---------------dance-single - ----------------
#NOTES:
     dance-single:
     :
     Hard:
     9:
     0.698,0.775,0.422,0.482,0.142:
2000
0000
3200
0000
,
0320
0000
0230
0000
,
2300
0000
3002
0000
,
0203
0320
0130
0002
,
0023
0000
0230
0000
,
0320
0000
0032
0000
,
1003
0010
0001
0000
0010
1000
0100
0000
,
0010
0100
1000
0010
0100
0000
0110
0000
,
0001
0010
1000
0010
0001
0010
1000
0010
,
0001
0010
1000
0010
0001
0100
0010
0000
,
1000
0100
0001
0100
1000
0100
0001
0100
,
1000
0100
0001
0100
1000
0010
0100
0000
,
0001
0100
1000
0100
0001
0100
1000
0100
,
0001
0100
1000
0100
0001
0100
1000
0000
,
0100
0010
1000
0010
0001
0010
0100
0010
,
1000
0100
0010
0001
0100
0000
0110
0000
,
1000
0010
0001
0010
1000
0100
0001
0100
,
1000
0010
0001
0010
1000
0100
0001
0000
,
0001
0100
1000
0010
0001
0010
1000
0100
,
0001
0100
1000
0010
0001
0010
0100
0000
,
0001
0010
1000
0010
0001
0100
1000
0100
,
0001
0010
1000
0010
0001
0100
0010
0000
,
1000
0100
0010
0100
0001
0100
0010
0100
,
0000
1000
1000
0000
0010
0100
0001
0000
,
0101
0101
0000
1010
1010
0000
1100
1100
,
0000
0000
0000
0011
0000
0000
0011
0000
0000
0000
0000
0000
0100
0000
0010
0000
0100
0000
0001
0000
1000
0000
0100
0000
,
0110
0110
0000
1001
1001
0000
0101
0101
,
0000
0000
0000
1010
0000
0000
1010
0000
0000
0000
0000
0000
1000
0000
0100
0000
0010
0000
0001
0000
0100
0000
0010
0000
,
0110
0110
0000
1001
1001
0000
1100
1100
,
0000
0000
0000
0011
0000
0000
0011
0000
0000
0000
0000
0000
1000
0000
0010
0000
0001
0000
0010
0000
1000
0000
0100
0000
,
0110
0110
0000
1001
1001
0000
0101
0101
,
0000
0000
0000
1010
0000
0000
1010
0000
0000
0000
0000
0000
1000
0000
0100
0000
0010
0000
0100
0000
1000
0000
0010
0000
,
0200
1000
0000
0010
0010
0000
1000
1000
,
0302
1000
1000
0000
0023
0000
1000
0000
,
0230
0001
0000
0010
0010
0000
1000
1000
,
0320
0032
0203
0320
,
0230
0001
0000
1000
1000
0000
0010
0010
,
0302
0010
0010
0000
2003
0000
0010
0000
,
3200
0010
0000
1000
1000
0000
0001
0001
,
0320
0001
0001
0000
0230
1000
1300
0000
,
2002
0000
0000
0000
,
0000
0000
0000
0000
3003
0000
0001
1000
0001
0000
0010
0000
0100
0000
1000
0000
,
0010
0000
0100
0010
1000
0100
0001
0200
,
0000
0000
0320
0000
0000
0000
0031
0010
0001
0000
0100
0000
1000
0000
0100
0000
,
0010
0000
0000
1000
0000
0000
0100
0000
0000
0010
0000
0000
0100
0000
1000
0000
,
0020
0000
0000
0000
0130
0000
0001
1000
0001
0000
0010
0000
1000
0000
0010
0000
,
0200
0000
0001
0000
1300
0010
0100
0010
,
0000
0000
0100
0000
0000
0000
0001
0010
0100
0000
0000
0010
0000
0000
0001
0000
,
0200
0000
1000
0000
0010
0010
0310
0000
,
2002
0000
0000
0000
3003
0000
1000
0001
1000
0000
0001
0000
0010
0000
0100
0000
,
0010
0000
0001
0100
0001
0000
1000
0000
0100
0000
0010
0000
0100
0000
2000
0000
,
0000
0000
3020
0000
0000
0000
0130
0010
1000
0000
0001
0000
0010
0000
0100
0000
,
0010
0000
0000
0001
0000
0000
0100
0000
0000
0010
0000
0000
1000
0000
0100
0000
,
0020
0000
1000
0000
0001
0001
0031
0000
,
2001
0000
3100
0000
0010
0100
1000
0010
,
0000
0000
0100
0000
0010
0100
0001
0000
0010
0000
0100
0000
1000
0000
0000
0000
,
1001
0000
0000
0210
0000
0001
0001
0000
,
1000
1000
1000
0000
0310
0000
0110
0000
,
0002
0010
0010
0000
0100
0100
0100
0000
,
2003
0100
0100
0000
3200
1000
1000
0000
,
0320
0100
0100
0000
0001
0001
0001
0000
,
0230
2300
3002
0203
,
0320
0100
0100
0000
0001
0001
0001
0000
,
2030
0100
0100
0000
3200
0010
0010
0000
,
0320
0001
0001
0000
0100
0100
0100
0000
,
0032
1000
1000
0000
0100
0100
0103
0010
,
0100
0001
0010
1000
0010
0100
0001
0100
,
1000
0000
0010
0000
0001
0000
0010
0000
0100
0000
1000
0000
0100
0000
0010
1000
,
0100
0010
1000
0010
0001
0010
0100
0010
,
0001
0000
0100
0000
1000
0000
0100
0000
0010
0000
1000
0000
0100
0000
0001
0100
,
0010
0001
0010
1000
0010
0100
1000
0010
,
0001
0000
0010
0000
0100
0000
0001
0000
0010
0000
1000
0000
0010
0000
0001
0100
,
0110
0110
0000
1001
1001
0000
0011
0011
,
0000
0000
1100
0000
1100
0000
0001
0100
0010
0000
0100
0000
0001
0000
2002
0000
,
0000
0000
0000
0000
,
3003
0000
0000
0000
;
