#TITLE:VOX UP;
#SUBTITLE:;
#ARTIST:samplingmasters MEGA vs Seiryu;
#TITLETRANSLIT:;
#SUBTITLETRANSLIT:;
#ARTISTTRANSLIT:;
#CREDIT:Grithokskulk;
#BANNER:VOX UP.png;
#BACKGROUND:VOX UP-bg.png;
#LYRICSPATH:;
#CDTITLE:beatmania IIDX.png;
#MUSIC:VOX UP.mp3;
#OFFSET:-4.825;
#SAMPLESTART:4.775;
#SAMPLELENGTH:14.980;
#SELECTABLE:YES;
#BPMS:0.000=202.000,184.000=101.000,220.000=202.000;
#STOPS:;
#BGCHANGES:;

//---------------dance-single - ----------------
#NOTES:
     dance-single:
     :
     Easy:
     5:
     0.329,0.534,0.048,0.360,0.000: // measure 1
1000
0100
0010
0100
,  // measure 2
2000
0000
0000
3000
,  // measure 3
0001
0010
0100
0010
,  // measure 4
0002
0000
0000
0003
,  // measure 5
0100
0010
0100
0100
,  // measure 6
0001
1000
0001
0001
,  // measure 7
0010
0000
0100
0000
,  // measure 8
1000
0001
1001
0000
,  // measure 9
0010
0010
0100
0100
,  // measure 10
0020
0030
2000
3000
,  // measure 11
0001
0001
0010
0010
,  // measure 12
0200
0300
0020
0030
,  // measure 13
0001
0100
0010
0100
,  // measure 14
0002
0003
2000
3000
,  // measure 15
0100
0100
0010
0010
,  // measure 16
0100
0010
0100
0000
,  // measure 17
2000
0000
0000
0000
,  // measure 18
3001
0000
0000
0000
,  // measure 19
0002
0000
0000
0000
,  // measure 20
1003
0000
0000
0000
,  // measure 21
0010
0010
0100
0000
,  // measure 22
0100
0100
0001
0000
,  // measure 23
0001
0001
0010
0010
,  // measure 24
0010
0010
0010
0000
,  // measure 25
0100
0100
0010
0000
,  // measure 26
0100
0100
1000
0000
,  // measure 27
0100
0100
1000
1000
,  // measure 28
1000
1000
1000
0000
,  // measure 29
0001
0000
1001
0000
,  // measure 30
1000
0010
0100
0000
,  // measure 31
0010
0000
0110
0000
,  // measure 32
1000
0001
0010
0000
,  // measure 33
0100
0000
0110
0000
,  // measure 34
0010
0001
1000
0000
,  // measure 35
0010
0000
0110
0000
,  // measure 36
2000
3200
0320
0030
,  // measure 37
0200
0000
0000
0000
,  // measure 38
0000
0000
0000
0300
,  // measure 39
0000
0000
0010
0010
,  // measure 40
0010
0010
0010
0000
,  // measure 41
0002
0000
0000
0000
,  // measure 42
0000
0000
0003
0000
,  // measure 43
0000
0000
1000
1000
,  // measure 44
1000
1000
1000
1000
,  // measure 45
0010
0010
0010
0010
,  // measure 46
0100
0100
0100
0100
,  // measure 47
0002
0000
0000
0003
,  // measure 48
0020
0030
0200
0300
,  // measure 49
0020
0000
0000
0030
,  // measure 50
0002
0003
2000
3000
,  // measure 51
0020
0000
2030
3200
,  // measure 52
0320
0230
2300
3020
,  // measure 53
0230
0000
0320
0000
,  // measure 54
2030
0000
0000
0000
,  // measure 55
0000
0000
3000
0000
,  // measure 56
0001
0001
0000
0010
,  // measure 57
0010
0100
0010
0000
,  // measure 58
0001
0001
1000
0001
,  // measure 59
1000
1000
1000
0000
,  // measure 60
0010
0010
0100
0010
,  // measure 61
0100
0100
0100
0000
,  // measure 62
0001
0001
0010
0001
,  // measure 63
0010
0010
0010
0000
,  // measure 64
0100
0100
1000
0100
,  // measure 65
1000
1000
1000
0000
,  // measure 66
0010
0010
0100
0010
,  // measure 67
0100
0100
0100
0000
,  // measure 68
0001
0001
1000
0001
,  // measure 69
1000
1000
0001
1000
,  // measure 70
0200
0300
0020
0030
,  // measure 71
0200
0000
0000
0300
,  // measure 72
0010
0010
0010
0010
,  // measure 73
0002
0003
0002
0003
,  // measure 74
1000
1000
0010
0010
,  // measure 75
0100
0010
1000
0000
,  // measure 76
0001
0001
0001
0001
,  // measure 77
0020
0030
0200
0300
,  // measure 78
0010
0010
0001
0001
,  // measure 79
0100
0010
0100
0000
,  // measure 80
0002
0003
2000
3000
,  // measure 81
0100
0010
0100
1000
,  // measure 82
0020
0030
2000
3000
,  // measure 83
0001
0010
0100
0010
,  // measure 84
0002
0000
0000
0003
,  // measure 85
0200
0000
0000
0300
,  // measure 86
0020
0000
0000
0000
,  // measure 87
0000
0000
0000
0030
,  // measure 88
0100
0100
0100
0100
,  // measure 89
0001
0001
0001
0001
,  // measure 90
1001
0000
0000
0000
;

//---------------dance-single - ----------------
#NOTES:
     dance-single:
     :
     Medium:
     7:
     0.543,0.605,0.280,0.280,0.000:
1000
0100
0010
0100
1000
0000
1001
0000
,
0020
0000
0000
0030
,
0100
0001
0010
0100
0010
0001
0100
0000
,
0020
0000
0000
0030
,
1000
0001
0010
0001
1000
0001
0010
0000
,
0200
0000
0000
0300
,
0010
0100
0010
0000
1000
0100
1000
0000
,
0001
0100
0110
0000
,
1000
0010
1000
0000
0001
0010
0001
0000
,
0100
0010
0100
0000
1001
0000
1001
0000
,
0100
1000
0100
0000
0010
0001
0010
0000
,
0001
1000
0001
0000
1010
0000
1010
0000
,
0100
0010
0100
0000
0000
0001
0000
0001
,
1000
0000
0100
0000
0010
0100
0010
0000
,
0100
1000
0100
0000
0010
0001
0010
0000
,
0001
0100
0110
0000
,
1001
0000
0000
0110
0000
0000
2001
0000
,
0000
0100
0100
3100
,
0011
0000
0000
1100
0000
0000
0012
0000
,
0000
0100
0100
0103
,
0010
0100
0010
0100
0000
0010
0000
0000
,
1000
0001
1000
0001
0000
1000
0000
0000
,
0100
1000
0100
1000
0000
0100
0000
0100
,
0000
0010
0000
0010
0000
0100
0000
0000
,
0010
0001
0010
0001
0000
0100
0000
0100
,
0010
0100
0010
0100
0000
0001
0000
0001
,
1000
0001
1000
0001
0000
1000
0000
1000
,
0100
0010
0110
0000
,
1000
0000
1001
0000
,
0001
0000
0001
0000
0100
0010
0100
0010
,
0100
0000
1001
0000
,
0100
0000
0100
0000
0010
0100
0010
0100
,
0010
0000
1001
0000
,
0001
0000
0001
0000
0100
0001
0100
0001
,
0100
0000
1001
0000
,
1100
0011
2002
3003
,
0200
0000
0000
0320
0000
0000
2030
0000
,
0000
3200
0000
0000
0310
0000
0100
0000
,
1000
0000
0000
0001
0000
0001
0000
0001
,
0000
0001
0000
0001
0000
0001
0000
0000
,
0200
0000
0000
0320
0000
0000
2030
0000
,
0000
3002
0000
0000
0013
0000
0100
0000
,
0010
0000
0000
0001
0000
1000
0000
0010
,
0000
0100
0000
0010
0000
1000
0000
0100
,
0000
0100
0000
0100
0000
0100
0000
0010
,
0000
0010
0000
0010
0000
0010
0000
0000
,
2002
0003
0000
0000
,
3020
0000
0230
0320
,
2030
3200
0320
0000
,
0230
0000
2300
3020
,
0230
0000
0301
0001
0020
0000
0130
0100
,
0020
0000
0031
0001
0200
0000
0310
0010
,
1000
0100
1100
0000
0001
0100
0101
0000
,
1000
0010
1010
0000
0001
0010
0011
0000
,
1000
0100
0010
0001
0010
0100
1000
0000
,
0001
0000
0001
0000
0000
1000
0000
1000
,
0000
1000
0010
0000
0100
0000
0010
0000
,
1000
0010
1000
0000
0001
0010
0001
0000
,
0100
0000
0100
0000
0010
0100
0010
0000
,
1000
0001
1000
0000
0001
0010
0001
0000
,
0100
0000
0100
0000
0010
0100
0001
0000
,
1000
0100
1000
0000
0001
0010
0001
0000
,
1000
0010
1000
0000
0010
0100
0010
0000
,
1000
0001
1000
0000
0100
1000
0100
0000
,
0010
0000
0010
0000
0100
0010
0100
0000
,
1000
0001
1000
0000
0001
0100
0001
0000
,
0010
0001
0010
0000
0100
0000
0010
0000
,
0001
0100
0001
0000
1000
0100
1000
0000
,
0001
0100
0001
0000
1000
0010
1000
0000
,
0002
0023
0230
2300
,
3020
0100
0100
0130
,
0001
0100
0001
0000
1000
0100
1000
0000
,
0001
0010
0001
0000
0100
0010
0100
0000
,
0001
1000
0001
0000
1000
0100
1000
0100
,
0000
0010
0010
0000
0100
1000
0010
0000
,
0100
0001
0100
0000
0001
0010
0001
0000
,
1000
0010
1000
0000
0010
0100
0010
0000
,
1000
0100
1000
0000
0001
0010
0000
0001
,
0000
0100
0000
0010
0000
0100
0100
0000
,
0010
0000
0100
0001
0100
0001
0000
0100
,
0000
0010
0000
0100
0100
0000
0001
0000
,
1000
0000
0100
1000
0100
1000
0000
0100
,
0000
0010
0000
0100
1000
0000
0010
0000
,
0100
0001
0100
0000
0001
0000
0010
0000
,
0100
0010
0100
0000
0010
0000
0001
0000
,
1000
0000
0000
0001
0000
0001
0000
1000
,
0000
1000
0000
0010
0000
0010
0000
0110
,
0000
0110
0000
1001
0000
1001
0000
1100
,
0000
1100
0000
0011
0000
0011
0000
1001
;

//---------------dance-single - ----------------
#NOTES:
     dance-single:
     :
     Hard:
     9:
     0.847,0.890,0.792,0.320,0.196:
1000
0010
0100
0010
0100
0001
0010
0000
,
0100
0100
0010
0010
0001
0001
0100
0000
,
0010
0100
0001
0001
1000
0100
0001
0000
,
0100
0100
1000
1000
0010
0010
0100
0000
,
0010
1000
0100
0100
0010
0100
1000
0010
,
0100
0001
0010
0010
0100
0010
0001
0000
,
0100
0001
0101
0000
1000
0100
1100
0000
,
1000
0000
0010
0000
0010
0000
0000
0000
0100
0010
0100
0010
0100
0000
0000
0000
,
1000
0001
1001
0000
0010
1000
0010
0001
,
0100
0100
0110
0000
1000
1000
1001
0000
,
0001
0010
0110
0000
0010
0001
0100
0010
,
1000
1000
1001
0000
0010
0010
0100
0100
,
0010
1000
1001
0000
0000
0011
0000
1100
,
0000
0010
0100
0010
1000
1000
1001
0000
,
0001
0001
0001
0010
0010
0010
0100
0100
,
0010
0001
0100
1000
0100
0010
1010
0000
,
1200
1000
0300
2001
0001
3000
0210
0010
,
0300
0010
1000
0100
0001
0100
0010
0001
,
0102
0100
0003
0120
0100
0030
2010
0010
,
3000
0100
0001
0100
0010
0001
0001
0001
,
0100
0000
0010
0000
0100
0001
0100
0000
0000
0000
1010
0000
0000
0000
1100
0000
,
0001
0000
0010
0000
0100
0010
0100
0000
0000
0000
0011
0000
0000
0000
1100
0000
,
0010
0000
0100
0000
0010
1000
0010
0000
0000
0000
1010
0000
0000
0000
1100
0000
,
0000
0011
0000
0110
0000
0001
0010
0100
,
0010
0000
0001
0000
1000
0010
1000
0000
0000
0000
0110
0000
0000
0000
1001
0000
,
0010
0000
0001
0000
0100
0010
0100
0000
0000
0000
1001
0000
0000
0000
1100
0000
,
0010
0000
0100
0000
1000
0001
1000
0000
0000
0000
0101
0000
0000
0000
1010
0000
,
1100
0110
0011
1001
,
0100
0000
0100
0000
0110
0000
0010
1000
,
0000
0100
0000
0001
0100
0010
0001
0100
,
0010
0100
0110
1000
,
0100
0010
0100
0010
0100
0000
0010
0000
0001
0000
0100
0000
0010
0000
1000
0000
,
0100
0010
0110
0100
,
1000
0010
0001
0010
0100
0001
0010
1000
,
0010
0001
0101
0010
,
0100
0001
0100
0000
0010
1000
0010
0000
1000
0100
1000
0000
0001
0010
0001
0000
,
0210
1000
0300
0120
0001
0030
0210
1000
,
0300
0010
0001
0100
1000
0100
0001
0010
,
0100
1000
0000
1010
0000
0101
0000
0011
,
0000
1100
0000
1001
0000
0110
0000
0101
,
0012
1000
0003
2010
0001
3000
0012
1000
,
0003
0100
0001
0100
0010
0100
1000
0100
,
0010
0001
0000
0101
0000
0110
0000
1100
,
0000
0110
0000
1010
0000
1100
0000
0101
,
0000
0110
0000
0101
0000
1100
0000
1010
,
0000
0101
0000
0011
0000
1100
0000
0001
,
0200
0000
0000
0000
,
0320
0000
2030
3200
,
0320
0230
0320
0230
,
2300
0000
3002
0203
,
0310
1000
0000
0100
0001
0000
0100
0000
0010
0001
0000
0001
0100
0000
0010
0000
,
0100
0001
0000
0001
1000
0000
0100
0000
0010
0100
0000
0100
1000
0000
0010
0000
,
0100
0000
0001
0000
1001
0000
1000
0100
0010
0000
0100
0000
1100
0000
1000
0010
,
0100
0000
0001
0000
0011
0000
0001
0100
0010
0000
0100
0000
0101
0000
0001
1000
,
0100
0000
0010
0000
0100
1000
0010
0000
0100
0001
0010
0100
0010
0001
0100
0010
,
0110
0000
1001
0000
1100
0000
0000
0011
,
0000
1100
1001
0000
0110
0000
1001
0000
,
1000
0100
1000
0100
0010
0100
0010
0100
,
0010
0001
0010
0000
0001
0000
0010
0000
0100
0000
0100
0000
0110
0000
0000
0000
,
0001
0001
0100
1000
0100
0010
1000
0100
,
0010
0000
0100
0000
1000
0000
0010
0000
0100
0001
0100
0000
1001
0000
0000
0000
,
0100
0100
0010
0100
1000
1000
0010
0001
,
0010
0100
0010
0000
1000
0001
1000
0000
0001
0010
0001
0000
1000
0100
1000
0000
,
0010
0010
0100
1000
0100
0001
0010
0100
,
1000
2000
0010
3020
0100
0230
0001
0302
,
0010
0013
0100
0001
0100
1000
0010
0100
,
0010
1000
0010
1000
0010
0000
0100
0000
0001
0010
0001
0010
0001
0000
0010
0000
,
0100
0100
0010
0001
0100
1000
0100
0010
,
1000
1000
0100
0001
0100
0010
0001
0100
,
0020
0032
0023
2030
,
3200
0320
0230
2300
,
3001
0001
0100
1000
0100
0010
1000
0100
,
0010
0000
0010
0000
0100
0000
0000
0000
1000
0100
0010
0100
1000
0000
0000
0000
,
0001
0001
0101
0000
0100
1000
0100
0010
,
0000
1000
1100
0010
0100
0100
0110
0010
,
0001
0001
0100
0010
0100
0001
0001
0010
,
0100
0000
0010
0000
0010
0000
0000
0000
0100
1000
0010
1000
0100
0000
0000
0000
,
0010
0100
0110
0000
1000
1000
0010
0100
,
0110
0010
0010
1000
0100
0001
0100
0000
,
0020
0000
0031
0001
0100
0010
0010
0000
,
0200
0302
2003
3200
,
0310
0010
0100
0100
1000
1000
0010
0010
,
0100
0001
0100
0001
0100
0000
0010
0000
1000
0100
1000
0100
1000
0000
0000
0000
,
0101
1010
0000
1100
0000
0011
0000
1001
,
0000
0110
0000
0001
0100
0010
1000
0100
,
0010
0100
0000
1100
0000
0011
0000
0101
,
0000
1010
0000
1100
0000
0011
0000
0101
,
1000
0100
1000
0100
0010
0100
0010
0100
,
0001
0010
1000
0010
0001
0100
1000
0100
,
0001
0000
0000
0000
;
