#TITLE:V.I.P.;
#SUBTITLE:;
#ARTIST:ismK;
#TITLETRANSLIT:;
#SUBTITLETRANSLIT:;
#ARTISTTRANSLIT:;
#CREDIT:Grithokskulk;
#BANNER:V.I.P..png;
#BACKGROUND:V.I.P.-bg.png;
#LYRICSPATH:;
#CDTITLE:SOUND VOLTEX.png;
#MUSIC:V.I.P.mp3;
#OFFSET:-1.555;
#SAMPLESTART:89.515;
#SAMPLELENGTH:15.000;
#SELECTABLE:YES;
#BPMS:0.000=169.000,145.000=84.500,161.000=169.000;
#STOPS:16.000=1.080
,225.000=1.040
;
#BGCHANGES:;

//---------------dance-single - ----------------
#NOTES:
     dance-single:
     :
     Easy:
     4:
     0.252,0.285,0.042,0.136,0.000: // measure 1
0000
0001
0000
0001
,  // measure 2
0000
1000
0000
1000
,  // measure 3
0000
0100
0000
0100
,  // measure 4
0010
0000
0100
0000
,  // measure 5
0110
1000
0001
0000
,  // measure 6
0001
0000
0001
0000
,  // measure 7
0001
0100
0010
0000
,  // measure 8
0010
0000
0010
0000
,  // measure 9
0010
1000
0100
0000
,  // measure 10
0100
0000
0100
0000
,  // measure 11
0100
1000
0010
0000
,  // measure 12
0010
0000
0010
0000
,  // measure 13
0010
0100
0001
0100
,  // measure 14
0001
0100
0000
0000
,  // measure 15
0100
0010
0000
0000
,  // measure 16
0000
1000
0000
0001
,  // measure 17
0000
0010
0001
0010
,  // measure 18
0001
0010
0000
0000
,  // measure 19
0100
0010
0000
0100
,  // measure 20
0000
1000
0000
0001
,  // measure 21
0000
0000
0100
0000
,  // measure 22
0100
0000
0100
0010
,  // measure 23
1000
0100
0010
0000
,  // measure 24
0010
0000
0010
0001
,  // measure 25
0010
0100
0010
0000
,  // measure 26
0010
0000
0010
0001
,  // measure 27
1000
0010
0000
0100
,  // measure 28
0000
0001
1000
0001
,  // measure 29
1000
0100
0000
0100
,  // measure 30
0000
0010
0000
0010
,  // measure 31
0000
0001
0000
0001
,  // measure 32
0000
0100
0100
0100
,  // measure 33
0000
0010
0000
0100
,  // measure 34
0000
0001
0000
1000
,  // measure 35
0000
0100
0000
1000
,  // measure 36
0000
0010
0010
0010
,  // measure 37
0000
0200
0300
0020
,  // measure 38
0030
2000
3000
0200
,  // measure 39
0300
2000
3000
0020
,  // measure 40
0030
0200
0300
0002
,  // measure 41
0003
2000
0000
3000
,  // measure 42
0000
0002
0000
0003
,  // measure 43
0000
0200
0000
0300
,  // measure 44
0000
0020
0000
0030
,  // measure 45
0000
0200
0000
0300
,  // measure 46
0000
0002
0000
0003
,  // measure 47
0000
0020
0000
0030
,  // measure 48
0000
0100
0100
0100
,  // measure 49
0100
0100
0000
0000
,  // measure 50
0000
0110
0000
0000
,  // measure 51
0000
1001
0000
0000
,  // measure 52
0000
0110
0000
0000
,  // measure 53
0000
1000
0000
0001
,  // measure 54
0000
0010
0000
0001
,  // measure 55
0000
1000
0001
1000
,  // measure 56
0001
0010
0100
0010
,  // measure 57
0100
2000
3000
0010
,  // measure 58
0100
0010
1000
0100
,  // measure 59
1000
0000
0001
0010
,  // measure 60
0100
0010
0001
0100
,  // measure 61
0010
0100
0001
1000
,  // measure 62
0100
1000
0001
0010
,  // measure 63
0100
0010
0001
0100
,  // measure 64
0010
0100
0001
1000
,  // measure 65
0001
0000
1000
0100
,  // measure 66
0010
0100
1000
0000
,  // measure 67
0001
0000
0100
0001
,  // measure 68
0010
0001
0100
0000
,  // measure 69
0010
0000
0100
0010
,  // measure 70
1000
0100
1000
0000
,  // measure 71
0100
0000
0010
0100
,  // measure 72
1000
0010
0100
0000
,  // measure 73
0001
0000
1000
1000
,  // measure 74
1000
1000
0001
0001
,  // measure 75
0001
0001
0000
1001
;

//---------------dance-single - ----------------
#NOTES:
     dance-single:
     :
     Medium:
     6:
     0.490,0.507,0.331,0.178,0.000:
1000
0001
1000
0000
0000
0000
1001
0000
,
0001
0100
0001
0000
0000
0000
0110
0000
,
0010
1000
0010
0000
0000
0000
1001
0000
,
1000
0100
0010
0001
,
1001
0000
0001
0100
0001
0000
0100
0000
,
0110
0000
0010
1000
0010
0000
1000
0000
,
1001
0000
0001
0010
0001
0000
1000
0010
,
1000
0000
0001
0010
0001
0000
0100
0000
,
0110
0000
0010
0100
0010
0000
1000
0000
,
1001
0000
0001
0010
0001
0000
0100
0000
,
0110
0000
0010
1000
0010
0000
0100
0001
,
0100
0000
0001
0010
0001
0000
1000
0000
,
1001
0000
1000
0100
1000
0000
0010
0100
,
0010
0000
0100
0000
0001
0010
0001
0010
,
0100
0000
0010
0001
0010
0000
0001
0100
,
0001
0000
1000
0100
0010
0100
1000
0000
,
1001
0000
1000
0010
1000
0000
0001
0100
,
0001
0000
0010
0001
0010
0001
0100
0000
,
0110
0000
1000
0010
1000
0000
0001
0010
,
0001
0000
1000
0100
0010
0001
0100
0000
,
0110
2000
0000
0001
,
3001
0002
0000
0103
,
0010
1000
0200
0000
0000
0000
1000
0000
,
1300
2000
0000
3010
,
0100
0010
0200
0000
0000
0000
0001
0000
,
0301
0020
0000
0031
,
0001
0100
0010
0000
0000
0000
0110
0000
,
0000
1001
0110
1001
,
0000
0000
1000
0100
1000
0000
0001
0100
,
0001
0000
0010
0001
0010
0000
1000
0010
,
1000
0000
0001
0010
0001
0000
0100
0001
,
0100
0000
0010
1000
0010
0100
0010
0000
,
0000
0000
1000
0001
1000
0000
0100
1000
,
0100
0000
0010
0001
0010
0000
0001
0100
,
0001
0000
1000
0100
1000
0000
0010
0100
,
0010
0000
1000
0001
0010
0001
1000
0000
,
0000
0002
0000
0203
,
0000
0320
0000
0130
,
0001
0020
0000
0230
,
0000
0320
0000
0032
,
0000
2003
0000
0000
,
0000
3020
0000
0000
,
0000
0230
0000
0000
,
0000
0320
0000
1030
,
0100
0020
0000
0000
,
0000
0230
0000
0000
,
0000
0320
0000
0000
,
0000
0032
0000
0000
,
0000
0000
1003
0001
1000
0000
0000
0000
,
1001
0000
0100
0010
0100
0000
0000
0000
,
0110
0000
0010
1000
0010
0000
0000
0000
,
1010
0000
1000
0001
1000
0000
0000
0000
,
1001
0000
0001
0010
0001
0000
1000
0010
,
1000
0000
0001
0100
0001
0000
1000
0100
,
1000
0011
1100
1010
,
0101
0000
1000
0100
0010
0001
1000
0100
,
0010
0001
0100
0000
0010
0000
0110
0000
,
0010
1000
0010
0000
1000
0000
1001
0000
,
0001
0010
0001
0010
0001
0000
0101
0000
,
0100
0010
0100
0000
0001
1000
0001
1000
,
0001
1001
1000
1100
,
0100
0010
0100
0000
1000
0010
0100
0010
,
1000
1001
0001
0011
,
0001
0100
0001
0000
0100
0010
0100
0010
,
1000
0010
1000
0010
1000
0000
1100
0000
,
1000
0100
1000
0100
0010
0000
0001
0000
,
0100
0010
0100
0000
0001
1000
0100
0000
,
0001
1000
0100
0000
0010
0100
1000
0100
,
0010
0000
0110
0000
1000
0010
0100
0000
,
1000
0010
0100
0000
0001
0010
0100
0010
,
0001
0000
1001
0000
0001
0100
0010
0000
,
0001
0100
0010
0000
0001
1000
0100
1000
,
0010
0000
0110
0000
0010
1000
0001
0100
,
0010
0000
0110
0000
1000
0001
0010
0001
,
1000
0110
0000
1001
;

//---------------dance-single - ----------------
#NOTES:
     dance-single:
     :
     Hard:
     9:
     0.666,0.602,0.407,0.212,0.127:
1000
0010
0100
0100
0000
0010
0100
0001
,
0010
0100
0010
0010
0000
0001
0010
0100
,
1000
0010
0100
0100
0000
0001
0100
1000
,
0100
0101
1000
1100
,
0110
0000
1000
0100
0010
0001
0100
0010
,
0100
0000
0001
0010
0100
0010
0001
0100
,
0010
0000
1000
0010
0100
0001
0010
0100
,
1000
0010
0100
1000
0100
0001
0010
0000
,
0110
0000
1000
0100
0010
0100
1000
0100
,
0010
0000
0001
0100
0010
0100
0001
0100
,
0010
0000
1000
0100
0001
0000
0001
0100
,
1000
0000
1000
0010
0100
0001
0010
0010
,
0110
0000
0100
1000
0010
0000
0100
0010
,
0100
0000
0001
0010
0100
1000
0000
1000
,
0100
0010
0100
1000
0010
0000
0010
0100
,
0001
0000
0001
0010
1000
0010
0001
0100
,
1000
0100
0001
0010
0001
0000
1000
0010
,
1000
0000
0100
1000
0010
0100
0000
0100
,
0001
0010
0100
0010
0100
1000
0100
1000
,
0100
0010
0100
0001
0100
1000
0100
0010
,
0100
0000
0100
1000
1010
0000
0010
0100
,
0110
0000
0000
0000
0001
0000
0100
0000
0101
0000
0000
0000
0001
0000
0000
0001
,
1000
0100
0010
0100
1100
0000
1000
0010
,
1010
0000
0000
0000
0010
0000
0100
0000
0101
0000
0000
0000
0001
0000
0000
0001
,
0010
0001
0100
0010
0110
0000
0010
1000
,
1010
0000
0000
0000
1000
0000
0100
0000
1100
0000
0000
0000
1000
0000
0000
1000
,
0001
0010
0011
0000
1000
0010
1010
0000
,
0100
0010
0110
0000
1001
0000
1000
0100
,
0010
0000
0001
0000
0100
0000
0010
0000
0100
0001
0000
0010
0000
0000
0001
0000
,
0100
0000
0000
0000
0010
0000
0100
0010
0100
0000
0010
0000
1000
0000
0100
0000
,
0010
0000
0010
0000
0100
0000
1000
0000
0010
0100
0000
0001
0000
0000
0010
0000
,
0001
0000
0001
0000
0010
0000
0001
0000
0100
0000
0010
0000
0100
0001
0000
0001
,
0000
0000
0000
0000
1000
0000
0100
0000
0010
0100
0000
0100
0000
0000
1000
0000
,
0010
0000
0000
0000
0100
0000
0010
0100
0010
0000
0100
0000
0001
0000
0010
0000
,
0100
0000
0100
0000
0010
0000
0001
0000
0100
0010
0000
0010
0000
0000
1000
0000
,
0001
0000
0000
0000
1000
0000
0100
0000
0010
0000
0001
0000
1000
0001
0000
0001
,
1000
0000
0000
0000
0201
0000
0000
0001
0000
0000
0310
0000
0200
0000
0000
0000
,
0000
0000
0310
0000
0020
0000
0000
0001
0000
0000
0130
0000
0002
0000
0000
0100
,
0000
0013
2000
0000
0000
3010
0200
0000
,
0000
0310
0020
0000
0000
0000
0230
0000
,
0000
0000
0310
0001
0010
0100
0000
0110
,
0000
1100
0000
1000
0010
0100
0010
1000
,
0100
0010
0001
0100
0001
0010
0000
0110
,
0000
0011
0000
0002
0000
0000
1003
0100
,
0010
0001
0100
1000
0100
0001
0000
0011
,
0000
1100
0000
1000
0010
1000
0010
0001
,
0010
1000
0100
0010
0100
1000
0000
0010
,
0000
0100
0110
0000
1001
0000
1100
0000
,
0011
2002
0000
0000
,
3003
0220
0000
0000
,
0330
2020
0000
0000
,
3030
0202
0000
0000
,
0303
0022
0033
2200
,
3300
2002
3003
0220
,
0330
0101
1010
1100
,
0011
0000
0001
0010
1000
0010
0001
0100
,
0010
0000
1000
0000
0100
0000
0000
0000
0010
0000
0100
0000
0010
0001
0010
0000
,
0000
0001
0100
0010
1000
0001
0010
0001
,
0010
0000
1000
0000
0010
0000
0001
0000
0100
0000
0010
0000
1000
0100
1000
0000
,
0000
0010
0100
0010
1000
0010
0100
0001
,
0010
0000
0100
0000
0010
0000
0001
0000
0100
0000
0010
0000
0100
0001
0100
0000
,
0000
0001
0100
1000
0100
0001
0010
0100
,
0010
0000
0001
0000
0010
0000
1000
0000
0010
0000
0001
0000
0100
0010
0100
0000
,
0000
0001
0010
0100
1100
0000
1010
0000
,
0100
0000
0010
0000
1000
0001
1000
0001
0100
0000
0010
0000
1000
0000
0100
0000
,
1000
0001
1000
0010
1000
0100
0001
0100
,
1000
0010
0001
0010
0100
0010
0100
1000
,
0100
0001
0100
0010
0100
0001
0100
1000
,
0100
0010
0100
0001
0010
1000
0010
0100
,
0010
0001
0010
0100
0010
0001
0010
0100
,
1000
0010
0100
0001
1000
0100
1000
0001
,
1000
0010
1000
0100
1010
0000
0101
0000
,
0011
0000
1100
0000
1000
0001
0100
0010
,
0100
0001
0000
0001
0100
0000
0010
0000
1000
0000
0100
0000
0010
0000
0100
0000
,
1000
0001
0000
0001
1000
0000
0010
0000
0000
0000
0000
0000
0101
0000
0000
0000
;
