#TITLE:Umeyukiyo;
#SUBTITLE:;
#ARTIST:Qrispy Joybox feat. mao;
#TITLETRANSLIT:;
#SUBTITLETRANSLIT:;
#ARTISTTRANSLIT:;
#CREDIT:Grithokskulk;
#BANNER:Umeyukiyo.png;
#BACKGROUND:Umeyukiyo-bg.png;
#LYRICSPATH:;
#CDTITLE:REFLEC BEAT.png;
#MUSIC:Umeyukiyo.mp3;
#OFFSET:-6.541;
#SAMPLESTART:45.975;
#SAMPLELENGTH:15.000;
#SELECTABLE:YES;
#BPMS:0.000=167.000;
#STOPS:;
#BGCHANGES:;

//---------------dance-single - ----------------
#NOTES:
     dance-single:
     :
     Easy:
     3:
     0.216,0.264,0.055,0.137,0.000:
2002
0000
3003
0000
,
0100
0000
0010
0000
,
1000
1000
0100
0100
,
1000
0010
0100
0000
,
0001
0000
1000
0000
,
0001
0001
0001
0000
,
0010
0000
0100
0000
,
0010
0010
0010
0000
,
0001
0000
0100
0000
,
0010
0010
0010
0000
,
1000
1000
0001
0001
,
1000
0100
0010
0000
,
0110
0000
1000
0000
,
0010
0010
0010
0000
,
1000
0000
0001
0000
,
0010
0010
0010
0000
,
0100
0000
0010
0000
,
0001
0100
0001
0000
,
1000
1000
0001
0001
,
0010
0100
0020
0030
,
0200
0000
0000
0000
,
0000
0000
0000
0300
,
2000
0000
0000
0000
,
0000
0000
3000
0000
,
0020
0000
0000
0000
,
0000
0000
0000
0030
,
0100
0100
0001
0001
,
0010
0010
0200
0300
,
0020
0030
0001
0001
,
0001
0000
0100
0001
,
0010
0010
0100
0100
,
0010
0000
0001
1000
,
0020
0030
1000
0001
,
0010
0001
0100
0001
,
1000
1000
0100
0010
,
0200
0000
0300
0000
,
0000
1000
0000
0001
,
0000
0100
0000
0010
,
0100
0000
0010
0000
,
0110
0000
1001
0000
,
0000
0001
0000
0010
,
0000
0100
0000
0010
,
0001
0000
1000
0000
,
1001
0000
0001
0001
,
0001
0000
0100
0010
,
0100
0000
0001
0010
,
0100
0010
0001
1000
,
0010
0000
1000
0100
,
0010
0000
1000
0100
,
0010
0100
1000
0010
,
0100
0100
0010
0010
,
2000
0000
3000
0000
,
0000
0001
0000
0010
,
0000
0100
0000
1000
,
0020
0000
0000
0030
,
0200
0000
0000
0300
,
0000
0001
0000
1000
,
0000
0100
0000
0010
,
0200
0000
0000
0300
,
0020
0000
0000
0000
,
0030
0000
0000
0000
,
0000
0000
0000
0000
,
0000
0000
0000
0000
,
0000
0000
0000
0000
,
1001
0000
0000
0000
;

//---------------dance-single - ----------------
#NOTES:
     dance-single:
     :
     Medium:
     5:
     0.395,0.528,0.513,0.357,0.000:
0100
0200
0000
0000
0300
0000
0000
0000
,
0001
0010
0100
0010
,
0011
0011
1100
1100
,
1010
1010
0101
0000
,
0210
0000
0010
0000
,
0010
0010
0310
0000
,
2000
0000
0001
0000
,
0001
0001
3001
0000
,
0020
0000
0100
0000
,
0100
0100
0100
0030
,
1100
0011
0101
1010
,
1001
0110
1001
0000
,
0012
0000
0100
0000
,
0010
0010
1000
0003
,
0201
0000
1000
0000
,
0010
0010
0001
0300
,
0001
0011
0010
0110
,
0100
1100
1000
1010
,
0110
0110
1001
1001
,
1100
0110
0022
0033
,
0000
0200
0000
0000
0000
0000
0000
0000
,
0000
0000
0000
0300
,
0000
0020
0000
0000
0000
0000
0000
0000
,
0000
0000
0030
0000
,
2100
0000
0001
0000
,
0010
0000
0100
3000
,
1100
1100
0110
0110
,
0011
0011
0102
1000
,
0023
0000
0030
0000
0100
0010
0001
0100
,
0010
0000
0100
0100
,
0001
0010
0001
1000
,
1100
0000
1000
0010
,
0110
0010
1000
0001
,
0011
0001
0100
0010
,
0100
0100
0010
0000
1000
0000
0100
0000
,
0110
0110
1001
1001
,
0001
0000
0100
0001
0100
0000
0001
1000
,
0001
0000
1000
0100
1000
0000
0100
0010
,
0200
1000
0001
0010
,
2300
0000
0000
0000
0000
0001
0001
3001
,
0001
0101
0100
0110
,
0010
1010
1000
1100
,
0200
0320
0230
2300
,
3020
0000
0100
0130
,
0110
0000
0000
0000
0001
1000
0001
1000
,
0001
0000
0000
0000
1000
0100
1000
0100
,
2000
3020
0230
0301
,
0011
1100
0002
0203
,
0320
0001
0230
2300
,
3200
0302
0023
0130
,
0021
0130
2100
3010
,
0110
0110
1001
1001
,
0000
0000
0100
0001
0000
0000
0100
0010
,
0000
0000
0100
1000
0000
0000
0100
0010
,
0200
0010
0010
0010
,
0320
0100
0100
0130
,
0000
0000
0001
0010
0000
0000
0100
0010
,
0000
0000
1000
0010
0000
0000
0100
0010
,
0002
0100
0100
0100
,
2003
0000
0000
0000
,
3200
0000
0000
0000
,
0000
0000
0000
0000
,
0000
0000
0000
0000
,
0000
0000
0000
0000
,
0310
0020
0000
0000
0000
0000
0000
0000
,
0000
0000
0000
0000
,
0000
0000
0000
0000
,
0000
0000
0000
0000
0000
0000
0000
0030
;

//---------------dance-single - ----------------
#NOTES:
     dance-single:
     :
     Challenge:
     9:
     0.681,0.715,0.412,0.439,0.229: // measure 1
1001
0000
2002
0000
0000
0000
0000
0000
3003
0000
0000
0000
0000
0000
1000
0100
,  // measure 2
1000
0100
0010
0100
1000
0010
0100
0000
,  // measure 3
0101
0101
1001
1001
,  // measure 4
1100
1100
0220
0330
,  // measure 5
0100
0000
0010
0100
0010
0000
0200
0000
0000
0000
0010
0000
0010
0000
0310
0000
,  // measure 6
0001
0100
0010
0100
0001
0000
1000
0100
,  // measure 7
0010
0000
0100
1000
0100
0000
2000
0000
0000
0000
0010
0000
0010
0000
3010
0000
,  // measure 8
0100
0010
1000
0100
0010
0000
0110
0000
,  // measure 9
0001
0000
0010
0001
0010
0000
0002
0000
0000
0000
0100
0000
0100
0000
0103
0000
,  // measure 10
0010
0100
0001
1000
0100
0000
0010
0100
,  // measure 11
1100
1100
0011
0011
,  // measure 12
0101
1010
2002
3003
,  // measure 13
1000
0000
0100
0010
0100
0000
1000
0000
0010
0000
0100
0000
0010
0000
0000
0000
,  // measure 14
0100
0001
0010
0100
0020
0000
0031
0000
,  // measure 15
0100
0000
0010
0100
0010
0000
0200
0000
0000
0000
0001
0000
0001
0000
0301
0000
,  // measure 16
0010
0001
0010
0100
1000
0000
1100
0000
,  // measure 17
1000
0000
0010
1000
0010
0000
0000
0000
0100
0000
0001
0010
0001
0000
0000
0000
,  // measure 18
0010
0100
1000
0010
0100
0000
0001
1000
,  // measure 19
1100
0011
0101
1010
,  // measure 20
0110
1001
2200
3300
,  // measure 21
0000
0001
0001
0010
0010
0100
0100
1000
,  // measure 22
1000
0001
0001
0010
0010
0100
0100
0000
,  // measure 23
0000
1000
1000
0010
0010
0100
0100
0001
,  // measure 24
0001
1000
1000
0010
0020
0000
0030
0000
,  // measure 25
1000
1000
0100
0100
0001
0001
0100
0100
,  // measure 26
1000
1000
0010
0010
0100
0100
0001
0000
,  // measure 27
0010
0001
0100
0010
1000
0100
0010
0100
1000
0010
0100
0001
,  // measure 28
0010
0001
1000
0010
0100
0001
0020
0000
0000
0230
0000
0000
,  // measure 29
0310
0001
0011
0000
0001
0100
0100
1000
,  // measure 30
0100
0010
1010
0000
1000
0100
0010
0001
,  // measure 31
0010
0000
0000
0010
0001
0000
0000
0000
0001
0000
0000
0001
0100
0000
0000
0000
,  // measure 32
0020
0000
2030
0000
3100
0001
0100
1000
,  // measure 33
2020
0000
3030
0000
0100
0001
0010
0100
,  // measure 34
0110
0000
0010
0001
0200
0000
0320
0000
,  // measure 35
1030
1000
0100
0000
0110
0000
1000
0000
,  // measure 36
1001
0110
2002
3003
,  // measure 37
1000
0000
0100
0010
0100
0000
1000
0000
0010
0000
0100
0000
0001
0000
0010
0000
,  // measure 38
0100
0010
0100
0000
0010
0000
0001
0000
0200
0000
0010
0000
0010
0000
0310
0000
,  // measure 39
0100
0000
0001
0010
0001
0000
0010
0000
0100
0000
0010
0000
0001
0000
0100
0000
,  // measure 40
0010
0100
0010
0000
1000
0000
0100
0000
0020
0000
0100
0000
0100
0000
0100
0030
,  // measure 41
1000
0000
0010
0100
0010
0000
1000
0000
0100
0000
0001
0000
0100
0000
1000
0000
,  // measure 42
0010
1000
0010
0000
0100
0000
0001
0000
0020
0000
0100
0000
0100
0000
0130
0000
,  // measure 43
0010
0001
0100
0010
1000
0100
0010
0001
0100
1000
0001
0100
,  // measure 44
2000
3200
0320
0031
,  // measure 45
2002
0000
3003
0000
0100
1000
0100
0010
,  // measure 46
2020
0000
3030
0000
1000
0100
0010
0100
,  // measure 47
2100
3001
0102
1003
,  // measure 48
0200
0000
0320
0000
0130
1000
0010
0100
,  // measure 49
0202
0000
0303
0000
1000
0100
0001
0100
,  // measure 50
0110
0000
0010
0001
0100
0010
0100
0000
,  // measure 51
0101
0102
1003
0000
1100
2100
3001
0000
,  // measure 52
0100
0000
0010
0100
0010
0000
1000
0000
0001
0000
0010
0000
0100
0000
0000
0000
,  // measure 53
0010
0000
0001
0100
0001
0000
0100
0000
1000
0000
0100
0000
0010
0000
1000
0000
,  // measure 54
0100
0000
0010
0100
0010
0000
0100
0000
2000
0000
0010
0000
0010
0000
3010
0000
,  // measure 55
0100
0000
0001
0010
0001
0000
0100
0000
0010
0000
0100
0000
0001
0000
0010
0000
,  // measure 56
0100
0000
1000
0100
1000
0000
0100
0000
0020
0000
0100
0000
0100
0000
0130
0000
,  // measure 57
1000
0100
1000
0000
0001
0100
0001
0000
1000
0010
1000
0000
0001
0010
0001
0000
,  // measure 58
1000
0000
0010
0100
0010
0000
0100
0000
0002
0000
0010
0000
0010
0000
0013
0000
,  // measure 59
0100
0000
0000
0100
0010
0000
0000
0010
0001
0000
0000
0001
0100
0000
0000
0100
,  // measure 60
0020
0000
0000
0000
,  // measure 61
2030
0000
0100
0000
,  // measure 62
0001
0000
0100
0000
,  // measure 63
0001
0000
0100
0000
,  // measure 64
0001
0000
0100
3000
,  // measure 65
1001
1002
0000
0000
0000
0000
0000
0000
,  // measure 66
0100
1000
0100
1000
,  // measure 67
0100
1000
0100
1000
,  // measure 68
0100
0000
1000
0000
0100
0000
1003
0100
;

//---------------dance-single - ----------------
#NOTES:
     dance-single:
     :
     Hard:
     8:
     0.641,0.590,0.485,0.513,0.005:
0110
0220
0000
0000
0330
0000
0000
1000
,
0100
0001
0100
1000
0010
0100
0001
0000
,
0101
0101
1100
1100
,
0011
0011
0220
0330
,
0002
0000
0010
0000
,
1000
0000
1000
0000
0013
0000
0100
0010
,
2000
0000
0100
0000
,
0001
0001
0010
3000
,
0020
0000
0001
0000
,
1000
0000
1000
0000
0130
0000
1000
0100
,
0110
0011
1100
1010
,
0101
1010
2002
3003
,
1000
0100
0010
0200
0000
0010
0310
0000
,
0010
0001
0100
1000
0200
0000
0302
0000
,
0013
0100
0100
0020
0000
0100
0130
0000
,
1000
0010
0100
0001
1000
0000
1100
0000
,
0001
0010
0011
0000
1000
0010
1010
0000
,
0100
0001
0011
0010
0100
0000
1000
0010
,
0110
0101
1001
1100
,
0110
0011
2002
3003
,
0000
0001
0010
0100
1000
0001
0010
0100
,
1000
0001
0010
0100
1000
0002
0020
0003
,
0030
0001
0100
0010
1000
0001
0100
0010
,
1000
0001
0100
0020
2000
0000
3030
0000
,
0010
1000
0100
0010
0001
1000
0100
0010
,
0001
1000
0100
0010
0001
2000
0200
3300
,
0011
0011
0101
0101
,
1010
1010
2100
3001
,
0220
0000
0330
0000
1000
0001
0010
0100
,
0220
0000
0330
0000
0001
0010
0100
1000
,
2020
0000
3030
0000
0100
0010
1000
0001
,
0020
0230
2300
3020
,
0230
0000
0301
0010
0200
0000
0320
0000
,
0032
0000
0000
0000
0103
0000
1000
0000
0100
0000
0000
0100
0001
0000
0000
0000
,
0010
0010
0100
0000
0010
0010
0001
0000
,
1001
0110
0101
1001
,
1000
0100
0001
0100
0010
0100
1000
0100
,
0010
0001
0010
1000
0010
0001
0001
0001
,
0100
0010
0100
1000
0100
0001
0100
0010
,
0100
1000
0100
0001
0010
0100
0100
0100
,
0010
0001
1000
0001
0100
0001
0010
0001
,
0100
1000
0100
0010
0100
0001
0001
0001
,
0020
0230
2300
3020
,
0230
0000
1000
0301
,
2002
0000
3003
0000
1000
0100
0010
0100
,
2200
0000
3300
0000
0010
0001
0100
0010
,
0110
0000
0001
1000
1100
0000
0001
0010
,
0200
0320
0032
0203
,
0320
0000
1030
0100
0001
0100
1000
0010
,
0200
0000
0301
0010
0002
0000
1003
0000
,
1100
0000
0010
0100
0110
0000
0001
0010
,
0011
1100
1001
0110
,
0001
0010
0100
0010
0001
0010
1000
0010
,
0001
0100
1000
0100
0010
1000
1000
1000
,
0100
0001
0100
1000
0100
0010
0100
1000
,
0100
0010
0001
0100
0010
0100
0100
0100
,
0001
1000
0100
0010
0100
1000
0010
0100
,
0001
0010
1000
0010
0001
0100
0100
0100
,
1000
0100
0001
0010
0100
1000
0010
0100
,
0002
0000
0000
0000
,
2003
0000
0000
0000
,
3010
0100
0001
0100
0010
0100
0001
0100
,
0010
0100
0001
0100
0010
0100
0001
0100
,
0010
0100
0001
0100
0010
0100
0001
0100
,
1001
2002
0000
0000
0000
0000
3003
0000
,
0010
0100
1000
0100
0010
0100
1000
0100
,
0010
0100
1000
0100
0010
0100
1000
0100
,
0010
0100
1000
0100
0010
0100
1000
0100
;
