#TITLE:Troposphere;
#SUBTITLE:;
#ARTIST:kobo;
#TITLETRANSLIT:;
#SUBTITLETRANSLIT:;
#ARTISTTRANSLIT:;
#CREDIT:Grithokskulk;
#BANNER:Troposphere.png;
#BACKGROUND:Troposphere-bg.png;
#LYRICSPATH:;
#CDTITLE:beatmania IIDX.png;
#MUSIC:Troposphere.mp3;
#OFFSET:-6.026;
#SAMPLESTART:23.435;
#SAMPLELENGTH:15.000;
#SELECTABLE:YES;
#BPMS:0.000=82.500,8.000=165.000,136.000=82.500,168.000=165.000;
#STOPS:;
#BGCHANGES:;

//---------------dance-single - ----------------
#NOTES:
     dance-single:
     :
     Easy:
     3:
     0.215,0.245,0.083,0.149,0.000: // measure 1
2000
3000
0002
0003
,  // measure 2
0020
0030
0200
0300
,  // measure 3
1000
0000
1001
0000
,  // measure 4
0001
0010
0001
0000
,  // measure 5
0100
0000
0110
0000
,  // measure 6
0010
1000
0010
0000
,  // measure 7
1000
0000
1001
0000
,  // measure 8
0010
0100
0010
0000
,  // measure 9
0100
0000
1001
0000
,  // measure 10
0010
0100
0010
0000
,  // measure 11
1000
0000
0001
0000
,  // measure 12
0010
0001
0010
0000
,  // measure 13
0100
0100
0010
0010
,  // measure 14
0001
1000
0010
0000
,  // measure 15
0100
0000
0110
0000
,  // measure 16
0010
1000
0100
0000
,  // measure 17
1000
0001
1000
0100
,  // measure 18
1000
0010
0100
0000
,  // measure 19
0002
0000
0000
0003
,  // measure 20
0010
0010
0010
0000
,  // measure 21
0200
0000
0000
0300
,  // measure 22
0010
0010
0001
0001
,  // measure 23
0200
0000
0000
0300
,  // measure 24
0001
0001
0001
0000
,  // measure 25
2000
0000
0000
3000
,  // measure 26
0100
0100
1000
1000
,  // measure 27
0000
0010
0010
0000
,  // measure 28
1000
1000
0000
0001
,  // measure 29
0001
0000
0010
0000
,  // measure 30
0100
0000
0010
0000
,  // measure 31
0000
0001
0001
0000
,  // measure 32
0100
0100
0000
0010
,  // measure 33
0010
0000
1000
0000
,  // measure 34
0100
0000
0010
0000
,  // measure 35
0110
0000
0000
0000
,  // measure 36
0000
0000
0000
0000
,  // measure 37
0000
0000
0000
0000
,  // measure 38
0000
0000
0000
0000
,  // measure 39
0100
0001
0010
0100
,  // measure 40
0020
0030
0002
0003
,  // measure 41
1000
0010
1000
0100
,  // measure 42
0020
0030
0200
0300
,  // measure 43
1000
0000
1001
0000
,  // measure 44
0001
0100
0010
0000
,  // measure 45
0100
0100
0001
0001
,  // measure 46
0020
0030
0200
0300
,  // measure 47
0010
0000
0110
0000
,  // measure 48
0100
1000
0010
0000
,  // measure 49
1000
1000
0001
0001
,  // measure 50
0020
0030
0002
0003
,  // measure 51
0100
0000
0110
0000
,  // measure 52
0010
1000
0100
0000
,  // measure 53
1000
0000
0001
0000
,  // measure 54
0010
0001
0100
0010
,  // measure 55
0100
0000
0110
0000
,  // measure 56
0010
1000
0100
0000
,  // measure 57
0020
0000
0000
0030
,  // measure 58
0200
0000
0000
0300
,  // measure 59
0010
0000
0010
0000
,  // measure 60
0010
0000
0010
0000
,  // measure 61
0010
0000
0010
0000
,  // measure 62
0010
0000
0010
0000
,  // measure 63
0010
0000
0010
0000
,  // measure 64
0010
0000
0010
0000
,  // measure 65
0010
0000
0010
0000
,  // measure 66
0010
0000
0000
0000
0010
0000
0000
0010
;

//---------------dance-single - ----------------
#NOTES:
     dance-single:
     :
     Medium:
     5:
     0.366,0.408,0.124,0.116,0.000:
0100
0010
0100
0010
,
1000
0100
1000
0100
,
0010
0000
0000
0010
0000
0000
0100
0000
,
1000
0000
0000
1000
0000
0000
0001
0000
,
0100
0000
0000
0100
0000
0000
0010
0000
,
0100
0000
0000
0001
0000
0000
0010
0000
,
0001
0000
0000
0010
0000
0000
0100
0000
,
0010
0000
0000
0100
0000
0000
0010
0000
,
0001
0001
1000
1000
,
0010
0100
0010
0000
0100
0010
0100
0000
,
0101
0000
0000
1001
0000
0000
1000
0000
,
1100
0000
0000
0000
0000
0010
0100
0010
,
0000
0100
0100
0010
,
0001
0000
0100
0010
0000
0000
0000
0000
,
1001
0000
0000
0110
0000
0000
0001
0000
,
2002
0000
0000
3003
0000
0000
1000
0100
,
0000
0010
0010
0100
,
0100
1000
0010
0000
,
0100
0000
0001
0000
0010
0001
0010
0000
,
0001
0000
0100
0010
0100
0000
0001
0000
,
1000
0000
0100
0000
0010
0100
0010
0000
,
0100
0000
1000
0010
1000
0000
0010
0000
,
0100
0000
0001
0000
0010
0001
0010
0000
,
0001
0000
0100
0010
0100
0000
0001
0000
,
0010
0000
0100
0000
0010
0001
0010
0000
,
0001
0000
0100
0010
0100
0000
0001
0000
,
1000
0100
1000
0000
0001
0100
0001
0000
,
1000
0010
1000
0000
0001
0010
0001
0000
,
0200
1000
0010
0301
,
0020
1000
0001
0130
,
0010
0001
0010
0000
0001
0100
0001
0000
,
1000
0100
1000
0000
0010
1000
0010
0000
,
0200
1000
0001
0310
,
0002
0010
1003
1001
,
2000
0000
0000
0000
,
0000
0000
0000
0000
,
3002
0000
0000
0000
,
0000
0000
0000
0000
0003
0100
0010
0100
,
0001
0000
0010
0100
0010
0000
0001
0100
,
0020
0100
2030
0100
,
3001
0010
0100
0000
0010
0100
1000
0000
,
0010
0100
0001
0010
0100
1000
0010
0000
,
0101
0000
0000
1010
0000
0000
0100
0000
,
0010
0000
0100
1000
0100
0000
0010
0000
,
0001
0100
0001
0000
1000
0000
0100
0000
,
0010
0100
0010
0000
0100
0000
1000
0000
,
1001
0000
0000
0110
0000
0000
0001
0000
,
0010
0000
0001
0100
0001
0000
1000
0000
,
0020
1000
0001
0130
,
0002
0010
0100
0013
,
0110
0000
0000
1001
0000
0000
0001
0000
,
0100
0010
0100
0000
0001
1000
0001
0000
,
2000
0100
0010
3001
,
0020
1000
0001
0130
,
0110
0000
0000
1001
0000
0000
0001
0000
,
0100
0000
0010
0100
0001
0000
1000
0000
,
0100
1000
0100
0000
0010
0100
0010
0000
,
0001
0010
0001
0000
0100
0010
0100
0000
,
0001
1000
1000
0000
1000
1000
0000
1000
,
0000
1000
1000
0000
1000
1000
0000
1000
,
0000
1000
1000
0000
1000
1000
0000
1000
,
0000
1000
1000
0000
1000
1000
0000
1000
,
0000
1000
1000
0000
1000
1000
0000
1000
,
0000
1000
1000
0000
1000
1000
0000
1000
,
0000
1000
1000
0000
1000
1000
0000
1000
,
0000
1000
1000
0000
1000
1000
0000
1000
;

//---------------dance-single - ----------------
#NOTES:
     dance-single:
     :
     Hard:
     7:
     0.482,0.489,0.124,0.305,0.004:
2000
3100
0002
0103
,
2000
3010
0002
0013
,
0110
0000
0001
0011
0000
0100
0000
0010
,
0100
0100
0010
0000
1000
0100
0010
0100
,
1001
0000
0001
0000
0100
0000
0010
0100
,
0000
0000
0001
0000
0010
0000
0010
0000
0001
0000
0000
0001
1000
0000
0100
0000
,
0010
0000
0100
1000
0000
0010
0000
0100
,
0000
0010
0100
0000
0001
0010
0000
0100
,
0010
0001
0010
0001
0010
0100
0010
0100
,
1000
0100
1000
0100
0010
0100
1001
0000
,
0201
0000
0010
0320
0000
0100
0230
0000
,
0302
0000
1000
1003
0000
0100
0010
0001
,
0000
0010
0100
1000
0100
0001
0100
0010
,
0100
1000
0010
0100
0000
0001
0001
0000
,
2001
0000
0010
3020
0000
0100
0230
0000
,
0302
0000
0010
0013
0000
0100
0010
0001
,
0000
0100
0010
0100
1000
0100
0010
0100
,
0001
0010
0100
1000
0000
0100
0100
0000
,
0010
0000
0100
0000
0000
1001
0000
0100
,
0000
0001
0100
0000
1000
0000
0010
0100
,
0010
0000
1000
0000
0000
0100
0000
0010
,
0000
0100
1000
0000
0010
0000
0110
0000
,
0100
0000
0001
0000
0000
0010
0000
0100
,
0000
0010
0001
0000
0100
0000
0110
0000
,
0010
0000
1000
0000
0000
0100
0000
0001
,
0000
0100
1000
0000
1000
0000
1001
0000
,
0001
0010
0100
0000
0010
0001
0100
0000
,
0010
1000
0100
0000
0010
0100
1000
0000
,
0020
0001
0100
1030
,
0200
0001
0010
1300
,
0010
0100
0001
0000
0010
0001
0100
1000
,
0200
1000
0010
0301
,
0010
0100
0010
0001
0100
0000
0010
0000
,
1000
0100
0010
0000
0100
1000
0010
0200
,
0000
0010
0010
0000
0010
0000
0010
0000
,
0001
0001
1000
1000
,
0010
0010
1000
1000
,
0001
0000
0001
0000
0310
0100
0001
0010
,
0200
0000
1300
0100
0010
0100
1000
0000
,
0002
0000
0100
0100
0203
0000
0010
0010
,
0310
0000
0100
0001
0010
0100
0010
0000
,
0100
1000
0100
1000
0001
1000
0001
1000
,
0210
0000
0001
0302
0000
0010
0023
0000
,
0230
0000
0010
0010
0310
0000
1001
0000
,
0001
0100
1000
0100
0001
0000
1000
0000
,
0100
1000
0010
1000
0100
0000
0010
0000
,
0002
0000
1000
2003
0000
0010
3020
0000
,
0230
0000
0010
0010
0310
0000
1001
0000
,
1000
0100
0001
0100
0010
0001
0100
0000
,
0010
1000
0001
0000
0010
0001
1000
0000
,
0002
0000
0100
0203
0000
0010
0320
0000
,
2030
0000
0100
0100
3100
0000
0110
0000
,
0100
1000
0010
0000
0100
0001
0010
1000
,
0020
0100
1000
0031
,
0200
0000
0001
0302
0000
1000
2003
0000
,
3200
0000
0010
0010
0310
0000
0110
0000
,
1000
0010
0001
0010
1000
0100
0001
0000
,
0100
1000
0010
0100
0001
0010
0100
0000
,
0020
0100
0100
0000
0100
0100
0000
0100
,
0000
0100
0100
0000
0100
0100
0000
0100
,
0000
0100
0100
0000
0100
0100
0000
0100
,
0000
0100
0100
0000
0100
0100
0000
0100
,
0000
0100
0100
0000
0100
0100
0000
0100
,
0000
0100
0100
0000
0100
0100
0000
0100
,
0000
0100
0100
0000
0100
0100
0000
0100
,
0000
0100
0100
0000
0100
0100
0000
0130
;

//---------------dance-single - ----------------
#NOTES:
     dance-single:
     :
     Challenge:
     8:
     0.620,0.816,0.074,0.305,0.252:
0001
0000
0100
0010
0100
0000
0001
0000
0010
0000
0100
0010
0100
0000
0010
0000
,
0001
0000
1000
0010
1000
0000
0010
0000
0100
0000
0010
1000
0100
0000
0010
0100
,
1000
0000
0010
0100
0000
0010
1000
0000
0000
0000
0001
0000
0001
0000
0000
0000
,
0010
0000
0100
0000
0010
0000
0001
0100
0001
0000
0000
0000
0100
0000
0010
0000
,
0100
0000
0001
1000
0000
0001
0010
0000
0000
0000
0100
0000
0100
0000
0000
0000
,
0010
0100
1000
0010
0100
0000
0010
1000
,
0100
0000
0010
0100
0000
1000
0010
0000
0000
0000
1000
0000
1000
0000
0000
0000
,
0001
0000
0010
0000
0100
0000
0010
0001
0010
0000
0000
0000
0001
0000
0100
0000
,
0010
0000
0100
0001
0000
1000
0100
0000
0010
0000
0100
0000
1000
0000
0010
0000
,
0100
0010
0100
0010
1000
0001
1000
0000
,
0012
0000
1000
2003
0000
0010
3020
0000
,
0230
0000
0001
0001
0301
0000
0010
1000
,
0010
0001
0100
1000
0100
0010
1000
0010
,
0001
0010
0100
1000
0100
0001
0010
0000
,
0200
0000
0010
0320
0000
0001
0032
0000
,
0203
0000
0010
0010
0310
0000
0100
0001
,
0000
0010
1000
0010
0001
0100
1000
0100
,
0010
1000
0010
0001
0010
0000
0110
0000
,
0100
0001
0010
0000
0100
0010
0001
0100
,
1000
0100
0010
0000
1000
0100
0010
0100
,
1000
0010
0100
0000
0010
1000
1000
0001
,
0000
0000
0001
0000
0010
0000
0000
0010
0100
0000
0010
0000
0001
0000
0100
0000
,
0001
0000
1000
0000
1000
0000
0000
0000
0100
0000
0000
0100
0001
0000
0100
0000
,
0000
0000
0010
0000
0010
0000
0000
0000
0100
0000
0000
0100
0010
0000
0001
0000
,
0100
0000
0010
0000
0010
0000
0100
0000
0001
0000
0000
0001
1000
0000
0100
0000
,
0000
0000
0010
0000
0010
0000
0100
0000
1000
0000
0010
0100
0010
0000
1000
0000
,
0100
0001
0100
0010
0100
1000
0010
0001
,
0010
0100
1000
0100
0010
1000
0010
0001
,
0020
1000
0001
0130
,
0002
0000
0010
0000
0103
0001
0010
0000
,
0100
0001
0100
1000
0010
0001
0010
1000
,
0100
0010
0100
1000
0100
0001
0100
1000
,
0200
0000
0010
0000
1300
0100
0001
0100
,
2000
0000
3010
0100
0010
0000
1001
0000
,
0200
0010
0010
0000
0010
0010
0000
0320
0000
0001
0001
0000
0001
0001
0000
0032
,
0000
0100
0100
0000
0100
0100
0000
0203
0000
1000
1000
0000
1000
1000
0000
2300
,
0000
0100
0100
0000
0100
0100
0000
3200
0000
0001
0001
0000
0001
0001
0000
0302
,
0000
0010
0010
0000
0010
0010
0000
0013
0100
0000
0010
0001
0100
0010
1000
0000
,
0100
1000
0010
0100
0010
1000
0001
0010
,
0001
0100
0010
0100
0001
0000
1000
0000
0100
0010
0100
1000
0010
0000
0100
0000
,
0001
1000
0001
0000
0010
0100
0010
0001
0100
0010
0100
0000
0001
1000
0100
0010
,
0100
1000
0100
1000
0001
1000
0001
1000
0010
1000
0010
0100
0010
0000
0110
0000
,
0002
1000
1000
0023
0000
0100
0230
0000
,
2300
0001
3001
0010
0100
0000
1001
0000
,
0001
0100
1000
0100
0010
1000
0100
0001
,
0100
0010
0001
0100
0010
0000
0101
0000
,
2000
0100
0100
3020
0000
0100
0230
0000
,
0302
0000
0013
0100
0001
0100
1000
0000
,
0010
1000
0100
0001
0100
0010
1000
0010
,
0001
0100
0010
1000
0001
0000
1001
0000
,
2000
0100
0100
3020
0000
0100
0230
0000
,
0302
0000
0013
0100
0010
0001
1001
0000
,
1000
0010
0100
0010
0000
0010
1000
0100
,
0001
0100
0010
0001
1000
0010
0010
0100
,
0002
1000
1000
0203
0000
1000
2300
0000
,
3200
0000
0301
0010
0100
1000
1001
0000
,
0010
0100
0010
0100
0001
1000
0001
1000
,
0100
1000
0100
0000
1000
0000
0010
0000
0100
0001
0100
0000
0010
0000
0100
0000
,
0002
1000
1000
0000
1000
1000
0000
1000
,
0000
1000
1000
0000
1000
1000
0000
1000
,
0000
1000
1000
0000
1000
1000
0000
1000
,
0000
1000
1000
0000
1000
1000
0000
2003
,
0000
0001
0001
0000
0001
0001
0000
0001
,
0000
0001
0001
0000
0001
0001
0000
0001
,
0000
0001
0001
0000
0001
0001
0000
0001
,
0000
0001
0001
0000
0001
0001
0000
3001
;
