#TITLE:Touch Of Gold;
#SUBTITLE:;
#ARTIST:Togo Project feat. Frances Maya;
#TITLETRANSLIT:;
#SUBTITLETRANSLIT:;
#ARTISTTRANSLIT:;
#CREDIT:Grithokskulk;
#BANNER:Touch Of Gold.png;
#BACKGROUND:Touch Of Gold-bg.png;
#LYRICSPATH:;
#CDTITLE:CROSSxBEATS.png;
#MUSIC:Touch Of Gold.mp3;
#OFFSET:-2.220;
#SAMPLESTART:49.115;
#SAMPLELENGTH:15.000;
#SELECTABLE:YES;
#BPMS:0.000=125.000;
#STOPS:;
#BGCHANGES:;

//---------------dance-single - ----------------
#NOTES:
     dance-single:
     :
     Easy:
     3:
     0.206,0.225,0.106,0.048,0.000: // measure 1
1001
0000
0000
0000
,  // measure 2
0110
0000
0000
0000
,  // measure 3
1100
0000
0000
0000
,  // measure 4
0001
0010
0100
1000
,  // measure 5
0110
0000
0000
0000
,  // measure 6
1010
0000
0000
0000
,  // measure 7
1001
0000
0000
0000
,  // measure 8
1000
0100
0010
0001
,  // measure 9
0000
0100
0100
0000
,  // measure 10
0001
0010
0100
0000
,  // measure 11
0000
1000
0001
1000
,  // measure 12
0020
0000
0000
0030
,  // measure 13
0000
0100
0100
0000
,  // measure 14
0010
0100
0001
0000
,  // measure 15
0000
1000
0100
0010
,  // measure 16
0200
0300
0010
0010
,  // measure 17
0001
0000
0100
0000
,  // measure 18
0010
0100
0001
0000
,  // measure 19
1000
0000
0001
0000
,  // measure 20
1000
0001
0010
0000
,  // measure 21
0010
0000
0100
0000
,  // measure 22
0010
0100
1000
0000
,  // measure 23
1000
0010
0100
0001
,  // measure 24
0020
0000
0000
0000
,  // measure 25
0030
0000
0100
0100
,  // measure 26
0010
0000
0001
0000
,  // measure 27
0100
0010
0100
0000
,  // measure 28
0010
0000
1000
0000
,  // measure 29
0100
1000
0100
0000
,  // measure 30
1000
0001
1001
0000
,  // measure 31
0001
0100
0101
0000
,  // measure 32
0010
0100
0010
1000
,  // measure 33
0200
0300
0010
0010
,  // measure 34
0100
1000
0100
1000
,  // measure 35
0010
0000
0010
0000
,  // measure 36
0100
0001
0100
0001
,  // measure 37
0010
0000
0010
0000
,  // measure 38
0100
0000
0110
0000
,  // measure 39
1000
0000
1001
0000
,  // measure 40
0001
0010
0100
1000
,  // measure 41
0002
0000
0000
0000
,  // measure 42
0003
0000
0000
0100
,  // measure 43
0100
0000
0000
0010
,  // measure 44
1000
0010
0100
0001
,  // measure 45
0000
0010
0010
0010
,  // measure 46
0000
0100
0100
0100
,  // measure 47
0000
0010
0010
0010
,  // measure 48
0001
0010
0100
1000
,  // measure 49
0010
0010
0010
0000
,  // measure 50
0100
0100
0100
0000
,  // measure 51
0001
0001
0001
0000
,  // measure 52
1000
0100
0010
0001
,  // measure 53
1001
0000
0000
0000
;

//---------------dance-single - ----------------
#NOTES:
     dance-single:
     :
     Medium:
     5:
     0.325,0.350,0.144,0.087,0.072:
1001
0000
0000
0000
0000
0100
0000
0000
,
0100
0000
0010
0001
0010
0001
0000
0000
,
0001
0000
0100
0010
0100
0010
0000
0000
,
0010
1000
0100
0010
,
1001
0000
1000
0000
0010
0100
0010
0100
,
0010
0000
0100
0000
0001
0010
0001
0010
,
0001
0000
1000
0000
0100
1000
0100
1000
,
0100
0010
0001
1001
,
0100
0000
0100
0000
0110
0000
0000
0010
,
0000
0010
0001
0010
0001
0000
0000
0000
,
1001
0000
0100
0010
0100
0010
0100
0000
,
0001
0010
0100
1000
,
1001
1000
0010
0000
,
1000
0010
1000
0010
1000
0000
0000
0000
,
0001
0010
0100
1000
,
1002
0010
0010
0013
,
0011
0000
0000
0000
0000
0000
0000
0000
0001
0000
0000
0001
0000
0000
0001
0000
,
0000
0000
0100
0010
0100
0000
0001
0000
,
1001
0000
0000
0000
0000
0000
0000
0000
1000
0000
0000
1000
0000
0000
1000
0000
,
0000
0000
0100
0010
0100
0000
1000
0000
,
1001
0000
0000
0000
0000
0000
0000
0000
0010
0000
0000
0010
0000
0000
0010
0000
,
0000
0000
0100
0010
0100
0000
0001
0010
,
0001
0000
0000
0011
0000
0000
1001
0000
,
0220
0000
0000
0000
,
0330
0000
1000
1000
,
0100
1000
0100
1000
,
0010
0000
0010
0000
0100
0010
0100
0000
,
0001
0000
0010
0000
0001
0100
0001
0000
,
1000
0000
0100
0000
1000
0100
1000
0000
,
0010
0000
0000
0010
0000
0000
0020
0000
0000
0000
0000
0000
0030
0000
0000
0000
,
0100
0000
0000
0100
0000
0000
0200
0000
0000
0000
0000
0000
0300
0000
0000
0000
,
0001
0000
0010
0000
0001
0100
0001
0000
,
0120
0000
0100
0130
,
0001
0100
0001
0100
,
0010
0000
0010
1000
0010
0000
1000
0000
,
0100
0000
1000
0100
1000
0000
0010
0000
,
0100
0000
0001
0010
0001
0000
0100
0000
,
0010
0000
0000
0010
0000
0000
0020
0000
0000
0000
0000
0000
0030
0000
0000
0000
,
0100
0000
0000
0100
0000
0000
0200
0000
0000
0000
0000
0000
0300
0000
0000
0000
,
0001
0000
0010
0000
0100
0010
0100
0000
,
2000
0000
0000
0000
0000
0000
0000
3000
0000
0000
0001
0000
0000
0001
0000
0000
,
0001
0000
0000
0000
0000
0000
0000
0000
0000
0000
0100
0000
0000
0100
0000
0000
,
0100
0000
0000
0000
0000
0000
0000
0000
0000
0000
0001
0000
0000
0001
0000
0000
,
0001
0000
0000
0000
0000
0000
0000
0000
0000
0000
1000
0000
0000
1000
0000
0000
,
1000
0000
0100
0000
0000
0000
0100
0000
0000
0000
0100
0000
1000
0100
0000
0000
,
0000
0010
0000
0010
0000
0010
0001
0010
,
0000
0001
0000
0001
0000
0001
0100
0001
,
0000
0100
0000
0010
0000
1000
0100
0000
,
1000
0000
0000
1000
0000
0000
1000
0000
0000
0000
0000
0000
0000
0000
0000
0000
,
0001
0000
0000
0001
0000
0000
0001
0000
0000
0000
0000
0000
0000
0000
0000
0000
,
0100
0000
0000
0100
0000
0000
0100
0000
0000
0000
0000
0000
0000
0000
0000
0000
,
0010
1000
0100
0010
,
1001
0000
0000
0000
;

//---------------dance-single - ----------------
#NOTES:
     dance-single:
     :
     Hard:
     7:
     0.497,0.451,0.481,0.260,0.202:
1000
0000
0100
0000
0000
0000
0000
0000
0000
0000
0010
0000
0100
1000
0000
0000
,
0010
0000
0100
0000
0000
0000
0000
0000
0000
0000
0001
0000
0010
0001
0000
0000
,
0100
0000
0010
0000
0000
0000
0000
0000
0000
0000
0100
0000
0001
1000
0000
0000
,
0200
2300
3020
0130
,
1001
0000
1000
0000
0000
0000
0000
0000
0000
0000
1000
0000
0100
0010
0000
0000
,
1100
0000
1000
0000
0000
0000
0000
0000
0000
0000
0010
0000
0100
0001
0000
0000
,
0011
0000
0001
0000
0000
0000
0000
0000
0000
0000
0010
0000
0001
0100
0000
0000
,
0020
0000
0230
0000
0302
0000
1003
0100
,
0010
0000
0011
0000
1100
0000
0001
1001
,
0000
0000
1000
0000
0010
0000
0100
0000
0020
0000
1000
0000
0000
1000
0000
0000
,
1030
0000
0100
0001
0100
0010
0100
1000
,
0020
0230
0302
1003
,
1100
0000
0011
0000
0101
0000
0010
0110
,
0000
0000
0010
0000
1000
0000
0100
0000
0020
0000
0100
0000
0000
0100
0000
0000
,
0130
0000
1000
0010
0100
0010
1000
0002
,
0000
0000
1000
1003
,
1100
0000
0000
0000
0001
0000
0000
0000
0101
0000
0000
0101
0000
0000
0110
0000
,
0000
0000
0010
0000
1000
0000
0100
0000
0010
0000
0000
0010
0100
0000
0000
0100
,
1000
0000
0000
0000
1100
0000
0000
0000
1010
0000
0000
1010
0000
0000
0110
0000
,
0000
0000
0100
0000
0001
0000
0010
0000
0100
0000
0000
0100
0010
0000
0000
0010
,
0100
0000
0000
0000
1100
0000
0000
0000
1010
0000
0000
1010
0000
0000
0110
0000
,
0000
0000
0100
0000
0001
0000
0010
0000
0001
0000
0000
0001
0010
0000
0000
0010
,
0100
1000
0010
0110
0000
0010
1000
0000
,
2001
0100
0010
0100
,
0002
3000
1000
1003
,
0001
0000
0101
0000
0010
0100
0001
0010
,
0100
0000
0000
0100
1000
0000
0010
0000
0100
0000
0100
0000
0010
0000
0000
0000
,
1000
0000
1010
0000
1000
0100
0010
0100
,
1000
0000
0000
1001
0000
0000
0100
0000
0010
0000
0100
0000
0001
0000
0010
0000
,
0011
0000
0000
1100
0000
0000
2001
0000
0000
0000
0000
0000
3010
0000
0000
0000
,
0101
0000
0000
1001
0000
0000
1200
0000
0000
0000
0000
0000
0310
0000
0000
0000
,
0010
0000
0000
0010
0001
0000
0000
0001
0100
0000
0010
0000
1000
0000
0100
0000
,
0020
0000
0100
0130
,
1000
0000
1100
0000
1000
0010
0100
0010
,
1000
0000
0000
1000
0001
0000
0010
0000
0001
0000
0001
0000
0100
0000
0010
0000
,
0100
0000
0000
0100
0001
0000
0010
0000
0001
0000
0100
0000
0010
0000
1000
0000
,
0100
0000
0000
0100
1000
0000
0010
0000
0100
0000
0100
0000
0010
0000
1000
0000
,
1001
0000
0000
1100
0000
0000
0012
0000
0000
0000
0000
0000
1003
0000
0000
0000
,
1010
0000
0000
0110
0000
0000
2001
0000
0000
0000
0000
0000
3100
0000
0000
0000
,
0010
0000
0000
0010
0100
0000
0000
0100
1000
0000
0010
0000
0100
0000
0001
2000
,
0000
0000
0000
0000
0000
0000
0000
0000
0000
0000
0001
0000
0000
0001
0000
0000
,
3001
0000
0000
0000
0100
0000
0000
0000
0000
0000
0101
0000
0000
0101
0000
0000
,
0110
0000
0000
0000
0010
0000
0000
0000
0000
0000
1010
0000
0000
1010
0000
0000
,
1100
0000
0000
1000
0100
0000
0000
0000
0001
0000
0000
0001
0100
0000
0000
0000
,
0010
0100
1000
0100
0001
0100
0000
0000
,
0001
0010
1000
0010
0100
0010
0000
0000
,
0001
0100
1000
0100
0010
0100
0000
0001
,
0020
1000
0100
0031
,
2001
0000
0000
0100
0000
0000
3020
0000
0000
0000
0100
0000
0000
0130
0000
0000
,
0120
0000
0000
1000
0000
0000
0230
0000
0000
0000
0001
0000
0000
0301
0000
0000
,
0012
0000
0000
0100
0000
0000
0023
0000
0000
0000
0100
0000
0000
0130
0000
0000
,
1000
0000
0010
0100
0010
1000
0001
0010
,
1100
0000
0000
0000
;
