#TITLE:Touch Of Gold;
#SUBTITLE:(Bongo Mango Remix);
#ARTIST:Togo Project feat. Frances Maya;
#TITLETRANSLIT:;
#SUBTITLETRANSLIT:;
#ARTISTTRANSLIT:;
#CREDIT:Grithokskulk;
#BANNER:Touch Of Gold (Bongo Mango Remix).png;
#BACKGROUND:Touch Of Gold (Bongo Mango Remix)-bg.png;
#LYRICSPATH:;
#CDTITLE:CROSSxBEATS.png;
#MUSIC:Touch Of Gold (Bongo Mango Remix).mp3;
#OFFSET:-2.035;
#SAMPLESTART:64.315;
#SAMPLELENGTH:15.000;
#SELECTABLE:YES;
#BPMS:0.000=125.000;
#STOPS:;
#BGCHANGES:;

//---------------dance-single - ----------------
#NOTES:
     dance-single:
     :
     Easy:
     3:
     0.240,0.272,0.186,0.053,0.000:
1000
0000
0001
0000
,
0100
0000
0010
0000
,
1000
0000
0100
0000
,
0001
0000
0010
0010
,
0100
0000
0010
0000
,
0001
0000
0100
0000
,
0010
0000
0100
0000
,
0002
0003
2000
3000
,
1001
0000
0000
0001
,
1001
0000
0000
0010
,
0110
0000
0000
0100
,
0110
0000
0100
1000
,
1010
0000
0000
0001
,
0011
0000
0000
1000
,
1001
0000
0000
0010
,
0110
0000
1001
1001
,
0110
0100
0010
0000
,
0010
0001
0100
0000
,
0000
0001
1000
0010
,
0100
0000
0110
0110
,
1001
1000
0001
0000
,
0010
0100
0010
0000
,
0000
0001
0010
0100
,
2000
0000
3001
0001
,
0100
0010
0100
0001
,
0010
0100
0010
0000
,
0001
0100
0010
0100
,
0001
1000
0100
0000
,
1000
0100
1000
0010
,
0100
0010
1000
0000
,
0001
0010
0100
0010
,
0200
0000
0000
0000
,
0300
0000
0100
0100
,
1000
0001
1000
0001
,
0100
0100
0100
0100
,
0010
0100
0010
0100
,
0001
0001
0001
0001
,
1000
0100
0110
0000
,
0010
0100
1100
0000
,
1000
0001
0100
0010
,
0200
0300
0001
0001
,
0010
0100
0010
0100
,
0010
0001
0010
0001
,
0100
0001
0100
0001
,
0100
0010
0100
0010
,
0100
0001
0101
0000
,
0001
1000
1001
0000
,
0010
0001
1000
0010
,
0200
0000
0300
0010
,
0010
0000
0000
1000
,
0001
0000
0000
0010
,
0001
0010
0100
1000
,
0010
0000
0000
0010
,
0110
0000
0000
1000
,
1001
0000
0000
0001
,
0010
0010
0100
0100
,
0110
0000
0000
0000
;

//---------------dance-single - ----------------
#NOTES:
     dance-single:
     :
     Medium:
     5:
     0.306,0.347,0.363,0.195,0.071:
0002
0000
0203
0000
,
0320
0000
0230
0000
,
0302
0000
2003
0000
,
3020
0000
0130
0100
,
0200
0000
0302
0000
,
0023
0000
0032
0000
,
0203
0000
0000
0000
0000
0000
0000
0000
0320
0000
0000
0000
0000
0000
0000
0030
,
2000
0000
0002
3003
,
1001
0000
0000
0000
0000
0000
0000
0000
0000
0000
1001
0000
0000
1001
0000
0000
,
1001
0000
0000
0000
0000
0000
0000
0000
0000
0000
0110
0000
0000
0110
0000
0000
,
0110
0000
0000
0000
0000
0000
0000
0000
0000
0000
1010
0000
0000
1010
0000
0000
,
1010
0000
1001
1001
,
0110
0000
0000
0000
0000
0000
0000
0000
0000
0000
0101
0000
0000
0101
0000
0000
,
0101
0000
0000
0000
0000
0000
0000
0000
0000
0000
1001
0000
0000
1001
0000
0000
,
1001
0000
0000
0000
0000
0000
0000
0000
0000
0000
0110
0000
0000
0110
0000
0000
,
0110
0000
1001
1001
,
1010
0000
0001
0000
1000
0000
0000
0100
,
0000
0100
1000
0010
0100
0000
0000
0000
,
0000
0000
0001
0010
0001
0010
0001
0100
,
0000
0100
0000
0000
0000
0000
0000
0000
,
0000
0000
0010
0000
0100
0000
0000
0001
,
0000
0001
1000
0001
1000
0000
0000
0000
,
0000
0000
0100
1000
0100
0000
1000
0020
,
0000
0000
0130
0100
,
0001
0000
0001
0000
0010
0000
0010
0100
,
0000
0100
0010
0100
0000
0000
0000
0000
,
1000
0000
0001
0000
0100
0000
0010
0100
,
0000
0100
0001
0100
0001
0000
0000
0000
,
1000
0000
1000
0000
0100
0000
0100
0010
,
0000
0010
0100
0010
0100
0000
0000
0000
,
1000
0000
0100
1000
0000
0010
0100
0000
,
0220
0000
0000
0000
0000
0000
0000
0000
0000
0000
0000
0000
0000
0000
0000
0330
,
0000
0000
0100
0100
,
0101
1000
1100
1000
,
1010
0100
0110
0001
,
0011
0010
0110
0010
,
0011
0001
1001
1000
,
1001
0000
0000
1001
0000
0000
1001
0000
0000
0000
0000
0000
0000
0000
0000
0000
,
0110
0000
0000
0110
0000
0000
0110
0000
0000
0000
0000
0000
0000
0000
0000
0000
,
0001
0000
0010
0000
0100
1000
0100
0000
,
2000
0000
0001
3001
,
0002
0000
0100
0000
,
0010
0000
1000
0000
,
2003
0000
0100
0000
,
0010
0000
0001
0000
,
3001
0000
0000
0001
0000
0000
0001
0000
0000
0000
0000
0000
0000
0000
0000
0000
,
1000
0000
0000
1000
0000
0000
1000
0000
0000
0000
0000
0000
0000
0000
0000
0000
,
0010
0000
0100
0000
0001
1000
0100
0010
,
0002
0000
0000
0000
0000
0000
0000
0000
0003
0000
1000
0000
0000
1000
0000
0000
,
1000
0000
0000
0000
0000
0000
0000
0000
0000
0000
0010
0000
0000
0010
0000
0000
,
0010
0000
0000
0000
0000
0000
0000
0000
0000
0000
0100
0000
0000
0100
0000
0000
,
0100
0000
0001
0001
,
0010
0000
0000
0000
0000
0000
0000
0000
0000
0000
0001
0000
0000
0001
0000
0000
,
0001
0000
0000
0000
0000
0000
0000
0000
0000
0000
1000
0000
0000
1000
0000
0000
,
1000
0000
0000
0000
0000
0000
0000
0000
0000
0000
0010
0000
0000
0010
0000
0000
,
0010
0000
0100
0100
,
1001
0000
0000
0000
;

//---------------dance-single - ----------------
#NOTES:
     dance-single:
     :
     Hard:
     7:
     0.491,0.545,1.000,0.371,0.155: // measure 1
2100
0000
0020
3000
,  // measure 2
0200
0030
2000
0300
,  // measure 3
0200
3000
0002
0300
,  // measure 4
0020
0003
0100
0130
,  // measure 5
0200
0000
2000
0300
,  // measure 6
0200
3000
0002
0300
,  // measure 7
0200
0003
0020
0300
,  // measure 8
0002
0030
2000
3003
,  // measure 9
1001
0000
0000
0000
0000
0000
0000
0000
0000
0000
1100
0000
0000
0011
0000
0000
,  // measure 10
0101
0000
0000
0000
0010
0000
0000
0000
0000
0000
0110
0000
0000
0101
0000
0000
,  // measure 11
1001
0000
0000
0000
0000
0000
0000
0000
0000
0000
1100
0000
0000
0110
0000
0000
,  // measure 12
1100
0000
1001
1001
,  // measure 13
0110
0000
0000
0000
0000
0000
0000
0000
0000
0000
1100
0000
0000
0011
0000
0000
,  // measure 14
0101
0000
0000
0000
0000
0000
0000
0000
0000
0000
0101
0000
0000
1001
0000
0000
,  // measure 15
1100
0000
0000
0000
0000
0000
0000
0000
0000
0000
0110
0000
0000
1100
0000
0000
,  // measure 16
1002
0103
0110
0110
,  // measure 17
1001
0000
0000
0000
0100
0000
0010
0000
1000
0000
1100
0000
0000
1100
0000
0000
,  // measure 18
0011
0000
0001
0000
0100
0000
0010
0000
0100
0000
0101
0000
0000
0101
0000
0000
,  // measure 19
0110
0000
0000
0000
1000
0000
0100
0000
0010
0000
1100
0000
0000
0011
0000
0000
,  // measure 20
0201
0301
0110
0110
,  // measure 21
1001
0000
0000
0000
0100
0000
1000
0000
0100
0000
0110
0000
0000
0110
0000
0000
,  // measure 22
0101
0000
0010
0000
0100
0000
0010
0000
0001
0000
0101
0000
0000
0110
0000
0000
,  // measure 23
0101
0000
1100
0000
0010
0001
0100
0120
,  // measure 24
0000
0100
0130
0000
0001
0010
0100
1000
,  // measure 25
2100
0000
0000
0000
0010
3000
0000
0000
0110
0000
0000
0110
0000
0000
0101
0000
,  // measure 26
0000
0010
0001
0100
0110
0000
1010
0000
,  // measure 27
1200
0000
0000
0000
0310
0000
0000
0000
0110
0000
0000
0110
0000
0000
0011
0000
,  // measure 28
0000
0000
0010
0000
0001
0000
0100
0000
0010
0010
0000
0000
0100
0100
0000
0000
,  // measure 29
0101
0000
0000
0000
0010
0000
0000
0000
0011
0000
0000
0101
0000
0000
0110
0000
,  // measure 30
0000
0010
0100
0001
0011
0000
1100
0000
,  // measure 31
1010
0100
0010
1010
0000
1000
0001
0000
,  // measure 32
0210
0000
0000
0010
0000
0000
0000
0020
,  // measure 33
0000
0300
1000
0130
,  // measure 34
1010
0000
0000
0000
1100
0000
0000
0000
0110
0000
0000
0110
0000
0000
1100
0000
,  // measure 35
0011
0000
0000
0000
0101
0000
0000
0000
0110
0000
0000
0101
0000
0000
0110
0000
,  // measure 36
1010
0000
0000
0000
1001
0000
0000
0000
0011
0000
0000
0110
0000
0000
0011
0000
,  // measure 37
1001
0000
0000
0000
0110
0000
0000
0000
0101
0000
0000
0110
0000
0000
0101
0000
,  // measure 38
1001
0000
0000
1100
0000
0000
0220
0000
0000
0000
0000
0300
0030
0000
0000
0000
,  // measure 39
0011
0000
0000
0110
0000
0000
2200
0000
0000
0000
0000
0000
3300
0000
0000
0000
,  // measure 40
1100
0000
0000
1000
0100
0000
0000
0100
0010
0000
0100
0000
1000
0000
0010
0200
,  // measure 41
0000
0010
0010
0310
1000
0010
0100
0000
,  // measure 42
0002
0000
0000
0020
0000
0000
0033
0000
,  // measure 43
0200
0000
0000
0020
0000
0000
0330
0000
,  // measure 44
0002
0000
0000
0200
0000
0000
0303
0000
,  // measure 45
0020
0000
0000
0200
0000
0000
0330
0000
,  // measure 46
0101
0000
0000
1010
0000
0000
2200
0000
0000
0000
0000
0000
3300
0000
0000
0000
,  // measure 47
1001
0000
0000
0101
0000
0000
0220
0000
0000
0000
0000
0000
0330
0000
0000
0000
,  // measure 48
2000
0000
0000
0000
3200
0000
0000
0000
0310
0000
0100
1000
0010
0000
0100
0000
,  // measure 49
0110
0110
0000
0000
0000
0000
0000
0000
0000
0000
0101
0000
0000
0101
0000
0000
,  // measure 50
0110
0000
0000
0000
0000
0000
0000
0000
0000
0000
1010
0000
0000
0101
0000
0000
,  // measure 51
0011
0000
0000
0000
0000
0000
0000
0000
0000
0000
0011
0000
0000
0110
0000
0000
,  // measure 52
0012
0000
0100
0103
,  // measure 53
1001
0000
0000
0000
0000
0000
0000
0000
0000
0000
1100
0000
0000
1010
0000
0000
,  // measure 54
0110
0000
0000
0000
0000
0000
0000
0000
0000
0000
1001
0000
0000
1100
0000
0000
,  // measure 55
0110
0000
0000
0000
0000
0000
0000
0000
0000
0000
0110
0000
0000
1100
0000
0000
,  // measure 56
1001
0010
0100
1000
1010
0000
0101
0000
,  // measure 57
1001
0000
0000
0000
;
