#TITLE:Tomorrow Perfume;
#SUBTITLE:(C-Show Remix);
#ARTIST:C-Show;
#TITLETRANSLIT:;
#SUBTITLETRANSLIT:;
#ARTISTTRANSLIT:;
#CREDIT:Grithokskulk;
#BANNER:Tomorrow Perfume (C-Show Remix).png;
#BACKGROUND:Tomorrow Perfume (C-Show Remix)-bg.png;
#LYRICSPATH:;
#CDTITLE:SOUND VOLTEX.png;
#MUSIC:Tomorrow Perfume (C-Show Remix).mp3;
#OFFSET:-2.836;
#SAMPLESTART:90.515;
#SAMPLELENGTH:15.000;
#SELECTABLE:YES;
#BPMS:0.000=87.500,16.000=175.000,84.000=87.500,86.000=175.000,90.000=87.500,92.000=175.000,96.000=87.500,98.000=175.000,106.000=87.500,138.000=175.000,198.000=87.500,200.000=175.000;
#STOPS:;
#BGCHANGES:;

//---------------dance-single - ----------------
#NOTES:
     dance-single:
     :
     Easy:
     4:
     0.285,0.364,0.051,0.229,0.000: // measure 1
2000
3200
0320
0030
,  // measure 2
0002
0203
0320
0030
,  // measure 3
0200
0302
0023
0030
,  // measure 4
0200
0320
0031
0001
,  // measure 5
1000
0100
1000
0000
,  // measure 6
0001
0100
0001
0000
,  // measure 7
0010
0100
0010
0000
,  // measure 8
0001
0010
0100
1000
,  // measure 9
0010
0100
0010
0000
,  // measure 10
1000
0100
1000
0000
,  // measure 11
0001
0100
0001
0000
,  // measure 12
1000
0100
0010
0001
,  // measure 13
1000
0010
1000
0000
,  // measure 14
0001
0010
0001
0000
,  // measure 15
0100
0010
0100
0000
,  // measure 16
0001
0100
0010
1000
,  // measure 17
0001
0010
0001
0000
,  // measure 18
1000
0010
1000
0000
,  // measure 19
0100
0010
0100
0000
,  // measure 20
1000
0010
0100
0001
,  // measure 21
0010
0000
0100
1000
,  // measure 22
0020
0230
0301
0010
,  // measure 23
0100
1000
0002
0203
,  // measure 24
0310
0100
0001
0010
,  // measure 25
0002
2003
3100
1000
,  // measure 26
0010
0100
0020
0000
,  // measure 27
0000
0030
0100
0000
,  // measure 28
0001
0000
0010
0000
,  // measure 29
0001
0000
0100
0000
,  // measure 30
0001
0000
1000
0000
,  // measure 31
0100
0000
1000
0010
,  // measure 32
0100
0010
1000
0010
,  // measure 33
0100
0010
0100
0001
,  // measure 34
0010
0001
0100
0001
,  // measure 35
0020
0030
0100
0100
,  // measure 36
0100
0100
0010
0010
,  // measure 37
0010
0010
0001
0001
,  // measure 38
0001
0001
2000
3000
,  // measure 39
2000
3000
1000
1000
,  // measure 40
1000
1000
0010
0010
,  // measure 41
0010
0010
0100
0010
,  // measure 42
0100
0010
0110
0000
,  // measure 43
1001
0000
2000
0000
,  // measure 44
0000
0000
0000
0000
,  // measure 45
0000
0000
0000
0000
,  // measure 46
0000
3000
1001
1001
,  // measure 47
0001
0001
0002
0000
,  // measure 48
0000
0000
0000
0000
,  // measure 49
0000
0000
0000
0000
,  // measure 50
0000
0003
1000
1001
,  // measure 51
0001
0010
0001
0010
,  // measure 52
0100
1000
0100
1000
,  // measure 53
0200
0300
0200
0300
,  // measure 54
0020
0030
0020
0030
,  // measure 55
0001
1000
0001
1000
,  // measure 56
0010
0100
0010
0100
,  // measure 57
0001
0010
0100
1000
,  // measure 58
0010
0000
0100
0100
,  // measure 59
0010
1000
0100
0000
,  // measure 60
0100
1000
0010
0100
,  // measure 61
0001
0010
0001
0000
,  // measure 62
0001
0010
0100
1000
,  // measure 63
0010
0100
0010
0000
,  // measure 64
1000
0001
0010
0100
,  // measure 65
0010
0001
0010
0000
,  // measure 66
0100
1000
0010
0100
,  // measure 67
0110
0000
0000
0000
;

//---------------dance-single - ----------------
#NOTES:
     dance-single:
     :
     Medium:
     6:
     0.465,0.455,0.093,0.382,0.000:
2000
0000
3100
0100
0010
0100
1000
0010
,
0200
0000
0301
0001
0010
0001
0100
0000
,
0020
0000
0130
0100
0001
0010
0100
0000
,
0020
0000
0031
0001
0001
0100
0010
1000
,
0100
1000
0100
0000
1000
0000
1010
0000
,
0010
0100
0010
0000
0100
0000
0110
0000
,
0100
0001
0100
0000
0001
0000
0101
0000
,
0002
0023
0230
2300
,
3010
0100
0010
0000
0110
0000
1000
0000
,
0100
1000
0100
0000
1100
0000
0010
0000
,
0001
0010
0001
0000
0011
0000
0100
0000
,
2000
3020
0230
0302
,
0013
0001
0010
0000
0100
0000
0010
0000
,
0001
0100
0001
0000
1000
0000
0010
0000
,
0100
0010
0100
0000
0010
0000
1000
0000
,
0002
2003
3200
0320
,
0130
1000
0100
0000
1000
0000
0010
0000
,
0100
0001
0100
0000
0010
0000
0100
0000
,
0001
0010
0001
0000
1000
0100
1000
0000
,
0020
0230
0302
2003
,
3100
0010
0100
0010
0000
0000
0100
0000
,
2000
0000
3020
0000
0130
0001
0100
0001
,
0000
1000
0001
0000
0020
0000
0230
0000
,
1300
0001
1000
0001
0000
0001
1000
0000
,
0020
0000
0230
0000
0301
0010
0001
0010
,
0000
0001
0010
0000
0220
0000
0000
0000
,
0000
0000
0330
0000
2000
0000
3100
1000
,
0020
0230
0320
0000
,
0130
0001
0010
0100
2000
0000
3001
0100
,
0001
0010
0100
1000
0020
0000
0000
0000
,
0230
0000
0000
0000
0301
0000
0010
0001
,
0020
0130
2000
0000
,
3010
0100
0001
0010
0002
0000
0103
0001
,
0200
0320
2030
0000
,
0002
3003
0100
0010
,
0100
0010
0100
0001
,
0100
0000
0001
0010
0001
0000
0010
0000
,
0001
0010
0100
0010
,
0100
0000
1000
0100
1000
0000
0010
0000
,
1000
0010
0100
0001
,
0100
0000
0001
0000
0010
0001
0010
0000
,
0100
0000
0000
0000
0110
0000
0000
1001
,
0000
0000
0100
0010
,
0001
0000
0100
1000
,
0010
0000
0100
0001
,
1000
0000
0100
0100
,
0110
0110
0010
0010
,
0001
0001
0100
0100
,
0010
0000
0010
0000
1000
0010
1000
0000
,
0001
0010
0001
0000
2000
0000
3002
0000
,
0103
0010
0100
0000
0010
1000
0010
0000
,
1000
0000
0100
0000
0010
0100
1000
0000
,
0010
0100
0010
0000
0100
0001
0100
0000
,
0001
0000
0010
0000
0001
0100
0010
1000
,
0100
1000
0100
0000
1000
0010
1000
0000
,
0001
0000
0010
0000
0001
0100
0010
0000
,
0100
0001
0100
0000
0010
1000
0010
0000
,
1000
0000
0100
0000
1000
0100
0010
0001
,
0100
0010
0100
0000
0001
0100
0001
0000
,
1000
0100
1000
0100
1000
0100
1000
0000
,
0010
0001
0010
0000
0001
0100
0001
0000
,
1000
0010
1000
0010
1000
0010
1000
0000
,
0010
0100
0010
0000
1000
0001
1000
0000
,
0100
0010
0100
1000
0100
0010
0100
0000
,
0010
0001
0010
0000
0001
1000
0001
0000
,
0100
0010
0000
0010
0000
0010
0000
0010
,
2000
0000
0000
0000
,
3000
0000
0000
0000
;

//---------------dance-single - ----------------
#NOTES:
     dance-single:
     :
     Hard:
     9:
     0.650,0.825,0.221,0.255,0.505:
1002
0000
0000
0000
1003
0100
0010
0001
0100
0010
0100
0000
0001
1000
0001
0000
,
2100
0000
0000
0000
3100
1000
0010
0100
0001
0010
0001
0000
1010
0000
0101
0000
,
0120
0000
0000
0000
0000
0000
0000
0000
1030
0000
0100
0000
0010
0000
0001
0000
0100
0000
0010
0000
0100
0000
0000
0001
0000
0000
1000
0000
0100
0000
0000
0000
,
0010
0000
0100
0000
0010
0000
0000
0100
0000
0000
1000
0000
0010
0000
0000
0000
1010
0000
0000
0000
0101
0000
0000
0000
0011
0000
0000
0000
1100
0000
0000
0000
,
0001
0000
0100
0000
0010
0000
0100
0001
0000
0000
0100
0000
0001
0000
0000
0000
,
1000
0000
0100
0000
0010
0000
0100
1000
0000
0000
0010
0000
1000
0000
0000
0000
,
0001
0000
0010
0000
0100
0000
0010
0001
0000
0000
0001
0000
0100
0000
0010
0000
,
1010
0101
0011
1100
,
0010
0000
0001
0000
0100
0000
0010
0100
0000
0000
0001
0000
1000
0000
0000
0000
,
0100
0000
1000
0000
0010
0000
0100
0010
0000
0000
1000
0000
0100
0000
0000
0000
,
0010
0000
0100
0000
1000
0000
0010
0100
0000
0000
0010
0000
0100
0000
0000
0000
,
0101
0001
0010
0100
1000
1000
1100
0000
,
1000
0100
1000
0000
0100
0000
0010
0100
0000
0000
1000
0000
0010
0000
0000
0000
,
0100
0001
0100
0000
0001
0000
0010
0001
0000
0000
0100
0000
0010
0000
0000
0000
,
0100
0001
0100
0000
0001
0000
0100
0010
0000
0000
0100
0000
0001
0000
0000
0000
,
1100
0110
0011
1001
,
1000
0010
1000
0000
0010
0000
0100
0010
0000
0000
1000
0000
0001
0000
0010
0000
,
0001
0100
0001
0000
0100
0000
0010
0100
0000
0000
0010
0000
1000
0000
0100
0000
,
1000
0001
1000
0000
0100
0000
0010
0100
0000
0000
1000
0000
0010
0000
0100
0000
,
0001
0001
0010
0010
0100
0100
1000
1000
,
0010
0000
0100
0000
0010
0000
1000
0001
0000
0000
0010
0000
0100
0000
1000
0000
,
0020
0000
0130
0100
0002
0000
0013
0010
0001
0000
0100
0000
0010
0000
0100
0001
,
0000
0000
1000
0000
0100
0000
1000
0000
0010
0100
0010
1000
0100
0010
0001
0000
,
0100
0000
0010
0000
0100
0000
0001
0010
0000
0000
0100
0000
0010
0000
0001
0000
,
0100
0000
0010
0010
1000
0000
0100
0010
0100
0000
1000
0000
0010
0000
0100
0010
,
0000
0100
0001
0010
0200
0000
0000
0000
,
0000
0000
0000
0000
2300
0000
0010
0100
,
3002
0023
0230
0000
,
0310
0001
0100
0010
2000
0000
0100
0001
,
3200
0010
2300
0010
3200
0000
0000
0010
,
2300
0000
0000
0010
0000
0000
0100
0000
3002
0000
0000
0000
0100
0000
0010
0000
,
0203
1000
0020
0330
,
0100
0001
0010
0100
0020
0000
0001
0100
,
0032
0100
0010
1000
0203
0000
0000
0010
,
0302
0000
0000
2000
0000
0000
3003
0000
1000
0000
0000
0100
0000
0000
1000
0000
,
0000
0100
0000
0000
1000
0000
0010
0000
0100
0000
0010
0000
0000
1000
0000
0000
,
0100
0000
0000
0001
0000
0000
0100
0000
0010
0000
0000
0001
0000
0000
0100
0000
,
0000
0010
0000
0000
0100
0000
0001
0000
1000
0000
0100
0000
0000
1000
0000
0000
,
0010
0000
0000
0100
0000
0000
1000
0000
0100
0000
0000
0001
0000
0000
0010
0000
,
0000
0100
0000
0000
0010
0000
0001
0000
0100
0000
0010
0000
0000
0100
0000
0000
,
0001
0000
0000
0010
0000
0000
1000
0000
0010
0000
0000
0001
0000
0000
0100
0000
,
0000
0010
0000
0000
0100
0000
0001
0000
0020
0000
0000
0000
0000
0000
0200
0000
,
0000
0330
2002
0000
,
0000
0000
0000
0000
3003
0000
0000
0000
1000
0000
0100
0000
0000
0010
0000
0000
,
0100
0000
0000
1000
0000
0000
0010
0000
0100
0000
0000
0001
0000
0000
0010
0000
,
0000
0001
0000
0000
0100
0000
0010
0000
0200
0000
0000
0000
0310
0000
0000
0000
,
0110
0000
0000
1001
0000
0000
0000
0000
1100
0000
0000
0100
0000
0000
0010
0000
,
0000
0100
0000
0000
1000
0000
0010
0000
0100
0000
0001
0000
0000
0010
0000
0000
,
1000
0000
0000
0010
0000
0000
0001
0000
0100
0000
0000
0010
0000
0000
1000
0000
,
0000
0000
0100
0000
0000
0000
0000
0000
0010
0000
0000
0000
0001
0000
0000
0000
2000
0000
0100
0000
0000
0100
0000
0000
0100
0000
0000
0100
0000
0000
0100
3000
,
0010
0000
0100
1000
0000
0000
0010
0000
0100
0001
0000
0000
0010
0000
0001
0000
,
0010
0000
0001
0100
0000
0000
0010
0000
0000
0100
0000
0000
0001
0000
0010
0100
,
1000
0000
0010
0100
0000
0000
0001
0000
0010
0001
0000
0000
0100
0000
0010
0000
,
0100
0000
0001
0010
0000
0000
0100
0000
0000
0010
0000
0000
0001
0000
0100
0010
,
1000
0000
0100
0010
0000
0000
0100
0000
1000
0010
0000
0000
0100
0000
1000
0000
,
0100
0000
0001
0010
0000
0000
0100
0000
0000
0010
0000
0000
0001
0000
0100
0010
,
1000
0000
0100
1000
0000
0000
0010
0000
0100
0010
0000
0000
0100
0000
0001
0000
,
0010
0000
0001
0000
0100
0010
0000
0000
1010
0000
0000
0110
0000
0000
0101
0000
,
0001
0010
0001
0000
0010
0000
0100
0010
0000
0000
0001
0000
0100
0000
1000
0000
,
0100
0000
0010
0000
1000
0100
0000
0010
0100
0000
1000
0100
0000
0010
0100
0000
,
1000
0010
1000
0000
0010
0000
0100
0010
0000
0000
1000
0000
0001
0000
0010
0000
,
0001
0000
0100
0000
0010
1000
0000
0001
1000
0000
0010
1000
0000
0001
1000
0000
,
0100
1000
0100
0000
0010
0000
0001
0100
0000
0000
0010
0000
0100
0000
0001
0000
,
0010
0000
0100
0000
0010
0001
0000
0010
0100
0000
0010
0001
0000
0010
0100
0000
,
1000
0001
1000
0000
0100
0000
0010
0100
0000
0000
1000
0000
0010
0000
0100
0000
,
0001
0000
0010
0000
0100
0010
0000
0100
1000
0000
0010
1000
0000
0010
0100
0001
,
2000
0000
0000
0000
,
3000
0000
0000
0000
;
