#TITLE:The 5th KAC DJ TOTTO's SELECTION;
#SUBTITLE:;
#ARTIST:remixed by DJ TOTTO;
#TITLETRANSLIT:;
#SUBTITLETRANSLIT:;
#ARTISTTRANSLIT:;
#CREDIT:Grithokskulk;
#BANNER:The 5th KAC DJ TOTTO's SELECTION.png;
#BACKGROUND:The 5th KAC DJ TOTTO's SELECTION-bg.png;
#LYRICSPATH:;
#CDTITLE:REFLEC BEAT.png;
#MUSIC:The 5th KAC DJ TOTTO's SELECTION.mp3;
#OFFSET:-0.735;
#SAMPLESTART:0.755;
#SAMPLELENGTH:15.000;
#SELECTABLE:YES;
#BPMS:0.000=130.000,41.000=136.500,102.000=146.260,168.000=150.000,170.000=155.000,172.000=160.000,174.000=165.000,175.000=170.000,176.000=175.000,177.000=180.000,178.000=185.000,186.000=182.000,218.000=186.999,255.000=172.499;
#STOPS:;
#BGCHANGES:;

//---------------dance-single - ----------------
#NOTES:
     dance-single:
     :
     Easy:
     4:
     0.348,0.542,0.101,0.670,0.000: // measure 1
0000
0000
0200
0000
,  // measure 2
0000
0000
0000
0300
,  // measure 3
0010
0100
0002
0003
,  // measure 4
2000
3000
0020
0000
,  // measure 5
0000
0030
2000
0000
,  // measure 6
0000
0000
0000
0000
,  // measure 7
3100
0010
0200
0300
,  // measure 8
0020
0030
0001
1000
,  // measure 9
2002
0000
3003
0001
,  // measure 10
0010
0100
0020
0030
,  // measure 11
0220
0000
0000
0000
,  // measure 12
0000
0330
0002
0003
,  // measure 13
2000
3000
0010
0010
,  // measure 14
0010
0010
0000
0100
,  // measure 15
0100
0000
0001
0010
,  // measure 16
0100
0010
0001
0100
,  // measure 17
0100
0000
0020
0000
,  // measure 18
0000
0030
0000
1000
,  // measure 19
1000
0000
0100
1000
,  // measure 20
0010
0100
0010
1000
,  // measure 21
1000
0000
0200
0000
,  // measure 22
0000
0300
0020
0030
,  // measure 23
0200
0300
2000
3000
,  // measure 24
0002
0003
0200
0300
,  // measure 25
0020
0030
0200
0300
,  // measure 26
0002
0003
1001
1000
,  // measure 27
0100
0010
0100
0100
,  // measure 28
0010
0010
0001
0100
,  // measure 29
1000
0100
0010
0010
,  // measure 30
0100
0100
0001
0010
,  // measure 31
0100
1000
0010
0010
,  // measure 32
0100
0100
0001
1000
,  // measure 33
0100
1000
0002
0000
,  // measure 34
0000
0003
0100
0010
,  // measure 35
0100
0001
0010
0010
,  // measure 36
0100
0100
0010
0001
,  // measure 37
1000
0010
2000
0000
,  // measure 38
0000
3000
0001
0100
,  // measure 39
0010
0100
0001
0001
,  // measure 40
1000
1000
0100
0010
,  // measure 41
0100
1000
0020
0000
,  // measure 42
0000
0000
2030
3200
,  // measure 43
0320
0230
2300
3020
,  // measure 44
0230
0302
0023
0032
,  // measure 45
0203
0320
2030
3200
,  // measure 46
0320
0032
0000
0000
,  // measure 47
0000
0003
1000
1000
,  // measure 48
0100
0100
1000
0100
,  // measure 49
0010
0001
0010
0010
,  // measure 50
0001
0001
0010
0001
,  // measure 51
1000
0100
0020
0030
,  // measure 52
0200
0300
2000
3000
,  // measure 53
0020
0030
0200
0300
,  // measure 54
0002
0003
0010
0010
,  // measure 55
0010
0010
0020
0230
,  // measure 56
0302
0023
2030
3020
,  // measure 57
0032
0203
0320
2030
,  // measure 58
3200
0302
0203
2300
,  // measure 59
3020
0230
0302
0023
,  // measure 60
0032
0203
0320
2030
,  // measure 61
3200
0320
0230
2300
,  // measure 62
3020
0230
0302
0023
,  // measure 63
0032
0203
0320
0000
,  // measure 64
0000
0100
0000
0230
0000
0000
0000
0000
,  // measure 65
0000
0000
0000
0000
,  // measure 66
0000
0000
0320
0000
,  // measure 67
0000
0030
2000
0000
,  // measure 68
0000
3000
0200
0000
,  // measure 69
0000
0300
0010
0000
,  // measure 70
0100
0000
2000
0000
,  // measure 71
0000
3000
0002
0000
,  // measure 72
0000
0003
0200
0000
,  // measure 73
0000
0300
0110
0110
,  // measure 74
0110
0110
0000
1000
,  // measure 75
0100
0000
0000
0001
,  // measure 76
0010
0000
0000
0001
,  // measure 77
0100
0000
0000
0010
,  // measure 78
0100
0000
1001
0000
,  // measure 79
0110
0000
0011
0000
,  // measure 80
0010
0010
1010
0000
,  // measure 81
1001
0000
0110
0000
,  // measure 82
0100
0100
1000
0000
,  // measure 83
0010
0010
0100
0000
,  // measure 84
0001
0010
0100
0000
,  // measure 85
0010
0010
0001
0001
,  // measure 86
0100
0100
0020
0030
,  // measure 87
0200
0300
2002
0000
,  // measure 88
0000
0000
0000
0000
,  // measure 89
0000
0000
3003
0000
;

//---------------dance-single - ----------------
#NOTES:
     dance-single:
     :
     Medium:
     6:
     0.476,0.573,0.641,0.324,0.000:
0000
0000
0020
0001
,
0100
1000
0001
0001
,
0100
1000
0230
1000
,
0010
0001
0320
0000
,
0200
0330
0002
0100
,
0010
0100
2003
0100
,
0001
0010
3200
0001
,
0010
1000
0320
0001
,
0032
0100
0203
0010
,
0320
1000
2030
3000
,
2002
3003
0100
0100
,
0200
0000
0300
0000
0020
0000
0030
0100
,
0020
0000
0000
0100
0000
0100
0000
0100
,
0000
0100
0000
0130
0001
0000
0010
0000
,
0100
0000
1000
0000
0100
1000
0100
1000
,
0000
0010
0000
0010
0000
0100
0010
0000
,
1000
0000
0001
0020
0000
0000
0000
0000
,
0000
0000
0000
0000
0030
0100
0010
0000
,
0001
0000
0100
0000
0010
1000
0010
1000
,
0000
0100
0000
0010
0000
0100
1000
0000
,
0001
0100
0001
0200
0000
0000
0000
0000
,
0000
0000
0310
0100
,
0001
0010
1000
0010
,
0100
1000
0010
0100
,
1000
0000
0100
0000
0001
0010
0001
0000
,
1000
0010
1000
0000
1001
0000
0001
0010
,
0001
0010
0001
0000
0200
0000
1000
0000
,
0010
0000
0001
0000
0310
0000
1000
0100
,
1000
0100
1000
0000
0002
0000
0013
0000
,
0200
0000
0310
0000
0001
0000
1000
0100
,
1000
0100
0010
0000
0200
0000
1000
0000
,
0010
0000
0001
0000
0310
0000
1000
0001
,
1000
0001
0000
0020
0000
0000
0100
0000
,
0100
0000
0030
0000
0001
0000
0100
0010
,
0100
0001
0100
0000
0020
0000
1000
0000
,
0100
0000
1000
0000
0130
0000
1000
0100
,
1000
0100
1000
0000
0020
0000
0100
0000
,
0100
0000
0100
0000
0130
0000
0001
0010
,
0001
0010
0100
0000
0020
0000
1000
0000
,
0001
0000
0130
0000
0001
0010
0001
0000
,
1000
0010
1000
0000
2002
0000
0000
0000
,
0000
3003
1000
0100
,
0001
0100
1000
0010
,
0100
0001
0011
1000
,
1001
0010
0110
0001
,
0011
1001
0220
0000
,
0000
0330
0101
1010
,
0101
0110
1001
0011
,
1100
0000
0011
0000
0101
0010
1000
0000
,
0110
0000
0110
0000
1001
0100
0001
0000
,
0101
0101
1100
1100
,
1010
0101
1010
1001
,
0011
0101
1001
1100
,
0101
1100
1010
0101
,
1010
0110
0101
1010
,
1001
0011
0101
0011
,
1001
0000
0110
0000
0101
0010
1000
0000
,
1100
0000
1100
0000
0011
0001
0100
0000
,
0110
0000
0110
0000
1010
0010
0100
0000
,
0101
0001
1000
0000
1100
0100
0010
0000
,
0011
0001
0100
0000
0110
0000
0110
0000
,
1010
1010
0101
0101
,
1001
1001
0220
0000
,
0330
1001
1001
1001
0000
0000
0000
0000
,
0000
0000
0000
0000
,
0000
0000
0200
0000
,
0000
0000
0320
0000
,
0000
0000
2030
0000
,
0000
0000
3200
0000
,
0000
0000
0320
0000
,
0000
0000
0230
0000
,
0000
0000
2300
0000
,
0000
3000
1001
0011
,
0110
0000
1100
0000
1000
0010
1000
0000
,
0001
0000
0110
0000
0100
0001
0100
0000
,
0001
0010
0001
0000
1000
0100
1000
0000
,
0001
0000
0110
0000
1000
0010
1000
0000
,
0001
0010
0001
0000
1000
0001
0000
1001
,
0000
0110
0000
2001
0000
0000
0000
0000
,
0100
0000
3100
0000
0110
0000
0000
0011
,
0000
1100
0000
1002
0000
0000
0000
0000
,
0100
0000
0103
0000
0110
0000
0000
1001
,
0000
1010
0000
0012
0000
0000
0000
0000
,
1000
0000
1003
0000
1000
0010
0000
1000
,
0000
0001
0010
0000
0100
0000
0010
0000
,
0001
0100
0001
0000
1001
0000
0000
0000
,
0110
0000
2200
0000
,
0000
0000
0000
0000
,
0000
0000
3300
0000
;

//---------------dance-single - ----------------
#NOTES:
     dance-single:
     :
     Hard:
     9:
     0.624,0.605,0.324,0.173,0.061:
2000
3200
0320
1000
,
0001
0100
0001
0001
,
0130
0010
0001
0100
1000
0100
0010
0100
,
0001
0100
0010
0100
0002
0000
0010
0000
,
1003
0100
0010
0200
1000
0000
0001
0000
,
0010
0010
0001
0010
,
1300
0010
0100
1000
0100
0010
0100
0001
,
0100
0010
0100
0001
0011
0000
1100
0000
,
1000
0010
0100
0000
1000
0010
0100
1000
,
0100
0000
0001
0000
0010
0000
1000
0000
0011
0000
0000
0000
1100
0000
0000
1002
,
0000
0000
0000
1000
0000
1000
0000
1000
,
1000
1000
1000
0003
0001
0010
0001
0000
,
1000
0010
1000
0020
0000
0100
0000
1000
,
0000
0001
0000
0130
0110
0010
1000
0000
,
0100
0010
0100
0000
1000
0010
0100
0001
,
0000
0011
0000
1100
0000
0001
0010
0100
,
1000
0010
0100
0020
0000
0100
0100
0100
,
0100
0100
0200
0300
0030
0100
0001
0000
,
0010
0000
1000
0010
0001
0100
0010
1000
,
0000
1010
0000
0101
0000
0010
0100
0010
,
0001
0100
0010
2010
0000
0000
0000
0000
,
0010
0010
0010
3010
0100
0001
0010
0010
,
0100
0010
0001
0001
1000
0010
0100
0100
,
0010
1000
0100
0000
1000
0100
0001
0001
,
0100
1000
0010
0010
1000
0001
0010
0100
,
1000
0010
0110
0000
0001
0000
1000
0100
,
1000
0100
0001
0000
0001
0100
1000
0010
,
1000
0100
0010
0001
0010
0000
0001
0010
,
1000
0010
0001
0100
1000
0100
0001
0010
,
0001
0100
0001
0000
1000
0000
0001
0100
,
0001
0100
1000
0000
1000
0100
0001
0010
,
0001
0100
0010
1000
0001
0010
0100
1000
,
0100
0010
0001
0100
0010
0100
0001
0010
,
0001
0100
0001
0000
1000
0000
0001
0100
,
0001
0100
1000
0000
1000
0100
0001
0010
,
0001
0100
0010
1000
0010
0000
1000
0010
,
0001
0010
1000
0100
0001
0100
1000
0010
,
1000
0100
1000
0000
0001
0000
1000
0100
,
1000
0100
0001
0000
0001
0100
1000
0010
,
1000
0100
0010
0001
1000
0010
0100
0001
,
0100
0010
1000
0100
0000
1000
0100
0001
,
0010
0000
0001
0100
1001
0000
0000
0000
,
0110
0000
0101
0000
,
0110
0000
1010
1100
,
0011
0101
0011
0110
,
1001
0110
2002
0000
,
0000
0000
3003
0000
0001
0001
0100
0100
,
0010
0010
0100
0001
0010
0010
0100
0100
,
1000
1000
0010
1000
0100
0001
0100
1000
,
0001
0100
1000
0100
0001
0010
0100
0010
,
0001
1000
0010
0000
1000
1000
0100
0001
,
0100
0010
0001
0000
1000
1000
0001
0100
,
1000
0100
0001
0010
0100
0100
0010
0001
,
0100
0100
0010
1000
0100
0100
1000
0001
,
0100
0000
0100
0000
0010
0000
1000
0000
0010
0000
0000
0010
0100
0000
0000
0100
,
0001
0000
0010
0000
1000
0000
0010
0000
0001
0000
0000
0001
0100
0000
0000
0100
,
1000
0000
0100
0000
0010
0000
1000
0000
0100
0000
0000
0100
0010
0000
0001
0000
,
0100
0000
0000
0100
0010
0000
1000
0000
0100
0000
0001
0000
0100
0000
1000
0000
,
0010
0000
0100
0000
0001
0000
0000
0000
0010
0000
0000
0010
0001
0000
0100
0000
,
1000
0000
0000
1000
0100
0000
0010
0000
1000
0000
0100
0000
0010
0000
0001
0000
,
1000
0000
0100
0000
0010
0000
0001
0000
0100
0000
0000
0100
0010
0000
1000
0000
,
0100
0000
0000
0100
0001
0000
0100
0000
1000
0000
0010
1000
0010
0000
0100
0001
,
0100
0000
0010
0001
0010
0000
0100
0010
0200
0000
0010
0000
0010
0000
0010
0000
,
0310
0110
0110
0220
0000
0000
0000
0000
,
0000
0000
0000
0000
,
0000
0000
0330
0000
1000
0100
0001
0100
,
1000
0000
0010
0200
1000
0000
0001
0000
,
0010
0000
0301
0000
0010
0001
0010
0100
,
1000
0000
0010
2000
0100
0000
0010
0000
,
0100
0000
3001
0000
0100
0010
0100
0001
,
0010
0000
0100
0020
1000
0000
0001
0000
,
0100
0000
0031
0000
0100
0010
0100
0001
,
0010
0000
0100
1000
1100
0000
0011
0000
,
0101
0000
0110
0000
1000
0100
0010
0000
,
0010
0100
1000
0010
0200
0000
1000
0000
,
0310
0100
0001
0010
0100
0010
0001
0100
,
0010
0000
1000
0100
0020
0000
0000
0000
,
0000
0030
0000
0000
1100
0000
0001
1001
,
0000
0110
0000
0101
0000
0010
0100
0100
,
0010
0001
0100
0000
0101
0000
0001
1001
,
0000
1100
0000
0110
0000
0100
1000
1000
,
0010
0100
0010
0000
1010
0000
1000
1001
,
0000
0011
0000
0110
0000
0010
0001
0001
,
0100
1000
0100
0000
0001
0010
0010
0001
,
0100
0100
0001
1000
1000
0001
0010
0010
,
0001
0000
0010
0000
0100
0000
1000
0000
2002
0000
0000
0000
3003
0000
0100
0010
,
0200
0000
0000
0000
0300
0000
0001
0010
0200
0000
0000
0000
0000
0000
0000
0000
,
0000
0000
0000
0000
,
0000
0000
0300
0000
;
