#TITLE:Tenkaranbu;
#SUBTITLE:;
#ARTIST:Qrisjoynosuke;
#TITLETRANSLIT:;
#SUBTITLETRANSLIT:;
#ARTISTTRANSLIT:;
#CREDIT:Grithokskulk;
#BANNER:Tenkaranbu.png;
#BACKGROUND:Tenkaranbu-bg.png;
#LYRICSPATH:;
#CDTITLE:jubeat.png;
#MUSIC:Tenkaranbu.mp3;
#OFFSET:-6.925;
#SAMPLESTART:12.515;
#SAMPLELENGTH:15.000;
#SELECTABLE:YES;
#BPMS:0.000=368.000;
#STOPS:27.000=1.120
,88.000=0.480
,149.000=0.480
,210.000=0.520
,267.000=1.140
,328.000=0.500
,389.000=0.460
,450.000=0.480
,507.000=1.140
,564.000=0.780
;
#BGCHANGES:;

//---------------dance-single - ----------------
#NOTES:
     dance-single:
     :
     Easy:
     3:
     0.227,0.326,0.000,0.000,0.000: // measure 1
1000
0000
0000
0100
,  // measure 2
0000
0000
0000
0010
,  // measure 3
0000
0000
0000
0001
,  // measure 4
0000
0000
0000
1000
,  // measure 5
0000
0000
0000
0010
,  // measure 6
0000
0000
0000
0100
,  // measure 7
0000
0000
0000
0001
,  // measure 8
1000
0000
0000
0000
,  // measure 9
1000
0000
0000
0000
,  // measure 10
0100
0000
0000
0000
,  // measure 11
0010
0000
0000
0000
,  // measure 12
0001
0000
0000
0000
,  // measure 13
0010
0000
0000
0000
,  // measure 14
0001
0000
0001
0000
,  // measure 15
0001
0000
0000
0000
,  // measure 16
0100
0000
0000
0000
,  // measure 17
0010
0000
0000
0000
,  // measure 18
0100
0000
0000
0000
,  // measure 19
0010
0000
0000
0000
,  // measure 20
1000
0000
1000
0000
,  // measure 21
0001
0000
0001
0000
,  // measure 22
0010
0000
0000
0000
,  // measure 23
0100
0010
0000
0000
,  // measure 24
0000
0001
0000
0000
,  // measure 25
0000
0100
0000
0100
,  // measure 26
0000
0100
0000
0000
,  // measure 27
0000
0010
0000
0000
,  // measure 28
0000
0100
0000
0000
,  // measure 29
0000
0001
0000
0001
,  // measure 30
0000
0001
0000
0000
,  // measure 31
0000
1000
0000
0000
,  // measure 32
0000
0100
0000
0000
,  // measure 33
0000
1000
0000
1000
,  // measure 34
0000
1000
0000
0000
,  // measure 35
0000
0010
0000
0010
,  // measure 36
0000
0100
0000
0100
,  // measure 37
0000
0010
0000
0010
,  // measure 38
0000
0100
1000
0000
,  // measure 39
0000
0000
1000
0000
,  // measure 40
0000
0000
0001
0000
,  // measure 41
1000
0000
0001
0000
,  // measure 42
0000
0000
0010
0000
,  // measure 43
0000
0000
0010
0000
,  // measure 44
0000
0000
0001
0000
,  // measure 45
0010
0000
0100
0000
,  // measure 46
0000
0000
1000
0000
,  // measure 47
0000
0000
1000
0000
,  // measure 48
0000
0000
0010
0000
,  // measure 49
0100
0000
0000
0010
,  // measure 50
0000
0000
0100
0000
,  // measure 51
0100
0000
0001
0000
,  // measure 52
0001
0000
1000
0000
,  // measure 53
0100
0000
0010
0100
,  // measure 54
0000
0000
0000
0000
,  // measure 55
0000
0000
0000
1000
,  // measure 56
0000
0000
0000
0000
,  // measure 57
0000
0000
0000
0010
,  // measure 58
0000
0000
0000
0000
,  // measure 59
0000
0000
0000
0100
,  // measure 60
0000
0000
0000
0000
,  // measure 61
0000
0000
0000
0001
,  // measure 62
0000
0000
0000
1000
,  // measure 63
0000
0000
0000
0001
,  // measure 64
0000
0000
0000
1000
,  // measure 65
0000
0000
0000
0100
,  // measure 66
0000
0100
0000
0010
,  // measure 67
0000
0010
0000
0100
,  // measure 68
1000
0000
0000
0000
,  // measure 69
1000
0000
0000
0000
,  // measure 70
1000
0000
1000
0000
,  // measure 71
1000
0000
0000
0000
,  // measure 72
0001
0000
0000
0000
,  // measure 73
0001
0000
0000
0000
,  // measure 74
0001
0000
0001
0000
,  // measure 75
0001
0000
0000
0000
,  // measure 76
0100
0000
0000
0000
,  // measure 77
0100
0000
0000
0000
,  // measure 78
0010
0000
0000
0000
,  // measure 79
0010
0000
0000
0000
,  // measure 80
0100
0000
0000
0000
,  // measure 81
0010
0000
0000
0000
,  // measure 82
0100
0000
0100
0000
,  // measure 83
0100
0001
0000
0000
,  // measure 84
0000
0001
0000
0000
,  // measure 85
0000
1000
0000
1000
,  // measure 86
0000
1000
0000
0000
,  // measure 87
0000
0100
0000
0000
,  // measure 88
0000
0010
0000
0000
,  // measure 89
0000
0100
0000
0100
,  // measure 90
0000
0100
0000
0000
,  // measure 91
0000
1000
0000
0000
,  // measure 92
0000
0001
0000
0000
,  // measure 93
0000
1000
0000
0000
,  // measure 94
0000
0001
0000
0000
,  // measure 95
0000
0100
0000
0100
,  // measure 96
0000
0010
0000
0010
,  // measure 97
0000
0100
0000
0000
,  // measure 98
0000
0000
1000
0000
,  // measure 99
0000
0000
0100
0000
,  // measure 100
0000
0000
0010
0000
,  // measure 101
0010
0000
0010
0000
,  // measure 102
0000
0000
0100
0000
,  // measure 103
0000
0000
0010
0000
,  // measure 104
0000
0000
0001
0000
,  // measure 105
0001
0000
0001
0000
,  // measure 106
0000
0000
0010
0000
,  // measure 107
0000
0000
0001
0000
,  // measure 108
0000
0000
0010
0000
,  // measure 109
0000
0000
0100
0000
,  // measure 110
0000
0000
0010
0000
,  // measure 111
0000
0000
0001
0000
,  // measure 112
0000
0000
1000
0000
,  // measure 113
1000
0000
1000
0001
,  // measure 114
0000
0000
0000
0001
,  // measure 115
0000
0000
0000
0100
,  // measure 116
0000
0100
0000
0100
,  // measure 117
0000
0000
0000
0010
,  // measure 118
0000
0000
0000
0100
,  // measure 119
0000
0000
0000
0001
,  // measure 120
0000
0001
0000
0001
,  // measure 121
0000
0000
0000
1000
,  // measure 122
0000
0000
0000
0100
,  // measure 123
0000
0000
0000
1000
,  // measure 124
0000
0000
0000
0100
,  // measure 125
0000
0000
0000
1000
,  // measure 126
0000
0000
0000
0001
,  // measure 127
0000
0000
0000
1000
,  // measure 128
0000
1000
0000
0000
,  // measure 129
0000
0000
0000
0000
,  // measure 130
0001
0000
0000
0000
,  // measure 131
0000
0000
0000
0000
,  // measure 132
0100
0000
0000
0000
,  // measure 133
0000
0000
0000
0000
,  // measure 134
0010
0000
0000
0000
,  // measure 135
0000
0000
0000
0000
,  // measure 136
1000
0000
0000
0000
,  // measure 137
1000
0000
0000
0000
,  // measure 138
0001
0000
0000
0000
,  // measure 139
0001
0000
0000
0000
,  // measure 140
1000
0000
1000
0000
,  // measure 141
0100
0000
0100
0000
,  // measure 142
0010
0001
0000
0000
;

//---------------dance-single - ----------------
#NOTES:
     dance-single:
     :
     Medium:
     5:
     0.347,0.392,0.046,0.000,0.000:
0000
0001
0000
0100
,
0000
0010
0000
1000
,
0000
0100
0000
0010
,
0000
0001
0000
0100
,
0000
0001
0000
1000
,
0000
0100
0000
0010
,
0000
0001
0000
0100
,
1000
0000
1000
0000
,
1000
0000
0001
0000
,
1000
0000
0001
0000
,
1000
0000
0000
0000
,
0010
0000
0010
0000
,
0010
0000
0100
0000
,
0001
0000
0010
0000
,
0100
0000
0000
0000
,
1000
0000
1000
0000
,
1000
0000
0100
0000
,
1000
0000
0100
0000
,
1000
0000
0000
0000
,
0001
0000
0001
0000
,
0100
0000
0100
0000
,
0010
0000
0010
0000
,
0100
1000
0000
1000
,
0000
1000
0000
0000
,
0000
0001
0000
0010
,
0000
0100
0000
0010
,
0000
0001
0000
0001
,
0000
0001
0000
0000
,
0000
0100
0000
0010
,
0000
1000
0000
0000
,
0000
0100
0000
0100
,
0000
0100
0000
0000
,
0000
1000
0000
0100
,
0000
0010
0000
0000
,
0000
0100
0000
0100
,
0000
0010
0000
0010
,
0000
0100
0000
1000
,
0000
0001
0100
0000
,
0100
0000
0100
0000
,
0010
0000
0100
0000
,
0010
0000
0100
0000
,
0000
0000
0001
0000
,
0001
0000
0001
0000
,
1000
0000
0001
0000
,
0010
0000
0100
0000
,
0000
0000
1000
0000
,
1000
0000
1000
0000
,
0100
0000
1000
0000
,
0100
0000
1000
0000
,
0000
0000
0001
0000
,
0001
0000
1000
0000
,
1000
0000
0010
0000
,
1000
0000
0100
0010
,
0000
0000
0000
0100
,
0000
0000
0000
1000
,
0000
1000
0000
1000
,
0000
0000
0000
0001
,
0000
0000
0000
0100
,
0000
0000
0000
0010
,
0000
0010
0000
0010
,
0000
0000
0000
0100
,
0000
0100
0000
0001
,
0000
0001
0000
0010
,
0000
0010
0000
0001
,
0000
0001
0000
1000
,
0000
1000
0000
0010
,
0000
0010
0000
0100
,
0001
0000
0001
0000
,
1000
0000
1000
0000
,
0100
0000
0100
0000
,
0010
0000
0000
0000
,
0010
0000
0010
0000
,
0001
0000
0001
0000
,
0100
0000
0010
0000
,
1000
0000
0000
0000
,
0100
0000
1000
0000
,
0100
0000
1000
0000
,
0010
0000
1000
0000
,
0010
0000
1000
0000
,
0001
0000
0001
0000
,
1000
0000
1000
0000
,
0001
0000
1000
0000
,
1001
0100
0000
0100
,
0000
0010
0000
0010
,
0000
1000
0000
0100
,
0000
0010
0000
0100
,
0000
0010
0000
0010
,
0000
0001
0000
0001
,
0000
0100
0000
0010
,
0000
1000
0000
0001
,
0000
1000
0000
0100
,
0000
1000
0000
0100
,
0000
0010
0000
0001
,
0000
0010
0000
0001
,
0000
0100
0000
0100
,
0000
0001
0000
0001
,
0000
1000
0000
0001
,
0000
1001
0100
0000
,
0100
0000
0100
0000
,
0010
0000
1000
0000
,
0100
0000
0010
0000
,
0001
0000
0100
0000
,
0100
0000
0100
0000
,
0100
0000
0010
0000
,
1000
0000
0001
0000
,
0010
0000
0001
0000
,
0001
0000
1000
0000
,
1000
0000
0010
0000
,
0010
0000
0100
0000
,
0100
0000
0001
0000
,
1000
0000
0001
0000
,
1000
0000
0100
0000
,
0100
0000
0110
0100
,
0000
0100
0000
0010
,
0000
0010
0000
0001
,
0000
0010
0000
0100
,
0000
1000
0000
0010
,
0000
0010
0000
0100
,
0000
0100
0000
0001
,
0000
1000
0000
0100
,
0000
0010
0000
0100
,
0000
0100
0000
1000
,
0000
1000
0000
0010
,
0000
0010
0000
0100
,
0000
0100
0000
0001
,
0000
1000
0000
0001
,
0000
1000
0000
1001
,
0001
0000
0000
0000
,
0000
0000
0000
0000
,
1000
0000
0000
0000
,
0000
0000
0000
0000
,
0001
0000
0000
0000
,
0000
0000
0000
0000
,
1000
0000
0100
0000
,
0010
0000
0000
0000
,
0001
0000
0001
0000
,
0001
0000
1000
0000
,
0001
0000
1000
0000
,
0001
0000
0000
0000
,
1000
0000
1000
0000
,
0001
0000
0001
0000
,
0100
0110
0000
0000
;

//---------------dance-single - ----------------
#NOTES:
     dance-single:
     :
     Hard:
     8:
     0.631,0.653,0.342,0.000,0.065:
0000
1000
0000
0000
0000
0100
0000
0000
0000
1000
0000
0000
,
0000
0001
0000
0000
0000
0100
0000
0000
0000
0001
0000
0000
,
0000
1000
0000
0000
0000
0010
0000
0000
0000
1000
0000
0000
,
0000
0001
0000
0000
0000
0100
0000
0000
0000
0001
0000
0000
,
0000
1000
0000
0000
0000
0010
0000
0000
0000
0100
0000
0000
,
0000
0001
0000
0000
0000
1000
0000
0000
0000
0100
0000
0000
,
0000
0010
0000
0000
0000
0001
0000
0000
0000
1001
0000
0000
,
1000
0000
0001
0000
,
0100
0100
0010
0000
,
0100
0100
0010
0000
,
1000
0000
1001
0000
,
0001
0000
0010
0000
,
0100
0100
0010
0000
,
0001
0000
0010
0000
,
0100
0000
1000
0000
,
0100
0000
0010
0000
,
0001
0001
1000
0000
,
0001
0001
1000
0000
,
0010
0000
0110
0000
,
1000
0000
1000
0000
,
0010
0000
0010
0000
,
0100
0010
1000
0001
,
0010
0100
0010
0100
,
0010
0000
0100
0000
,
0100
1000
0000
1010
,
0000
0010
0000
0110
,
0000
0100
0001
0100
,
0001
0000
0010
0010
,
0000
0001
0000
0011
,
0000
0100
0000
1100
,
0000
1000
0010
1000
,
0010
0000
0100
0100
,
0000
0001
0000
1001
,
0000
1000
0000
1001
,
0000
0001
0010
0001
,
0010
1000
0010
1000
,
0010
0100
0001
1000
,
0000
1001
0100
0000
,
0110
0000
0010
0010
,
1000
0000
0100
0100
,
0010
0000
0001
1000
,
0010
0100
0001
0000
,
0011
0000
0001
0001
,
0100
0000
0011
0000
,
1100
0000
1010
0000
,
0101
0000
1000
0000
,
1100
0000
0001
0001
,
0010
0000
0001
0001
,
0100
0000
0010
0100
,
0001
1000
0000
0100
,
1100
0000
0010
0000
,
0011
0000
0001
0100
,
1000
0100
0001
0100
,
1000
0100
0000
1000
,
0100
1000
0000
0001
,
0100
1000
0100
0001
,
0000
1001
0000
1000
,
0010
1000
0000
0010
,
1000
0010
0000
1000
,
0100
0010
0001
0100
,
0000
0110
0000
0001
,
1000
0001
0000
1000
,
0001
1000
0000
0001
,
0010
0100
1000
0010
,
0100
0001
0000
1000
,
1000
1001
0000
0001
,
0001
1001
0000
0110
,
1000
0100
0010
0001
,
1000
0010
0100
0000
,
0001
0001
0001
0001
,
1000
1000
1000
1000
,
0100
1000
0010
0100
,
0001
1000
0100
0000
,
0010
0010
0010
0010
,
0100
0100
0100
0100
,
1000
0001
1000
0001
,
0100
0100
0100
0000
,
0010
0100
0010
0100
,
0001
0001
0001
0000
,
1000
1000
0100
0100
,
0010
0010
0001
0001
,
1000
0001
1000
0001
,
1001
1000
0100
1000
,
0000
0001
0100
0001
,
0000
1000
0010
0100
,
0001
0010
0100
0100
,
0100
0010
0001
0010
,
0000
1000
0100
1000
,
0000
1000
0010
0100
,
0001
0010
0100
0100
,
0100
0010
0010
0001
,
0000
1000
0000
0110
,
0010
0100
0001
0100
,
0000
0001
0000
1001
,
0000
1000
0100
1000
,
0100
0010
0001
0010
,
0001
1001
0000
1001
,
0000
1001
0100
0010
,
0100
0010
1000
0010
,
1000
0010
0100
0100
,
0100
0100
0010
0000
,
0110
0000
1000
0001
,
1000
0001
0010
0001
,
0010
0001
0100
0010
,
0010
0000
0110
0000
,
0100
0000
0010
0001
,
0010
0001
1000
0001
,
0001
0000
1000
0010
,
1000
0010
0100
0010
,
0010
0000
1000
1000
,
1000
0000
0001
0001
,
0001
0000
0000
0000
0010
0000
0100
0010
,
0100
0010
0110
0100
,
1000
0100
1000
0000
,
0010
0100
0100
0001
,
0010
0100
1000
0001
,
0010
0100
1000
0001
,
1000
0001
1000
0000
,
0001
0001
0000
0100
,
0001
1000
0010
0100
,
0000
0101
0000
1000
,
1000
0100
0000
0010
,
0000
0110
0000
0100
,
0100
1000
0000
0010
,
0000
0110
0000
0100
,
0100
0010
0010
0100
,
0100
0010
0010
0100
,
0001
0000
1000
0000
,
0001
0001
1000
0000
,
0001
0001
1000
0000
,
0100
0010
0010
0010
,
0001
0000
1000
0000
,
0010
0010
0100
0000
,
0010
0000
1000
0000
,
0100
0010
0000
0010
,
0100
1000
0100
1000
,
0001
0100
0001
0100
,
0010
0100
0010
0100
,
0001
1000
0001
1000
,
0001
0010
0100
1000
,
0001
0010
0100
1000
,
0001
0110
0000
0000
;
