#TITLE:TYCOON;
#SUBTITLE:;
#ARTIST:SOUND HOLIC feat. Nana Takahashi;
#TITLETRANSLIT:;
#SUBTITLETRANSLIT:;
#ARTISTTRANSLIT:;
#CREDIT:Grithokskulk;
#BANNER:TYCOON.png;
#BACKGROUND:TYCOON-bg.png;
#LYRICSPATH:;
#CDTITLE:SOUND VOLTEX.png;
#MUSIC:TYCOON.mp3;
#OFFSET:-7.220;
#SAMPLESTART:50.875;
#SAMPLELENGTH:15.000;
#SELECTABLE:YES;
#BPMS:0.000=170.000,200.000=85.000,214.000=170.000;
#STOPS:214.000=1.000
;
#BGCHANGES:;

//---------------dance-single - ----------------
#NOTES:
     dance-single:
     :
     Easy:
     3:
     0.255,0.277,0.038,0.028,0.000: // measure 1
2000
0000
0000
3000
,  // measure 2
0002
0000
0000
0003
,  // measure 3
0010
0000
0100
0000
,  // measure 4
0010
0000
0001
0001
,  // measure 5
1000
0001
1000
0000
,  // measure 6
0010
0010
0100
0000
,  // measure 7
0010
1000
0010
0000
,  // measure 8
0100
0100
0001
0000
,  // measure 9
0010
0100
0010
0000
,  // measure 10
0100
0100
1000
0000
,  // measure 11
0001
0000
1000
0000
,  // measure 12
1001
0000
0001
1000
,  // measure 13
0100
1000
0100
0000
,  // measure 14
0001
0010
0001
0000
,  // measure 15
0100
0010
0100
0000
,  // measure 16
0001
0000
1000
0000
,  // measure 17
0100
1000
0100
0000
,  // measure 18
1000
0010
1000
0000
,  // measure 19
0010
0100
0010
0000
,  // measure 20
0100
0000
0001
0001
,  // measure 21
0010
0001
0010
0001
,  // measure 22
1000
0010
1000
0000
,  // measure 23
0100
0010
0100
0010
,  // measure 24
0100
1000
0100
0000
,  // measure 25
1000
0010
1000
0000
,  // measure 26
0001
0010
0001
0000
,  // measure 27
0100
0010
0100
0000
,  // measure 28
0001
0001
1000
1000
,  // measure 29
0100
1000
0100
0000
,  // measure 30
0010
0001
0010
0000
,  // measure 31
0001
0000
0100
0000
,  // measure 32
0010
0000
0010
0010
,  // measure 33
0100
0000
0000
0010
,  // measure 34
0010
0000
0000
1000
,  // measure 35
0100
0100
0010
0010
,  // measure 36
0100
0100
1000
0000
,  // measure 37
0001
0000
0100
0000
,  // measure 38
0020
0000
0000
0030
,  // measure 39
0100
0000
0001
0000
,  // measure 40
1001
0000
0000
0000
,  // measure 41
1000
0000
0000
0100
,  // measure 42
0100
0000
0000
0010
,  // measure 43
0010
0100
1000
0100
,  // measure 44
0010
0010
0100
1000
,  // measure 45
0001
0100
0001
0000
,  // measure 46
1000
0100
1000
0000
,  // measure 47
0010
0000
0100
0000
,  // measure 48
1001
0000
0000
0000
,  // measure 49
0001
0001
0001
0000
,  // measure 50
1000
1000
1000
0000
,  // measure 51
0010
0000
0100
0000
,  // measure 52
0001
0000
0010
0010
,  // measure 53
0001
0000
0100
0000
,  // measure 54
0001
1000
0001
1000
,  // measure 55
0000
0000
0100
0100
,  // measure 56
0000
0000
1000
0100
,  // measure 57
0010
0100
1000
0010
,  // measure 58
0100
0001
0000
0100
,  // measure 59
0100
0010
0010
1000
,  // measure 60
0000
0001
0000
0010
,  // measure 61
0010
0001
0001
0100
,  // measure 62
0010
0100
0000
0001
,  // measure 63
0100
0010
0100
0001
,  // measure 64
0100
0010
0000
0010
,  // measure 65
1000
0100
1000
0010
,  // measure 66
0000
0110
0000
0000
;

//---------------dance-single - ----------------
#NOTES:
     dance-single:
     :
     Medium:
     6:
     0.414,0.430,0.066,0.179,0.000:
2000
0000
3002
0000
,
0203
0000
0320
0000
,
0230
0300
0002
0003
,
1000
0100
1000
0000
0010
0000
0110
0000
,
0100
0001
0100
0000
0010
0100
0000
0001
,
0000
1000
0000
0100
1000
0100
1000
0100
,
0000
0010
0100
0010
0100
0010
0100
0000
,
0100
1000
0010
0100
,
0001
0000
0010
0000
0001
0100
0000
0001
,
0000
0100
0000
0010
0100
0010
0100
0010
,
1000
0100
0010
0001
,
1000
0002
0000
0000
1000
0000
1003
0000
,
0100
0010
0100
0010
,
0001
1000
0010
0010
,
0010
0100
0001
0010
,
0100
1000
0100
0000
0010
0001
0010
0000
,
0001
0000
0100
0000
0010
0100
0010
0000
,
0100
0000
0001
0000
0010
0100
0010
0000
,
0100
0010
0001
0100
,
0020
0000
0100
0130
,
0100
0001
0000
0100
0001
0000
1000
0000
,
0100
1000
0000
0100
1000
0000
0010
0000
,
0100
0010
0000
0100
0010
0000
1000
0000
,
0001
1000
0001
0000
1001
0000
0000
0000
,
1000
0100
1000
0100
1000
0000
0100
0100
,
0000
0010
0010
0000
0001
0000
0010
0000
,
0001
0100
0001
0100
0001
0000
0100
0100
,
0000
0010
0010
0000
0100
0000
0001
0000
,
1000
0100
1000
0100
1000
0000
0010
0000
,
0100
0010
0100
0010
0100
0000
0001
0000
,
0020
0000
0000
0030
,
0001
0000
0100
0100
0000
0010
0000
2000
,
0000
0000
0000
3000
0000
0000
0100
0200
,
0000
0000
0000
0300
0000
0000
0010
0010
,
0000
0100
0100
0000
1000
0000
0010
0000
,
0100
0001
0100
0000
0010
0000
1000
0000
,
0001
0000
0010
0000
0001
0100
0000
0020
,
0000
0000
0030
0000
,
0100
0000
0001
1000
0000
0100
0000
0020
,
0000
0000
0030
0000
,
0200
0000
0000
0000
0300
0000
0010
0020
,
0000
0000
0000
0000
0030
0000
0100
0100
,
0000
1000
1000
0000
0010
0010
0000
0100
,
0000
0010
0010
0000
0100
0100
0000
0000
,
0001
0000
0010
0000
0100
0100
0000
0020
,
0000
0000
0030
0000
,
0100
1000
0001
0100
,
0110
0000
1000
0001
,
1001
0000
0100
0000
0010
0100
0010
0000
,
1000
0100
1000
0100
1000
0000
1001
0000
,
0100
0000
0010
0000
0100
0001
0010
0000
,
0001
0100
0010
1000
1000
0010
0100
0001
,
0010
0100
0010
0001
,
0100
0010
1000
0100
0110
0000
0200
0000
,
0000
0310
0000
0100
,
1000
0000
0010
0000
0100
0010
0000
0010
,
0100
0000
0010
1000
0000
0001
0000
0010
,
0001
0000
0010
0001
0000
0000
0001
0000
,
0100
0000
0010
0100
0010
0000
0200
0000
,
0001
0000
0010
0000
0301
0000
0010
0001
,
0010
0000
0100
1000
0100
0000
2000
0000
,
0000
0000
0001
0000
3001
0000
0001
1000
,
0001
0000
0100
0010
0100
0000
0001
0100
,
0001
0000
1000
0100
1000
0000
0010
0000
,
0100
0000
0001
1000
0001
0000
1000
0000
,
0000
1001
0000
0000
0000
0000
0000
0000
;

//---------------dance-single - ----------------
#NOTES:
     dance-single:
     :
     Hard:
     8:
     0.565,0.522,0.321,0.358,0.090:
2000
0000
0200
3000
,
0020
0300
0200
0330
,
0022
0033
2200
3300
,
0001
0000
0000
0100
0000
0000
0010
0000
0000
0000
0010
0000
1000
0000
0100
0000
,
1000
0100
0010
0100
1000
0010
0000
0010
,
0100
0010
0010
1000
0100
0001
0100
0010
,
0001
0100
0001
0100
0010
0100
0100
0000
,
1010
0000
0101
0000
0010
0100
1000
0010
,
0120
0000
1030
0000
0100
1000
0100
0010
,
0000
0010
0100
1000
0010
0010
0100
0001
,
0010
0000
0000
0011
0000
0000
0001
0000
0000
1001
0000
0000
0010
0000
0100
0000
,
0000
0020
0000
0000
0000
0000
0000
0000
0000
0000
1000
0000
0000
0000
0130
0000
,
0001
0010
0100
0010
,
0001
0100
0110
0010
,
1000
0100
0001
0100
,
1000
0010
0100
0010
1000
0000
1001
0000
,
0001
0010
0100
0020
0000
0000
0031
0000
,
1000
0010
0100
0020
0000
0000
1030
0000
,
0100
1000
0010
0100
,
1002
0000
0100
0000
0103
0001
0000
0010
,
0100
0000
1000
0000
0000
0010
0000
0000
0100
0000
0000
0010
0000
0000
1000
0000
,
0001
0000
0010
0000
0000
0100
0000
0000
0010
0000
0000
0001
0000
0000
0100
0000
,
0010
0000
0100
0000
0000
0001
0000
0000
1000
0000
0000
0100
0000
0000
0010
0000
,
0200
0000
0000
0000
0300
0000
0000
0000
0010
0000
0000
0100
0000
0000
0110
0000
,
0001
0001
0001
1001
0000
1000
1000
1001
,
0000
0100
0010
0000
1000
0100
0010
0100
,
2000
0000
3010
0000
0001
0100
0010
0100
,
0002
0000
0013
0100
0010
0000
0110
0000
,
1000
0000
0100
0000
1000
0010
0100
0010
,
1000
0000
0001
0000
0010
0011
0000
2002
,
0000
0000
3003
1000
,
1001
0000
0000
0000
0000
0000
0000
1001
,
0000
0001
0100
0000
0010
0100
0001
0011
,
0000
0001
0010
0000
0010
0100
0010
0001
,
0200
0000
1000
0000
0310
0100
0001
0010
,
0200
0000
0001
0000
1300
0010
0100
0010
,
2000
3010
0002
0013
,
0200
0000
0300
0010
0100
0001
1001
0000
,
1000
0000
0100
1000
0000
0010
0100
0110
,
0000
1000
0100
0010
0100
0000
1100
0000
,
0012
0000
0100
0000
0013
0000
0100
0020
,
1000
0000
0001
0000
0130
0000
0010
1000
,
0100
0000
0100
0010
0100
0100
0010
0001
,
0200
0000
1300
0000
0010
0100
0001
0000
,
0012
1000
0100
0103
,
0020
1000
0001
0130
,
0001
0010
0100
0000
0100
0010
0001
0000
,
1000
0000
0100
0010
0000
0010
0100
1000
,
0010
0100
0010
0000
1000
0001
1000
0000
,
0001
0000
0010
0000
0100
0000
1000
0001
1000
0000
0000
0000
1001
0000
0000
0000
,
2000
0000
0000
0000
0000
0000
0010
3020
0000
0000
0000
0000
0000
0000
0130
0200
,
0000
0000
0000
0000
0010
0010
0310
0110
,
2000
0000
0001
0100
3002
0000
1003
0100
,
2002
0000
3003
1100
,
0000
0000
0000
0000
1001
0000
0000
0110
0000
0000
1001
0000
0000
0000
0100
0000
,
1000
0000
0010
0100
0100
0001
0020
0000
,
1000
0000
0031
0100
1000
0100
0020
0000
,
1000
0000
0130
0010
0010
1000
0100
0000
,
0010
0100
1000
0010
0100
0000
0001
0000
,
0010
0100
0010
0001
0100
0000
0010
0010
,
0100
0000
0001
0001
1000
0000
0100
1000
,
0010
0100
0001
0000
1001
0000
0210
0000
,
1000
0000
0310
0100
1000
0010
0000
0010
,
0100
0000
0010
0000
1000
0001
1000
0001
1000
0000
0000
0000
0100
0000
1000
0000
,
0100
0010
0100
0010
0100
0000
1000
0000
1000
0000
0000
0000
0001
0000
1000
0000
,
1000
1001
0000
0000
0000
0000
0000
0000
;
