#TITLE:TORIKAGONO HOUOH;
#SUBTITLE:;
#ARTIST:L.E.D. Vs. Yuuhei Satellite;
#TITLETRANSLIT:;
#SUBTITLETRANSLIT:;
#ARTISTTRANSLIT:;
#CREDIT:Grithokskulk;
#BANNER:TORIKAGONO HOUOH.png;
#BACKGROUND:TORIKAGONO HOUOH-bg.png;
#LYRICSPATH:;
#CDTITLE:beatmania IIDX.png;
#MUSIC:TORIKAGO NO HOUOH.mp3;
#OFFSET:-5.350;
#SAMPLESTART:52.015;
#SAMPLELENGTH:15.000;
#SELECTABLE:YES;
#BPMS:0.000=185.000;
#STOPS:;
#BGCHANGES:;

//---------------dance-single - ----------------
#NOTES:
     dance-single:
     :
     Easy:
     3:
     0.254,0.285,0.022,0.379,0.000: // measure 1
2000
0000
0000
0000
,  // measure 2
0000
0000
0000
3000
,  // measure 3
0002
0000
0000
0000
,  // measure 4
0000
0000
0000
0003
,  // measure 5
0200
0000
0000
0300
,  // measure 6
0020
0030
0200
0300
,  // measure 7
0002
0000
0000
0000
,  // measure 8
0000
0000
0003
0010
,  // measure 9
0200
0000
0000
0300
,  // measure 10
0020
0030
0100
0010
,  // measure 11
0002
0000
0000
0003
,  // measure 12
2000
0000
0000
3000
,  // measure 13
0000
0010
0010
0000
,  // measure 14
1000
1000
0000
0001
,  // measure 15
0001
0000
0010
0000
,  // measure 16
0100
0010
0100
0000
,  // measure 17
0000
1000
1000
1000
,  // measure 18
0001
0001
0001
0000
,  // measure 19
0100
0000
0010
0000
,  // measure 20
2002
0000
3003
0000
,  // measure 21
2000
0000
0000
0000
,  // measure 22
3000
0001
0010
0000
,  // measure 23
0001
0010
0100
0010
,  // measure 24
0001
0001
0200
0000
,  // measure 25
0300
0010
0010
0000
,  // measure 26
0200
0300
0100
0010
,  // measure 27
0200
0000
0300
0001
,  // measure 28
0002
0000
0003
0010
,  // measure 29
0200
0000
0000
0300
,  // measure 30
0020
0030
0002
0003
,  // measure 31
0200
0000
0000
0000
,  // measure 32
0000
0300
0010
0100
,  // measure 33
0002
0000
0000
0000
,  // measure 34
0003
0010
0010
0000
,  // measure 35
0100
2000
0000
0000
,  // measure 36
3000
0100
0100
0000
,  // measure 37
1000
0001
0200
0000
,  // measure 38
0300
0010
0010
0000
,  // measure 39
1000
0001
0010
0100
,  // measure 40
0020
0000
0000
0000
,  // measure 41
0030
0001
0001
0000
,  // measure 42
0100
0010
0100
0000
,  // measure 43
0002
0000
0003
1000
,  // measure 44
2000
0000
0000
3000
,  // measure 45
0100
1000
0020
0000
,  // measure 46
0030
0100
0100
0000
,  // measure 47
0010
1000
0100
0010
,  // measure 48
0001
0100
0020
0000
,  // measure 49
0030
0100
0100
0000
,  // measure 50
0001
1000
0001
0000
,  // measure 51
2000
0000
0000
3000
,  // measure 52
0002
0000
0000
0003
,  // measure 53
0220
0000
0000
0000
,  // measure 54
0000
0000
0000
0330
,  // measure 55
1000
0000
0001
0000
,  // measure 56
0100
0001
0100
0000
,  // measure 57
0010
0000
0100
0000
,  // measure 58
0001
1000
0001
0000
,  // measure 59
1000
0000
0100
0000
,  // measure 60
1000
1000
0010
0010
,  // measure 61
0200
0000
0000
0300
,  // measure 62
0002
0003
0020
0030
,  // measure 63
0200
0000
0000
0000
,  // measure 64
0000
0000
0000
0300
,  // measure 65
0020
0000
0000
0030
,  // measure 66
0002
0003
0100
0010
,  // measure 67
0200
0000
0000
0000
,  // measure 68
0300
0010
0010
0000
,  // measure 69
1000
0001
0020
0000
,  // measure 70
0030
0001
0001
0001
,  // measure 71
0010
0100
1000
0010
,  // measure 72
0200
0000
0000
0000
,  // measure 73
0300
0010
0010
0000
,  // measure 74
1000
0001
1000
0000
,  // measure 75
0002
0000
0003
1000
,  // measure 76
2000
0000
0000
3000
,  // measure 77
0100
1000
0020
0000
,  // measure 78
0030
0100
0100
0000
,  // measure 79
0001
0010
0100
1000
,  // measure 80
0010
0100
0020
0000
,  // measure 81
0030
0100
0010
0000
,  // measure 82
1000
0001
0010
0000
,  // measure 83
0200
0000
0300
0010
,  // measure 84
0020
0000
0030
0001
,  // measure 85
2002
0000
0000
0000
,  // measure 86
0000
0000
0000
0000
,  // measure 87
0000
0000
0000
3003
,  // measure 88
1000
0000
0001
0000
,  // measure 89
0100
0010
0100
0000
,  // measure 90
0001
0010
0001
0000
,  // measure 91
1000
0000
0010
0000
,  // measure 92
0100
0010
1000
0100
,  // measure 93
0020
0000
0000
0000
,  // measure 94
0000
0000
0000
0000
,  // measure 95
0000
0000
0000
0000
,  // measure 96
0000
0000
0000
0000
,  // measure 97
0030
0000
0000
0000
;

//---------------dance-single - ----------------
#NOTES:
     dance-single:
     :
     Medium:
     6:
     0.452,0.571,0.007,0.818,0.000:
2000
0000
3020
0000
,
0230
0000
0302
0000
,
0023
0000
0230
0000
,
0320
0000
0000
0000
0032
0000
0103
0001
,
2000
0000
0000
0000
,
3200
0000
0320
0000
,
0230
0000
0000
0000
,
0000
0000
0000
0000
0000
0000
0310
0001
,
0200
0000
0000
0000
,
0302
0000
2003
3200
,
0320
0000
0000
0000
,
0200
0000
0000
0000
,
0330
0000
0001
0010
0001
0000
0100
0000
,
0010
0000
0100
0001
0100
0000
0001
0000
,
1000
0100
1000
0000
0001
0100
0001
0000
,
1000
0010
0100
0002
0000
0000
1000
0000
,
1003
0002
0023
0230
,
0320
0032
0203
0320
,
0230
0000
0010
0310
,
1000
0002
0000
0000
0000
0000
1000
0000
,
2003
0100
3200
0010
,
0320
0100
0230
1000
,
2300
0010
0001
0010
,
3200
0001
0010
1000
,
0320
0001
0032
0100
,
0203
0010
0320
0100
,
0230
0000
0000
0000
0000
0000
0301
0100
,
0002
0000
0000
0000
0000
0000
1003
0100
,
0020
0000
0000
0000
,
0230
0000
2300
0000
,
3020
0000
0000
0000
,
0000
0000
0230
2300
,
3200
0000
0000
0000
,
0000
0302
0023
0230
,
0320
0000
0000
0000
,
0030
0000
0001
0010
0100
1000
0100
0000
,
0110
0000
1000
0001
2000
0000
0000
0000
,
0000
0010
0100
3010
,
0100
0000
0001
0010
0000
0010
0001
0000
,
0100
0020
0000
0000
0000
0000
0100
0000
,
0130
0002
0023
0230
,
2300
0000
3020
0000
0230
0000
0310
1000
,
0002
0000
0010
0000
0103
0000
1000
0100
,
2000
0010
0100
3001
,
0010
0100
1000
0010
0200
0000
0000
0000
,
0000
0010
0010
0310
,
0100
0001
0010
0000
0100
1000
0010
0000
,
1000
0000
0001
0020
0000
0000
0100
0000
,
0130
0020
0032
0203
,
0320
0000
2030
0000
3200
0000
0310
0100
,
2000
0000
0000
0000
0000
0000
3010
0100
,
0002
0000
0000
0000
0000
0000
1003
0010
,
0200
1000
0010
0001
,
0010
0010
0001
0001
,
0320
0001
1000
0100
,
1000
1000
0100
0100
,
2030
0100
0001
0010
,
0100
0100
0010
0010
,
3002
0010
0100
0010
,
1000
0000
1000
0000
0103
0000
0010
1000
,
0200
0000
0000
0000
,
0320
0000
0230
0000
,
2300
0000
0000
0000
,
0000
0000
0000
3020
,
0230
0000
0000
0000
,
0302
0000
0023
0230
,
0320
0000
0000
0000
,
0030
0001
0010
0100
1000
0010
0100
0001
,
1000
0000
0010
0100
0020
0000
0000
0000
,
0000
1000
0001
1030
,
0100
0000
0010
0100
0000
0100
1000
0000
,
0010
0200
0000
0000
0000
0000
0010
0000
,
0310
0200
0302
0023
,
0230
0000
0320
0000
0032
0000
0103
0010
,
2000
0000
0000
0000
0000
0000
3100
0010
,
0200
0000
0000
0300
,
0010
0001
0100
0010
2000
0000
0000
0000
,
0000
0000
3100
1000
0200
0000
0320
0000
,
0130
1000
0100
0000
0010
0001
0010
0000
,
0001
0000
0100
0020
0000
0000
0100
0000
,
0130
0002
0023
0230
,
0320
0032
0203
2300
,
3200
0000
0000
0000
0000
0000
0310
0100
,
0020
0000
0000
0000
0000
0000
1030
0001
,
0020
0000
0000
0000
,
0000
0000
0000
0030
,
0100
1000
0100
0000
0010
0001
0010
0000
,
0001
0100
0001
0000
1000
0010
1000
0000
,
0010
0000
0100
0010
1000
0000
0100
0000
,
0010
0000
0100
1000
0001
0000
1000
0000
,
0001
0100
0001
0000
1000
0100
1000
0000
,
0001
0010
0100
0000
1000
0010
0100
0000
,
0020
0000
0000
0000
,
0000
0000
0000
0000
,
0000
0000
0000
0000
,
0000
0000
0000
0000
,
0030
0000
0000
0000
;

//---------------dance-single - ----------------
#NOTES:
     dance-single:
     :
     Hard:
     9:
     0.819,0.821,0.097,0.781,0.175:
0100
1000
0100
0010
0100
0001
0010
0011
,
0000
1000
0100
0000
0001
0100
1000
0010
,
1000
0010
0001
0010
0100
0001
0010
1000
,
0010
0001
0100
0010
0100
0001
0010
0100
,
2000
0000
0010
0010
0010
0000
3010
0010
,
0200
0000
1300
0100
0002
0000
0013
1000
,
0020
0000
0001
0001
0001
0000
0100
0100
,
0130
0000
0001
0010
0100
0010
0001
0100
,
0020
0000
0001
0001
0001
0000
0100
0100
,
0230
0000
0301
0010
0200
0000
0320
0000
,
0032
0000
0100
0100
0100
0000
0010
0010
,
0023
0100
0100
0000
0031
0010
0100
1000
,
0020
0100
0130
0000
1000
0100
0001
0010
,
0000
0010
0100
0010
0000
0001
0100
0010
,
1000
0000
0100
0001
0000
0001
0100
0000
,
1000
0010
0100
0010
1000
0000
0100
1000
,
0100
1100
0011
0101
,
0110
0000
1010
0000
1001
0000
1000
0100
,
0010
0000
0010
0100
0000
1000
0010
0100
,
0001
1000
0002
0000
0000
0000
0000
0000
1000
0000
1003
0000
1001
0000
0000
0000
,
1000
0100
0010
0100
1000
0010
0100
0010
,
1000
0001
0010
1000
0010
0001
0100
0000
,
0100
0001
0010
0100
0010
0001
0100
0010
,
0100
0010
1000
0100
1000
0010
0100
0010
,
1000
1100
0110
0011
,
0102
0000
0010
0010
0013
0000
0100
0010
,
0002
0000
0100
0100
0103
0000
0010
1000
,
0100
0010
0200
0000
0000
0000
0010
0000
0310
0000
0200
0000
2300
0000
3020
0000
,
0230
0000
1000
1000
1000
0000
0001
0001
,
0302
0000
0010
0010
0023
0000
0100
0100
,
0230
0000
0001
0001
0001
0000
1000
1000
,
1000
0000
0010
0010
0320
0000
0032
0000
,
0203
0000
0010
0010
0010
0000
1000
1000
,
1000
0000
0310
0100
0001
0010
0100
0010
,
0001
0100
1000
0100
0001
0010
1000
0010
,
0200
0010
0320
0001
0032
0023
0230
2300
,
3020
0000
0230
0302
0203
0000
1000
1000
,
1300
0000
0100
0001
0100
0010
0100
1000
,
0100
0001
0010
0100
0010
0001
0010
1000
,
0010
0001
0010
0000
0002
0000
0000
0000
1003
0010
1000
0000
0020
0000
0000
0000
,
0130
1000
0100
0010
0100
0001
0100
1000
,
0100
0010
0100
0010
1000
0001
1000
0001
,
0020
0000
0100
0100
0130
0000
0010
0001
,
0200
0000
0010
0010
0310
0000
0100
0001
,
0020
0032
0203
0320
2030
0000
0100
0100
,
3100
0000
0010
0100
1000
0001
0010
0100
,
0010
0001
0100
1000
0001
0100
1000
0100
,
0001
0010
1000
0001
0100
1000
0100
0010
,
0001
0000
0001
0010
0100
0010
0100
1000
,
0010
1000
0100
1000
0010
0100
0001
0010
,
0001
0100
0001
0100
0001
0100
0001
0100
,
0010
0000
0100
0000
0010
0000
0100
0000
0010
0000
0100
0000
0001
0010
0100
1000
,
0010
0000
0000
0010
0000
0000
0020
0000
0100
0000
0000
0100
0000
0000
0230
0000
,
0001
0000
0000
0001
0000
0000
0302
0000
0010
0000
0000
0010
0000
0000
0023
0000
,
0100
0000
0000
0100
0000
0000
0230
0000
0010
0000
0000
0010
0000
0000
0310
0000
,
0001
0000
0000
0010
0000
0000
1000
0000
0010
0000
0000
0001
0000
0000
0200
0000
,
0010
0000
0000
0010
0000
0000
0320
0000
0001
0000
0000
0001
0000
0000
0032
0000
,
0010
0000
0000
0010
0000
0000
0023
0000
1000
0000
0000
1000
0000
0000
2030
0000
,
0001
0000
0000
0001
0000
0000
3002
0000
0010
0000
0000
0010
0000
0000
0023
0000
,
0100
0000
0000
0100
0000
0000
0100
0000
0031
0000
0000
0000
0200
0000
0320
0000
,
0032
0000
0100
0010
0100
0000
1000
0010
,
2003
0000
0010
0001
3020
0000
0100
1000
,
0230
0000
0001
0010
0001
0000
1000
0010
,
1000
0000
0001
0010
0301
0020
0230
0320
,
0032
0100
0100
0100
0100
0010
0010
0010
,
0023
0100
0100
0100
0230
0010
0320
0001
,
0032
0100
0010
0000
0100
0010
0000
0100
,
0013
0200
2300
3020
0230
0302
0023
0230
,
2300
0000
3020
0230
0302
0000
0010
0100
,
0013
0000
0100
1000
0100
0001
0100
0010
,
1000
0100
0100
0010
0100
0100
0001
0000
,
1000
0100
1000
0000
0020
0000
0000
0000
0130
0001
0100
0000
0020
0000
0000
0000
,
1030
0100
0001
0100
0010
0001
0100
1000
,
0100
0010
0100
0010
0100
1000
0100
1000
,
0100
0001
0020
0000
0001
0100
0032
0000
,
1000
0010
2003
0010
3010
0000
0110
0000
,
0002
0203
2300
3200
0320
0000
1000
0100
,
1000
0000
0130
0001
0010
1000
0010
0001
,
1000
0010
0001
1000
0100
0001
0010
0100
,
0001
0100
1000
0001
0010
1000
0010
0001
,
0100
0000
0010
1000
0010
0001
0010
0100
,
0010
1000
0010
1000
0100
1000
0100
1000
,
0100
0001
0100
1000
0001
0010
1000
0010
,
0001
0000
0100
0010
0100
0000
0001
1000
0001
0000
0010
0100
0010
0001
0010
0100
,
1000
0000
0000
1000
0000
0000
2000
0000
0010
0000
0000
0100
0000
0000
3020
0000
,
0001
0000
0000
1000
0000
0000
0230
0000
1000
0000
0000
0001
0000
0000
0320
0000
,
1000
0000
0000
0100
0000
0000
2030
0000
0100
0000
0000
0001
0000
0000
3200
0000
,
0010
0000
0000
1000
0000
0000
0320
0000
0001
0000
0000
0100
0000
0000
0032
0000
,
0100
0000
0000
0010
0000
0000
0203
0000
1000
0000
0000
0001
0000
0000
0320
0000
,
1000
0000
0000
0001
0000
0000
0230
0000
1000
0000
0000
0010
0000
0000
0302
0000
,
0010
0000
0000
0100
0000
0000
2003
0000
0100
0000
0000
0010
0000
0000
3100
0000
,
0010
0000
0001
0010
0001
0000
1000
0000
0010
0100
0010
1000
0100
0010
0001
0010
,
0200
0010
0010
0000
1000
1000
0000
0001
,
0000
0010
0010
0000
0001
0001
0000
1000
,
0000
0010
0010
0000
1000
1000
0000
0010
,
0000
0001
0001
0000
1000
1000
0000
0010
,
0300
0000
0000
0000
;
