#TITLE:THE DOOR INTO RAINBOW;
#SUBTITLE:;
#ARTIST:L.E.D.;
#TITLETRANSLIT:;
#SUBTITLETRANSLIT:;
#ARTISTTRANSLIT:;
#CREDIT:Grithokskulk;
#BANNER:THE DOOR INTO RAINBOW.png;
#BACKGROUND:THE DOOR INTO RAINBOW-bg.png;
#LYRICSPATH:;
#CDTITLE:beatmania IIDX.png;
#MUSIC:THE DOOR INTO RAINBOW.mp3;
#OFFSET:-1.955;
#SAMPLESTART:51.495;
#SAMPLELENGTH:15.000;
#SELECTABLE:YES;
#BPMS:0.000=155.000,64.000=77.500,96.000=155.000;
#STOPS:;
#BGCHANGES:;

//---------------dance-single - ----------------
#NOTES:
     dance-single:
     :
     Easy:
     2:
     0.151,0.189,0.080,0.056,0.000: // measure 1
0010
0000
0000
0000
,  // measure 2
1000
0000
0000
0000
,  // measure 3
0001
0000
0010
0000
,  // measure 4
0110
0000
0000
0000
,  // measure 5
0001
0000
0000
0000
,  // measure 6
1000
0000
0000
0000
,  // measure 7
0010
0000
0100
0000
,  // measure 8
0001
0000
0000
1000
,  // measure 9
1000
0000
0100
0000
,  // measure 10
0010
0000
0000
0000
,  // measure 11
0001
0000
1000
0000
,  // measure 12
0010
0000
0000
0000
,  // measure 13
0100
0000
0100
0000
,  // measure 14
0010
0000
0010
0000
,  // measure 15
1000
0000
0001
0000
,  // measure 16
1001
0000
0000
0010
,  // measure 17
0020
0000
0030
0000
,  // measure 18
0200
0000
0300
0000
,  // measure 19
2000
3000
0000
0000
,  // measure 20
0002
0000
0003
0000
,  // measure 21
0200
0000
0300
0000
,  // measure 22
0020
0000
0030
0000
,  // measure 23
0100
0000
0001
0000
,  // measure 24
0010
0010
0100
0000
,  // measure 25
0000
1000
0000
0001
,  // measure 26
0001
0000
0100
0100
,  // measure 27
0000
0010
0000
0100
,  // measure 28
0100
0000
0001
0001
,  // measure 29
0000
1000
0000
0100
,  // measure 30
0100
0000
1000
1000
,  // measure 31
0000
0010
0000
0100
,  // measure 32
0100
0000
0001
0000
,  // measure 33
1000
0000
0000
0000
,  // measure 34
0000
0000
0010
0000
,  // measure 35
1000
1000
0000
0000
,  // measure 36
0000
0000
0001
0000
,  // measure 37
0010
0010
0010
0000
,  // measure 38
0000
0000
0100
0000
,  // measure 39
1000
0001
0000
0000
,  // measure 40
0100
0000
0110
0000
,  // measure 41
1000
0000
0001
0000
,  // measure 42
0010
0000
0001
0000
,  // measure 43
0100
0000
0010
0000
,  // measure 44
0100
0000
0001
0000
,  // measure 45
1001
0000
0000
0000
,  // measure 46
0110
0000
0000
0000
,  // measure 47
1000
0000
0001
0000
,  // measure 48
1001
0000
0000
0100
,  // measure 49
0100
0000
0000
0001
,  // measure 50
0001
0000
0000
0010
,  // measure 51
0010
0000
0000
0100
,  // measure 52
0100
0000
0000
0010
,  // measure 53
0010
0000
1001
0000
,  // measure 54
0100
0000
1001
0000
,  // measure 55
0100
0000
0100
0000
,  // measure 56
0010
0010
0010
0000
,  // measure 57
0001
0000
0000
1000
,  // measure 58
1000
0000
0000
0010
,  // measure 59
0010
0000
0000
0100
,  // measure 60
0100
0000
0000
0010
,  // measure 61
0010
0000
1001
0000
,  // measure 62
0100
0000
1001
0000
,  // measure 63
0010
0000
0010
0000
,  // measure 64
0010
0000
0010
0000
,  // measure 65
0200
0000
0000
0000
,  // measure 66
0000
0000
0000
0000
,  // measure 67
0000
0000
0000
0000
,  // measure 68
0000
0000
0000
0000
,  // measure 69
0300
0000
0000
0000
;

//---------------dance-single - ----------------
#NOTES:
     dance-single:
     :
     Medium:
     6:
     0.393,0.405,0.143,0.127,0.068:
1000
0010
0100
0001
,
1000
0010
0100
0001
,
1000
0010
0100
0001
,
0010
0100
0000
0000
0010
0100
0000
0010
,
0100
1000
0001
0010
,
0100
1000
0001
0010
,
0100
0010
0100
0000
0010
0100
0010
0000
,
1000
0001
0000
0000
1000
0001
0000
1000
,
0001
0010
0100
1000
,
0010
0100
0010
0000
1000
0001
1000
0000
,
0001
0010
0100
1000
,
0010
0100
0010
0000
1000
0001
1000
0000
,
0001
0010
0100
1000
,
0010
0100
0010
0000
1000
0001
1000
0000
,
0001
0001
0001
0000
1000
1000
1000
0000
,
1010
0101
0011
1100
,
0000
0000
0001
0000
0000
0100
0000
0000
0010
0000
0000
0100
0000
0000
0001
0000
,
0000
0000
1000
0000
0000
0100
0000
0000
0010
0000
0000
0100
0000
0000
1000
0000
,
0000
0000
0010
0000
0000
0100
0000
0000
0010
0000
0000
1000
0000
0000
0001
0000
,
0000
0000
0010
0000
0000
0010
0000
0000
0100
0000
0000
0100
0000
0000
1000
0000
,
0000
0000
0001
0000
0000
0100
0000
0000
0010
0000
0000
0100
0000
0000
0001
0000
,
0000
0000
0010
0000
0000
0100
0000
0000
0010
0000
0000
0001
0000
0000
1000
0000
,
0000
0000
0010
0000
0000
1000
0000
0000
0010
0000
0000
0010
0000
0000
0100
0000
,
0000
0000
0001
0000
0000
0001
0000
0000
0010
0000
0000
0010
0000
0000
0100
0000
,
0000
0000
0010
0000
0000
0001
0000
0000
,
0010
0000
0000
0100
0000
0000
1000
0000
,
0000
0000
1000
0000
0000
0010
0000
0000
,
0100
0000
0000
0010
0000
0000
1000
0000
,
0000
0000
0001
0000
0000
0010
0000
0000
,
0100
0000
0000
0100
0000
0000
0010
0000
,
0000
0000
0000
0000
0001
0000
0000
0000
0000
0100
0000
0000
0000
0000
0000
0000
,
0010
0000
0100
0000
0001
0010
0001
0000
,
2000
0100
0010
0001
,
0100
3100
0010
0100
,
1000
0010
2000
0000
0010
0000
0100
0000
,
0001
0000
3001
0000
0010
0001
0010
0000
,
0001
0000
0100
0010
0200
0000
1000
0000
,
0010
0310
0100
0001
,
0010
0100
0010
0000
0001
1000
0001
0000
,
0200
0000
0010
0310
,
0100
0001
0100
0000
0001
1000
0001
0000
,
1000
0100
1000
0000
0002
0000
0013
0000
,
0200
1300
0010
0100
,
0001
0010
0001
0000
1000
0100
1000
0000
,
0200
0310
0200
1300
,
0010
0100
0010
0000
1000
0001
1000
0000
,
0001
0010
0001
0000
1000
0010
1000
0000
,
1001
0110
1001
0110
,
0100
0001
0100
0000
2002
0000
3003
0000
,
1000
0100
1000
0000
0022
0000
0033
0000
,
0100
0010
0100
0000
2002
0000
3003
0000
,
0001
0010
0001
0000
2200
0000
3300
0000
,
0010
0000
0010
0100
0010
0000
0100
0000
,
0001
0000
0001
0010
0001
0000
1000
0000
,
0100
1000
0100
0000
0010
0001
0010
0000
,
0001
0100
0001
0000
1000
0010
1000
0000
,
0010
0000
0100
0010
0100
0000
1001
0000
,
0100
0000
0010
0001
0010
0000
1100
0000
,
0001
0000
0100
0010
0100
0000
1001
0000
,
0100
0000
0010
0001
0010
0000
1100
0000
,
0010
0100
0010
0000
1000
0000
1001
0000
,
0001
0010
0001
0000
1000
0000
0110
0000
,
0100
0000
0010
0100
0010
0000
0100
0010
,
0100
0000
0010
0100
0010
0000
0100
0010
,
0100
0010
0001
1000
,
0100
0010
0001
1000
,
0100
0010
0001
1000
,
0100
0000
0010
0000
0001
0000
0100
0010
;

//---------------dance-single - ----------------
#NOTES:
     dance-single:
     :
     Hard:
     8:
     0.613,0.866,0.135,0.103,0.314:
1000
0100
0010
0001
,
1000
0100
0010
0001
,
1000
0100
0010
0001
,
0100
0100
0000
0000
0010
0010
0000
0100
,
0001
0010
0100
1000
,
0001
0010
0100
1000
,
0001
0010
0100
1000
0001
0010
0100
1000
,
0010
0010
0000
0000
0100
0100
0010
1000
,
0001
0000
0010
0100
1000
0100
0001
0100
,
1000
0100
0010
0100
1000
0100
0010
0000
,
0001
0010
1000
0010
1000
0010
0001
0010
,
0100
0010
1000
0010
0001
0010
0100
0000
,
0001
0010
0001
0010
0001
0100
0001
0100
,
0010
0100
0010
0100
0001
1000
0100
0000
,
0010
0100
1100
0000
0001
0100
0110
0000
,
0001
0010
1000
0010
0001
0100
0010
0100
,
0002
0000
0010
0010
0000
0100
0100
0000
0010
0010
0000
1000
1000
0000
0103
0000
,
0020
0000
1000
1000
0000
0001
0001
0000
0100
0100
0000
1000
1000
0000
0130
0000
,
0020
0000
1000
1000
0000
0100
0100
0000
0001
0001
0000
0100
0100
0000
0031
0000
,
0200
0000
1000
1000
0000
0010
0010
0000
0001
0001
0000
0010
0010
0000
0301
0000
,
0010
0000
0100
0001
0010
0000
0100
0000
0010
0000
0001
0100
1000
0100
0010
0000
,
1000
0000
0100
0010
0100
0000
1000
0010
0100
0000
0100
0001
0000
1000
0100
0000
,
0110
0000
0100
1000
0010
0000
0100
0110
1001
0000
0100
0010
1000
0000
0001
0100
,
0110
0000
0001
1000
1001
0000
0100
0010
0001
0010
0100
1000
0001
0010
0100
1000
,
0010
0100
1000
0100
0010
0100
0001
0100
,
0010
0100
1000
0100
0010
1000
0100
0000
,
0001
0010
1000
0010
0100
0010
0001
0010
,
0100
0010
0001
0010
1000
0010
0100
0000
,
1000
0010
0001
0010
0100
1000
0100
0010
,
1000
0100
0001
0100
1000
0010
0001
0000
,
1000
0100
0001
0010
0100
1000
0100
0001
,
0100
1000
0010
0100
0001
0010
0100
1000
,
0020
0001
0100
1000
,
0001
0000
0001
0000
0230
0000
0301
0010
,
1000
0010
0002
0000
0010
0000
0100
0000
,
0010
0000
0000
0000
0010
0000
0000
0003
0100
0000
0001
0000
0010
0000
0100
0000
,
2000
0000
3010
0100
0020
0000
0001
0000
,
1000
0100
2030
3200
,
0310
0000
0100
0000
2000
0000
0000
0000
3010
0000
0100
0000
0002
0000
0000
0003
,
0010
0001
0100
0100
0010
0010
0100
0001
,
1000
0000
0000
1000
0100
0000
0010
0000
0100
0000
0000
0100
1000
0000
0010
0000
,
0100
0000
0000
0100
0001
0000
0010
0000
0001
0000
0000
0001
0100
0000
0000
0100
,
0010
0000
0000
0010
0100
0000
0001
0000
0010
0000
0000
0010
0100
0000
0010
0000
,
0001
0000
0000
0001
0100
0000
0000
0100
1000
0000
0000
1000
0100
0000
0010
0000
,
1000
0000
0000
1000
0100
0000
0001
0000
0100
0000
0000
0100
0010
0000
0001
0000
,
0100
0000
0000
0100
0010
0000
0000
0010
1000
0000
0000
1000
0001
0000
0100
0000
,
0010
0000
0010
0000
0100
0010
0100
0010
1000
0000
1000
0000
0100
0010
0100
0010
,
0100
1100
0011
1001
,
0010
0000
0000
0010
0100
0000
0000
0000
0010
0000
1000
0000
0100
0000
0100
0000
,
1000
0000
0000
1000
0001
0000
0000
0000
0100
0000
0001
0000
0010
0000
0010
0000
,
0001
0000
0000
0001
0100
0000
1000
0000
0100
0000
0001
0000
0010
0000
0010
0000
,
0100
0000
0000
0100
0001
0000
0100
0000
1000
0000
0010
0000
0100
0000
0100
0000
,
0001
0000
0000
1000
0000
0000
1001
0000
0000
0000
1000
0000
0100
0000
0100
0000
,
0010
0000
0000
0100
0000
0000
1001
0000
0000
0000
0001
0000
0100
0000
0100
0000
,
0010
0000
0000
0010
0100
0000
0001
0000
1000
0000
0000
1000
0100
0000
0001
0000
,
0100
0100
0010
0010
0001
0001
0100
0000
,
0010
0000
0000
0010
1000
0000
0100
0000
0010
0100
0010
0000
1000
0001
1000
0000
,
0001
0000
0000
0001
0100
0000
0010
0000
0100
0001
0100
0000
0010
1000
0010
0000
,
1000
0000
0000
1000
0100
0000
0010
0000
0001
0100
0001
0000
0100
0010
0100
0000
,
0001
0000
0000
0001
1000
0000
0100
0000
0001
0100
0001
0000
0100
1000
0100
0000
,
1000
0000
0000
1010
0000
0000
0010
0100
0001
0000
0000
0000
0010
0000
0001
0000
,
0100
0000
0000
0110
0000
0000
0010
1000
0001
0000
0000
0000
0010
0000
0100
0000
,
0110
0000
0000
0010
0000
0000
0010
0000
0011
0000
0000
0001
0000
0000
0001
0000
,
0100
0000
0000
0010
0000
0000
0100
0000
0001
0000
1000
0000
0100
0000
0010
0000
,
0001
0010
0100
1000
0001
0010
0100
1000
,
0001
0010
0100
1000
0001
0010
0100
1000
,
0001
0010
0100
1000
0001
0010
0100
1000
,
0001
0010
0100
1000
0001
0010
0100
0000
,
1001
0000
0000
0000
;
