#TITLE:Super Duper Racers;
#SUBTITLE:;
#ARTIST:kors k & Numb'n'dub;
#TITLETRANSLIT:;
#SUBTITLETRANSLIT:;
#ARTISTTRANSLIT:;
#CREDIT:Grithokskulk;
#BANNER:Super Duper Racers-bn.png;
#BACKGROUND:Super Duper Racers-bg.png;
#LYRICSPATH:;
#CDTITLE:REFLEC BEAT.png;
#MUSIC:Super Duper Racers.mp3;
#OFFSET:-7.375;
#SAMPLESTART:69.455;
#SAMPLELENGTH:15.000;
#SELECTABLE:YES;
#BPMS:0.000=170.000;
#STOPS:;
#BGCHANGES:;

//---------------dance-single - ----------------
#NOTES:
     dance-single:
     :
     Easy:
     4:
     0.291,0.301,0.087,0.230,0.000: // measure 1
1000
0000
0100
0000
,  // measure 2
0020
0000
0000
0030
,  // measure 3
0001
0000
0100
0000
,  // measure 4
0020
0000
0000
0030
,  // measure 5
1000
0001
0000
0001
,  // measure 6
0000
0001
0010
0100
,  // measure 7
1000
0010
0000
0010
,  // measure 8
0000
0010
0100
0001
,  // measure 9
0010
0100
0000
0100
,  // measure 10
0000
0100
1000
0010
,  // measure 11
0100
0010
0000
0010
,  // measure 12
0000
0010
1000
0001
,  // measure 13
0010
0000
0110
0000
,  // measure 14
0001
0000
1001
0000
,  // measure 15
0100
0000
0110
0000
,  // measure 16
1000
0000
1001
0000
,  // measure 17
1000
0000
1100
0000
,  // measure 18
0010
0000
0110
0000
,  // measure 19
0001
0000
0011
0000
,  // measure 20
1000
0001
1000
0000
,  // measure 21
0220
0000
0330
0000
,  // measure 22
0100
0001
0100
0000
,  // measure 23
0001
0010
0001
0000
,  // measure 24
1000
0100
0020
0230
,  // measure 25
1300
0010
0100
0000
,  // measure 26
0010
0100
0010
0000
,  // measure 27
1000
0001
1000
0000
,  // measure 28
0001
0010
0200
0320
,  // measure 29
0031
0100
0001
0000
,  // measure 30
1000
0100
1000
0000
,  // measure 31
0010
0010
0100
0100
,  // measure 32
0002
0000
0003
0000
,  // measure 33
1000
0000
0001
0000
,  // measure 34
0010
0100
0010
0000
,  // measure 35
0001
0010
0001
0100
,  // measure 36
0020
0000
0030
0000
,  // measure 37
0100
0100
0200
0300
,  // measure 38
0010
0010
0020
0030
,  // measure 39
1000
1000
2000
3000
,  // measure 40
0001
0001
0002
0003
,  // measure 41
0010
0100
0010
0100
,  // measure 42
1000
0100
1000
0100
,  // measure 43
1000
0001
1000
0001
,  // measure 44
2000
3000
1001
0000
,  // measure 45
0001
0100
0001
0001
,  // measure 46
1000
0100
0020
0030
,  // measure 47
1000
0100
0020
0030
,  // measure 48
1000
0100
0020
0030
,  // measure 49
0001
0100
1000
0100
,  // measure 50
0001
0010
0200
0300
,  // measure 51
0001
0010
0200
0300
,  // measure 52
0001
0010
0200
0300
,  // measure 53
1000
0001
1000
1000
,  // measure 54
0001
1000
0020
0030
,  // measure 55
1000
0001
0020
0030
,  // measure 56
0001
1000
0020
0030
,  // measure 57
0100
0001
1000
0100
,  // measure 58
1000
0001
2000
3000
,  // measure 59
0001
1000
0002
0003
,  // measure 60
0100
0010
0100
0001
,  // measure 61
2002
0000
0000
0000
,  // measure 62
0000
0000
3003
0000
,  // measure 63
1000
0100
0010
0100
,  // measure 64
1000
0010
0100
0000
,  // measure 65
0001
0010
0001
0000
,  // measure 66
1000
0010
1000
0000
,  // measure 67
0001
0001
0001
0001
,  // measure 68
0010
0010
0010
0010
,  // measure 69
0200
0000
0000
0000
,  // measure 70
0000
0000
0000
0300
,  // measure 71
1000
1000
1000
0000
,  // measure 72
0001
0001
0001
0000
,  // measure 73
0100
0100
0010
0010
,  // measure 74
1000
1000
0001
0001
,  // measure 75
0010
0100
0010
0100
,  // measure 76
1000
0001
1000
0001
,  // measure 77
1001
0000
0000
0000
;

//---------------dance-single - ----------------
#NOTES:
     dance-single:
     :
     Medium:
     6:
     0.438,0.452,0.238,0.159,0.000:
2000
0000
0000
3020
0000
0000
0230
0000
,
0000
0000
0000
0300
,
0002
0000
0000
2003
0000
0000
3200
0000
,
0000
0000
0000
0300
,
0010
0000
0110
0000
0000
0100
0010
0000
,
0000
1000
0010
0000
1000
0000
0001
0000
,
0010
0000
0011
0000
0000
0001
0100
0000
,
0000
0010
0100
0000
0001
0000
1000
0000
,
0100
0000
1100
0000
0000
1000
0010
0000
,
0000
1000
0001
0000
0010
0000
0100
0000
,
0010
0000
0110
0000
0000
0100
1000
0000
,
0000
1000
0010
0000
0100
0000
0010
0000
,
0110
0000
0001
1000
0001
0000
0000
0000
,
1100
0000
0001
0010
0001
0000
0000
0000
,
0101
0000
0010
0100
0010
0000
0000
0000
,
1001
0000
1000
0100
1000
0000
0000
0000
,
0011
0000
0001
0100
0001
0000
1000
0100
,
1000
0000
0001
0010
0001
0000
1000
0010
,
1000
0000
0001
0100
0001
0000
1000
0100
,
1000
0000
0001
0010
0001
0000
0000
0000
,
2002
0000
3003
0000
,
0001
0000
0100
0001
0000
0000
0100
0010
,
0100
0000
0001
0010
0000
0000
0100
0010
,
0100
0000
1000
0010
2000
0000
3002
0000
,
0013
0000
0001
0100
0001
0000
0100
0000
,
0010
0000
0100
0001
0000
0000
1000
0100
,
1000
0000
0001
0010
0000
0000
0100
0010
,
0100
0000
0010
0001
0020
0000
0032
0000
,
0103
0000
0010
0000
0100
0000
0001
1000
,
0001
0000
1000
0000
0100
0000
0010
0100
,
1000
0010
1000
0000
0001
0010
0001
0000
,
0200
0000
0000
0000
0300
0000
0010
0100
,
0010
0000
1000
0001
1000
0000
0001
0010
,
0001
0000
1000
0010
1000
0000
0001
0010
,
0001
0000
0100
0000
0010
0100
0010
0000
,
2000
0000
3000
0000
,
0001
1000
0001
1000
0001
0000
0001
0000
,
1000
0001
1000
0001
1000
0000
1000
0000
,
0010
0100
0010
0100
0010
0000
0010
0000
,
0100
0010
0100
0010
0100
0000
0100
0000
,
0001
0010
0001
0000
1000
0010
1000
0000
,
0001
0100
0001
0000
1000
0100
1000
0000
,
0001
0010
0001
0000
1000
0010
1000
0000
,
0020
0000
0200
0330
,
0100
0001
0100
0000
0001
0000
0001
0000
,
0010
0001
0010
0000
0011
0000
0000
0000
,
1000
0010
1000
0000
1010
0000
0000
0000
,
0001
0100
0001
0000
0101
0000
0000
0000
,
1000
0100
1000
0000
0001
0010
0001
0000
,
1000
0001
1000
0000
0110
0000
0000
0000
,
0001
0100
0001
0000
1010
0000
0000
0000
,
1000
0100
1000
0000
0011
0000
0000
0000
,
0001
0010
0001
0100
0001
0000
0010
0000
,
0100
0010
0100
0000
1001
0000
0000
0000
,
0001
0100
0001
0000
1010
0000
0000
0000
,
1000
0100
1000
0000
0011
0000
0000
0000
,
0001
0010
0100
0000
0100
0010
0001
0000
,
1000
0010
1000
0000
0110
0000
0000
0000
,
1000
0001
1000
0000
0011
0000
0000
0000
,
0100
0010
0100
0000
0110
0000
1001
0000
,
0220
0000
0000
0000
,
0000
0000
0330
0000
,
1000
0001
1000
0000
0001
0010
0001
0000
,
1000
0010
1000
0000
0020
0000
0030
0000
,
0100
0010
0100
0000
0001
0000
0010
0000
,
0100
0010
0100
0000
0010
0000
0001
0000
,
0100
0001
0100
0000
0010
0000
0100
0000
,
0110
0110
0110
0110
,
0210
0010
0010
0010
,
0010
0000
0010
0000
0010
0000
0310
1000
,
0100
0000
0100
0000
0100
0000
0001
0100
,
1000
0000
1000
0000
1000
0000
0010
0100
,
0001
0000
0010
0001
0100
0000
0010
1000
,
0100
0000
0010
0100
1000
0000
0010
0100
,
0001
0000
1000
0000
0100
0000
0010
0100
,
1000
0000
0010
0000
0100
0000
0001
1000
,
1001
0000
0000
0000
;

//---------------dance-single - ----------------
#NOTES:
     dance-single:
     :
     Hard:
     8:
     0.617,0.663,0.547,0.246,0.063:
0020
0000
0000
0100
0000
0000
2030
0000
,
0000
0000
0000
0000
3100
0000
0020
0000
0001
0000
0000
0001
0000
0000
0031
0000
,
0200
0000
0000
1000
0000
0000
0320
0000
,
0000
0000
0000
0000
0032
0000
0000
0013
0000
0000
0002
0000
0103
0000
0001
0000
,
1001
0000
0100
0000
0000
0010
0110
0000
,
0000
0100
1000
0010
0100
0000
0110
0000
,
0100
0000
0101
0000
0000
1000
1001
0000
,
0000
1000
0100
0001
0100
0000
0010
0000
,
0100
0000
1100
0000
0000
1000
1010
0000
,
0000
0010
0100
0001
0010
0000
0100
0000
,
0010
0000
0011
0000
0000
0001
1001
0000
,
0000
1000
0010
0100
0010
0000
1000
0000
,
1100
0000
0010
0100
1000
0000
1001
0000
,
0110
0000
0001
0100
0010
0000
1010
0000
,
1100
0000
0010
0100
1000
0000
1100
0000
,
1001
0000
0001
0100
0010
0000
0110
0000
,
0101
0000
0001
0010
0100
0000
0010
0100
,
1000
0000
0010
0100
1000
0000
1000
0100
,
0001
0010
1000
0010
0001
0001
0100
0100
,
0120
0000
1000
0100
2000
0000
3030
0000
,
2002
0000
3003
0000
,
1000
0000
0100
1000
0100
0000
2000
0000
0000
0000
3010
0100
0010
0000
0000
0000
,
0100
0000
0001
0010
0001
0000
0020
0000
0000
0000
0100
0000
0130
0000
0000
0000
,
0010
0000
0001
0100
0001
0000
0100
0000
0020
0000
0000
0000
0230
0000
0000
0000
,
0301
0000
1000
0100
1000
0000
0020
0000
0000
0000
0100
0000
0130
0000
0000
0000
,
0010
0000
1000
0001
1000
0000
0200
0000
0000
0000
0001
0000
0301
0000
0000
0000
,
0100
0000
0010
0001
0010
0000
0002
0000
0000
0000
0100
0000
0103
0000
0000
0000
,
0010
0000
0100
0001
0100
0000
0001
0000
2000
0000
0000
0000
3200
0000
0000
0000
,
0320
0000
0032
0000
0203
0000
0301
0010
,
0100
0000
0010
0001
0100
0000
0010
1000
,
0100
0100
0110
0000
1000
1000
1001
0000
,
0202
0000
0000
0000
0303
0000
0001
0100
,
1000
0000
1000
0100
0001
0000
1000
0100
,
0001
0100
0010
0001
0100
0000
0001
0100
,
0010
0000
1010
0000
1000
0100
0010
0100
,
2000
0000
0000
0000
0000
0000
0000
0000
3001
0100
0001
0100
0001
0000
0000
0000
,
1000
0100
0010
0100
1000
1000
1010
0000
,
0001
0010
1000
0010
0001
0001
0101
0000
,
0100
1000
0100
0010
1000
1000
1010
0000
,
0010
0100
0001
0010
0100
0100
0110
0000
,
0010
0001
0100
0100
0001
0100
1000
1000
,
0100
0010
1000
1000
0100
0001
0100
0100
,
0010
0001
0100
0100
0010
1000
0100
0100
,
0020
0000
0001
0100
0031
0000
1001
0000
,
1000
0010
0100
0010
1000
1000
0100
0000
,
0010
0100
1100
0000
0011
0000
0001
0100
,
1000
0100
0110
0000
1010
0000
1000
0100
,
0001
0100
0110
0000
0011
0000
0000
0000
,
0001
0100
1000
0100
0001
0010
1000
0010
,
0001
1000
1010
0000
0101
0000
1000
0100
,
0010
0100
1100
0000
0011
0000
0001
0100
,
1000
0100
0110
0000
1010
0000
0000
0000
,
1000
0100
0010
0100
2000
0000
3002
0000
,
0013
0100
0010
0000
0011
0000
0001
0100
,
1000
0100
0010
0000
1010
0000
1000
0100
,
0001
0100
0010
0000
0011
0000
0000
0000
,
0001
0010
1000
0010
0001
0100
1000
0100
,
0010
1000
1100
0000
0110
0000
0010
0100
,
1000
0001
0011
0000
0101
0000
1000
0100
,
0001
0010
0110
0000
0011
0000
1001
0000
,
0220
0000
0000
0000
,
0000
0000
0000
0000
0330
0000
1000
0100
,
0010
0100
1000
0010
0100
1000
0100
0001
,
0010
1000
0010
0001
0010
0100
0010
0000
,
0100
0100
0010
0010
0001
0001
0100
0100
,
1000
1000
0100
0100
0010
0010
1000
1000
,
0001
0010
0100
1000
0001
0010
0100
1000
,
0001
0100
0001
0000
1000
0010
1000
0000
0100
1000
0100
0000
0010
0001
0010
0000
,
0101
0000
1010
0000
1100
0000
0010
0001
,
0101
0000
1100
0000
0110
0000
1000
0100
,
1100
0000
0011
0000
0101
0000
0001
1000
,
1100
0000
0011
0000
1001
0000
0010
0100
,
0101
0000
1000
0100
1100
0000
1000
0010
,
1010
0000
0001
0010
0011
0000
0001
0100
,
0010
0010
1000
1000
0100
0100
0010
0010
,
0100
0100
1000
1000
0010
0100
0001
0000
,
1100
0000
0000
0000
;
