#TITLE:Summer;
#SUBTITLE:;
#ARTIST:banvox;
#TITLETRANSLIT:;
#SUBTITLETRANSLIT:;
#ARTISTTRANSLIT:;
#CREDIT:Grithokskulk;
#BANNER:Summer.png;
#BACKGROUND:Summer-bg.png;
#LYRICSPATH:;
#CDTITLE:beatmania IIDX.png;
#MUSIC:Summer.mp3;
#OFFSET:-6.496;
#SAMPLESTART:89.640;
#SAMPLELENGTH:15.000;
#SELECTABLE:YES;
#BPMS:0.000=150.000;
#STOPS:;
#BGCHANGES:;

//---------------dance-single - ----------------
#NOTES:
     dance-single:
     :
     Easy:
     2:
     0.162,0.197,0.000,0.166,0.000: // measure 1
1000
0000
0100
0100
,  // measure 2
0100
0000
1000
1000
,  // measure 3
1000
0000
0010
0010
,  // measure 4
0200
0000
0000
0300
,  // measure 5
0002
0000
0000
0000
,  // measure 6
0000
0000
0000
0000
,  // measure 7
0000
0003
0000
0000
,  // measure 8
0020
0000
0000
0030
,  // measure 9
0200
0000
0000
0000
,  // measure 10
0000
0000
0000
0000
,  // measure 11
0300
0000
0000
0000
,  // measure 12
2000
0000
0000
3000
,  // measure 13
0020
0000
0000
0000
,  // measure 14
0000
0000
0000
0000
,  // measure 15
0030
0000
0000
0000
,  // measure 16
0200
0000
0000
0300
,  // measure 17
0002
0000
0000
0000
,  // measure 18
0000
0000
0000
0000
,  // measure 19
0003
0000
0000
0000
,  // measure 20
0020
0000
0000
0030
,  // measure 21
0100
0000
0010
0000
,  // measure 22
0001
0000
0100
0000
,  // measure 23
0010
0000
0100
0000
,  // measure 24
0001
0000
1000
0000
,  // measure 25
0100
0000
1000
0000
,  // measure 26
0010
0000
0100
0000
,  // measure 27
0010
0000
0100
0000
,  // measure 28
0001
0000
1000
0000
,  // measure 29
0100
0100
0100
0000
,  // measure 30
0010
0010
0010
0000
,  // measure 31
0001
0001
0001
0000
,  // measure 32
1000
1000
1000
0000
,  // measure 33
0010
0100
0010
0000
,  // measure 34
1000
0100
1000
0000
,  // measure 35
0001
0010
0001
0000
,  // measure 36
0200
0000
0000
0300
,  // measure 37
0010
0000
0010
0000
,  // measure 38
0100
0100
0010
0000
,  // measure 39
1000
0000
0001
0000
,  // measure 40
1000
1000
0100
0000
,  // measure 41
0010
0000
0100
0000
,  // measure 42
0010
0010
0100
0000
,  // measure 43
0010
0000
0001
0000
,  // measure 44
0010
0010
0001
0000
,  // measure 45
0100
0000
0010
0000
,  // measure 46
0100
0100
0001
0000
,  // measure 47
0010
0000
0100
0000
,  // measure 48
1000
1000
0010
0000
,  // measure 49
0100
0000
0010
0000
,  // measure 50
0100
0100
0001
0000
,  // measure 51
0010
0000
0100
0000
,  // measure 52
0020
0000
0000
0030
,  // measure 53
0002
0000
0000
0003
,  // measure 54
0200
0000
0000
0300
,  // measure 55
0020
0000
0000
0030
,  // measure 56
0200
0000
0000
0300
,  // measure 57
0002
0000
0000
0003
,  // measure 58
0020
0000
0000
0030
,  // measure 59
0200
0000
0000
0300
,  // measure 60
2000
0000
0000
3000
,  // measure 61
0010
0000
1000
0000
,  // measure 62
0100
0000
0010
0000
,  // measure 63
0100
0000
0010
0000
,  // measure 64
0001
0000
1000
0000
,  // measure 65
0010
0000
1000
0000
,  // measure 66
0100
0000
0010
0000
,  // measure 67
0100
0000
1000
0000
,  // measure 68
0020
0000
0000
0000
,  // measure 69
0030
0000
0000
0000
;

//---------------dance-single - ----------------
#NOTES:
     dance-single:
     :
     Medium:
     6:
     0.411,0.423,0.249,0.083,0.000:
1000
0000
0000
0100
0000
0010
0100
0000
,
1000
0000
0000
0001
0000
0100
0010
0000
,
0100
0000
0000
0001
0000
0010
0100
0000
,
0020
0000
0000
0000
,
0030
0000
0100
0100
,
0010
0000
0001
0000
0100
0000
0010
0100
,
0000
0020
0000
0000
0000
0000
0030
0000
,
0100
0000
0100
0000
0010
0100
0010
0000
,
0000
0000
1000
1000
,
0100
0000
0010
0000
0100
0000
1000
0001
,
0000
0200
0000
0000
0000
0000
0300
0000
,
0010
0000
0100
0010
0100
0000
0001
0000
,
0011
0000
0100
0100
,
0010
0000
0001
0000
0100
0000
0010
0100
,
0000
0002
0000
0000
0000
0000
0003
0000
,
0010
0000
0100
0010
0100
0000
0010
0000
,
0000
0000
0001
0001
,
0100
0000
0010
0000
0100
0000
0001
1000
,
0000
0200
0000
0000
0000
0000
0300
0000
,
0010
0000
0100
0010
0100
0000
0010
0000
,
0001
0100
0010
0110
,
0100
0001
1000
1100
,
0100
0010
0100
1100
,
1000
0010
0100
0001
,
0010
0100
0010
0011
,
0001
0100
0010
0110
,
0100
0001
1000
1001
,
0001
0010
0100
0010
,
0001
0010
0001
0010
0001
0010
0001
0000
,
1000
0010
1000
0010
1000
0010
1000
0000
,
0001
0100
0001
0100
0001
0100
0001
0000
,
1000
0100
1000
0100
1000
0100
1000
0000
,
0010
0001
0010
0001
0010
0001
0010
0000
,
0001
0100
0001
0100
0001
0100
0001
0000
,
1000
0010
1000
0010
1000
0010
1000
0000
,
0200
0000
0000
0010
0000
0010
0310
0000
,
0110
0000
0001
0000
0010
0100
0010
0000
,
0001
0000
0100
0000
0010
0100
0001
0000
,
1000
0000
1100
0000
0100
0010
0100
0000
,
1000
0010
0100
0000
0110
0000
1001
0000
,
0010
0000
0100
0000
0010
0001
0010
0000
,
0001
0100
0001
0000
1000
0100
1000
0000
,
0010
0000
0110
0000
0100
0001
0100
0000
,
0001
0010
0001
0000
0110
0000
1001
0000
,
0001
0000
0100
0000
0010
0100
0001
0100
,
0010
0000
1000
0000
0100
0010
0100
0000
,
1000
0000
1010
0000
0010
0100
0001
0000
,
1000
0100
0010
0100
1000
0000
1001
0000
,
0001
0000
0011
0000
0010
0001
0100
0010
,
0100
0000
0001
0000
1000
0100
0010
0000
,
0100
0000
0110
0000
1000
0001
0100
0000
,
0020
0000
0000
0100
0000
0100
0130
0000
,
0001
0011
0010
0110
,
0100
0000
1100
0000
1000
0100
1000
0000
,
1000
1100
0100
0110
,
0010
0000
0011
0000
0001
0010
0001
0000
,
0001
0101
0100
0110
,
0010
0000
1010
0000
1000
0010
1000
0000
,
1000
1100
0100
0110
,
0010
0022
0033
0000
,
0001
0000
0100
0010
0000
0100
0001
0000
,
1000
0000
0100
0010
0000
0100
1000
0000
,
0010
0000
0100
0001
0000
0100
1000
0000
,
0100
0000
0010
1000
0000
0010
0001
0000
,
0010
0000
0100
0001
0000
0010
0001
0000
,
1000
0000
0100
1000
0000
0010
1000
0000
,
0100
0000
0010
0001
0000
0010
0100
0000
,
2000
0000
0000
0001
0000
0001
3001
0000
,
1000
0000
0000
0000
;

//---------------dance-single - ----------------
#NOTES:
     dance-single:
     :
     Hard:
     9:
     0.650,0.620,0.423,0.381,0.195:
1000
0000
1100
0000
0001
0100
0010
0001
,
0100
0000
0110
0000
0001
0010
1000
0010
,
0001
0000
0101
0000
1000
0010
0001
0020
,
0100
0000
0100
0100
0000
0100
0100
0100
,
0030
0000
0000
0000
2000
3000
2000
3000
,
0200
0000
0302
0000
0203
0000
0310
0002
,
0000
0203
0000
0000
0000
0000
0020
0030
,
0320
0000
0031
0010
0010
0100
0010
0001
,
0000
0000
0000
0000
0200
0300
0200
0300
,
0020
0030
0020
0030
0002
0000
1003
0010
,
0000
0100
0000
0000
0002
0000
0000
0000
2000
0000
0000
0000
3003
0000
0000
0000
,
0100
0000
0100
0000
0001
0000
0100
0000
1000
0000
0000
1000
0010
0000
0100
0000
,
0220
0000
0330
0000
2000
3000
2000
0000
,
3200
0000
0302
0000
0203
0000
0310
0002
,
0000
0203
0000
0000
0000
0000
0320
0000
,
0230
0000
0301
0001
0010
0100
0100
0010
,
0000
0000
0000
0000
0002
0003
0002
0003
,
0200
0300
0200
0300
0020
0000
0031
0020
,
0000
1030
0100
0020
0000
0200
0330
0000
,
0100
0100
0010
0100
2000
0000
3020
0000
,
0130
0001
0100
0000
0001
0000
0010
0000
0100
0000
0000
0100
0010
0000
0000
0000
,
0010
0001
0000
0000
0010
0100
0000
0000
0010
0000
0001
0000
0100
0000
0000
0000
,
0010
1000
0010
0000
1000
0000
0100
0000
0010
0000
0000
0010
0100
0000
0000
0000
,
0100
1000
0000
0000
0100
0010
0000
0000
0100
0000
1000
0000
0010
0000
0100
0000
,
0001
0010
0001
0000
0100
0000
0010
0000
0100
0000
0000
0100
0001
0000
0000
0000
,
0010
0000
0100
0000
0010
0000
0001
0000
0010
0000
0000
0100
0010
0000
0001
0000
,
0100
0010
0100
0000
0010
0000
1000
0000
0100
0000
0000
0100
0010
0000
0000
0000
,
0100
1000
0100
0000
0010
0000
0100
0000
1000
0010
1000
0000
0010
0000
0100
0000
,
0010
1000
0010
1000
0010
1000
0010
1000
,
0001
0100
0001
0100
0001
0100
0001
0100
,
0001
0010
0001
0010
0001
0010
0001
0010
,
0100
1000
0100
1000
0100
1000
0100
1000
,
0010
1000
0010
0000
1000
0000
0010
0000
1000
0000
0010
0000
1000
0000
0010
0000
,
0100
0001
0100
0000
0001
0000
0100
0000
0001
0000
0100
0000
0001
0000
0100
0000
,
0001
0010
0001
0000
0010
0000
0001
0000
1000
0010
1000
0000
0010
0000
0100
0000
,
0020
0000
0100
0100
0000
0100
0130
0000
,
0110
0000
0000
0000
1001
0000
0000
0000
1000
0000
0100
1000
0100
0000
0010
0000
,
0100
0010
0100
0000
0010
0000
0001
0000
0100
0001
0010
0100
1000
0000
1000
0000
,
1010
0000
0000
0000
0110
0000
0000
0000
0100
0000
0010
0100
0010
0000
1000
0000
,
0100
0010
0100
0000
1000
0000
0010
0000
0110
0000
0000
0000
0101
0000
0000
0000
,
0011
0000
0000
0000
1100
0000
0000
0000
0010
0000
0100
0010
0100
0000
0010
0000
,
1000
0010
1000
0000
0100
0000
0010
0000
0100
1000
0010
0100
0001
0000
0010
0000
,
0110
0000
0000
0000
0011
0000
0000
0000
1000
0000
0010
0100
0010
0000
1000
0000
,
0100
0010
0100
0000
1000
0000
0001
0000
0201
0000
0000
0000
0310
0000
0010
0000
,
0101
0000
0000
0000
1001
0000
0000
0000
1000
0000
0100
0010
0100
0000
1000
0000
,
0010
0100
0010
0000
0100
0000
0001
0000
0010
0100
0010
0001
1000
0000
0100
0000
,
0110
0000
0000
0000
1100
0000
0000
0000
0010
0000
0100
1000
0100
0000
0001
0000
,
0010
0100
0010
0000
0100
0000
1000
0000
0020
0000
0000
0000
0230
0000
0000
0000
,
0301
0000
0000
0000
0011
0000
0000
0000
0010
0000
0100
0010
0100
0000
0010
0000
,
0001
0100
0001
0000
0010
0000
0100
0000
0001
0100
0010
0100
1000
0000
0010
0000
,
0110
0000
0000
0000
1001
0000
0000
0000
1000
0000
0100
0001
0100
0010
0100
0000
,
2000
0000
0010
3020
0000
0001
0031
0010
,
1000
0000
1100
0100
0001
0100
0110
0000
,
0010
0000
0011
0001
0100
1000
1100
0100
,
0010
0000
1010
1000
0100
0001
0101
0100
,
0010
0000
0110
0010
0001
0100
0110
0000
,
0001
0000
1001
1000
0100
0001
0101
0100
,
1000
0000
1010
0010
0100
0010
1010
0000
,
0001
0000
0011
0001
0100
0010
1010
1000
,
0100
0000
0000
0000
0000
0000
0110
0000
0000
0100
0000
0000
2000
0000
0000
0000
0000
0000
3010
0000
0100
0000
0001
0000
,
0010
0000
0110
0000
0010
0001
0101
0001
,
1000
0000
1100
0000
0100
0001
0101
0100
,
1000
0000
1010
0000
0010
0100
0101
0001
,
1000
0000
1100
0000
0100
0010
0110
0100
,
1000
0000
1010
0000
0010
0001
0011
0010
,
0100
0000
0101
0000
0001
0010
0110
0010
,
0001
0000
0011
0000
0001
1000
1010
0010
,
0200
0000
0010
0010
0000
0010
0010
0010
,
0300
0000
0000
0000
;
