#TITLE:Sol Cosine Job 2;
#SUBTITLE:;
#ARTIST:DJ TECHNORCH;
#TITLETRANSLIT:;
#SUBTITLETRANSLIT:;
#ARTISTTRANSLIT:;
#CREDIT:Grithokskulk;
#BANNER:Sol Cosine Job 2.png;
#BACKGROUND:Sol Cosine Job 2-bg.png;
#LYRICSPATH:;
#CDTITLE:beatmania IIDX.png;
#MUSIC:Sol Cosine Job 2.mp3;
#OFFSET:-1.686;
#SAMPLESTART:21.835;
#SAMPLELENGTH:15.000;
#SELECTABLE:YES;
#BPMS:0.000=190.000,228.000=195.000,244.000=200.000;
#STOPS:;
#BGCHANGES:;

//---------------dance-single - ----------------
#NOTES:
     dance-single:
     :
     Easy:
     4:
     0.304,0.382,0.129,0.137,0.000: // measure 1
1000
0010
0100
0001
,  // measure 2
1000
0000
0100
0000
,  // measure 3
0001
0010
0100
1000
,  // measure 4
0100
0000
0010
0000
,  // measure 5
1000
0010
0100
0001
,  // measure 6
1000
0000
0100
0000
,  // measure 7
1000
0001
0100
0001
,  // measure 8
1000
0100
1000
0200
,  // measure 9
0000
0000
0000
0000
,  // measure 10
0000
0000
0000
0300
,  // measure 11
0010
0000
0010
0001
,  // measure 12
0100
0000
0100
0000
,  // measure 13
0010
0000
0010
0100
,  // measure 14
0001
0000
0100
0000
,  // measure 15
0010
0000
1000
0000
,  // measure 16
0200
0000
0000
0300
,  // measure 17
0010
0000
0100
0010
,  // measure 18
0001
0000
0100
0010
,  // measure 19
1000
0000
0100
1000
,  // measure 20
0001
0001
1000
1000
,  // measure 21
0010
0000
0100
0001
,  // measure 22
0010
0000
0100
1000
,  // measure 23
0010
0000
1000
0010
,  // measure 24
0100
0100
0001
0001
,  // measure 25
1000
0000
0100
1000
,  // measure 26
0010
0000
1000
0001
,  // measure 27
0010
0000
0100
0010
,  // measure 28
0001
0001
1000
1000
,  // measure 29
0010
0000
1000
0100
,  // measure 30
1000
0000
0001
0100
,  // measure 31
0001
0000
0010
0000
,  // measure 32
0100
0100
0010
0010
,  // measure 33
0002
0000
0000
0003
,  // measure 34
0100
0010
0100
0010
,  // measure 35
0200
0000
0000
0300
,  // measure 36
0001
0010
0100
0010
,  // measure 37
0002
0000
0000
0003
,  // measure 38
1000
0010
0100
0010
,  // measure 39
2000
0000
0000
3000
,  // measure 40
0100
0010
0100
1000
,  // measure 41
0020
0000
0000
0030
,  // measure 42
0100
0010
1000
0001
,  // measure 43
0020
0000
0000
0030
,  // measure 44
0001
0010
0100
0010
,  // measure 45
0002
0000
0000
0003
,  // measure 46
0100
0010
0100
0010
,  // measure 47
2000
0000
0000
3000
,  // measure 48
0100
1000
0010
0100
,  // measure 49
0002
0000
0000
0000
,  // measure 50
0003
0000
0000
0000
,  // measure 51
0000
0000
0000
0000
,  // measure 52
0000
0000
0000
0000
,  // measure 53
0000
0000
0000
0000
,  // measure 54
1001
0000
0000
0000
,  // measure 55
0000
0000
0000
0000
,  // measure 56
0101
0000
0000
0000
,  // measure 57
1010
0000
0000
0000
,  // measure 58
0100
0000
0010
0000
,  // measure 59
0100
0001
0100
0000
,  // measure 60
0001
0000
0010
0000
,  // measure 61
0100
1000
0100
0000
,  // measure 62
1000
0000
0010
0000
,  // measure 63
0100
0010
0100
0000
,  // measure 64
0001
0000
1000
0000
,  // measure 65
0100
0010
0100
0000
,  // measure 66
0110
0000
1001
0000
,  // measure 67
0110
0000
1001
0000
,  // measure 68
0220
0000
0000
0000
,  // measure 69
0000
0000
0000
0000
,  // measure 70
0000
0000
0000
0000
,  // measure 71
0000
0000
0000
0330
,  // measure 72
0220
0000
0000
0000
,  // measure 73
0000
0000
0000
0000
,  // measure 74
0000
0000
0000
0000
,  // measure 75
0330
0000
0000
0000
,  // measure 76
1000
0100
1000
0100
,  // measure 77
0010
0100
0010
0100
,  // measure 78
1000
0001
1000
0001
,  // measure 79
1000
0100
0010
0001
,  // measure 80
0100
0010
0100
0010
,  // measure 81
1000
0001
1000
0001
,  // measure 82
0010
0001
0010
0001
,  // measure 83
0010
0100
1000
0000
,  // measure 84
0010
1000
0001
0010
,  // measure 85
0001
1000
0010
1000
,  // measure 86
0001
0100
0001
1000
,  // measure 87
0100
0100
0010
0010
,  // measure 88
0100
1000
0010
1000
,  // measure 89
0100
0010
0001
0100
,  // measure 90
0001
0010
0001
0100
,  // measure 91
0010
0100
0100
0001
,  // measure 92
1001
0000
1001
1001
,  // measure 93
0000
0110
0110
0110
,  // measure 94
2002
0000
0000
0000
,  // measure 95
0000
0000
0000
3003
0000
0000
0000
0000
;

//---------------dance-single - ----------------
#NOTES:
     dance-single:
     :
     Medium:
     7:
     0.474,0.572,0.218,0.097,0.000:
0100
0010
0100
0010
,
0100
0100
0100
0000
0001
0000
0010
0001
,
0010
0100
0010
0100
,
0010
0000
0100
0000
0010
0000
0100
0100
,
0100
1000
0010
1000
,
0010
0100
0010
0100
,
0001
0010
0001
0010
,
0100
0000
0010
0000
0100
1000
0100
0010
,
0002
0000
0000
0000
,
1000
0100
0010
0100
,
1003
0000
0100
0010
0000
0100
0010
0000
,
0100
0000
1000
0010
0000
1000
0010
0000
,
0100
0000
0001
0010
0000
0001
0010
0000
,
0002
0003
1000
1000
,
0010
0000
0100
0010
0000
0100
0010
0100
,
0020
0000
0200
0330
,
0001
0000
0100
0001
0000
1000
0100
0000
,
0010
0000
0100
1000
0000
0010
1000
0000
,
0001
0000
0010
0001
0000
0100
0001
0000
,
0010
0000
0100
0000
1000
0000
0010
0100
,
0010
0000
1000
0001
0000
0010
0001
0000
,
0100
0000
0010
1000
0000
0100
1000
0000
,
0001
0000
0010
0100
0000
1000
0100
0000
,
0010
0100
1000
0010
,
0100
0000
0001
0010
0000
0001
0100
0000
,
0010
0000
0100
0001
0000
0100
1000
0000
,
0100
0000
0010
1000
0000
0100
1000
0000
,
0010
1000
0001
0010
,
0100
0000
0010
0001
0000
0100
0001
0000
,
0010
0000
0100
1000
0000
0010
1000
0000
,
0100
0000
1000
0010
0000
0100
0010
0000
,
1000
0001
0010
0100
,
0020
0000
0000
0000
,
0130
0000
0010
0001
0000
0100
0010
0100
,
0001
0100
0010
1000
,
0100
0000
1000
0001
0000
1000
0010
1000
,
0001
0010
0100
1000
,
0010
0000
0100
0001
0000
0010
0001
0100
,
0010
0100
0001
1000
,
0100
0000
0010
0100
0000
1000
0100
0010
,
0100
1000
0010
0100
,
0001
0000
0010
0001
0000
0100
0001
0010
,
0100
0010
0001
0100
,
0010
0000
0100
0010
0000
0100
1000
0000
,
0100
0010
1000
0100
,
0010
0000
0100
0010
0000
0001
0010
0000
,
0100
0010
0001
0100
,
0010
0000
1000
0001
0000
0010
0100
0000
,
1000
0010
0100
0001
,
2002
0000
0000
0000
,
0000
0000
0000
0000
,
0000
0000
0000
0000
,
0000
0000
0000
0000
0000
0000
3003
1000
,
1000
0000
0000
0000
,
0000
0000
0000
0000
0000
0000
0000
0010
,
0010
0000
0000
0000
,
0100
0000
0001
0100
0000
1000
0100
0000
,
0010
0000
1000
0000
0100
0010
0100
0000
,
1000
0000
0010
0000
0100
0001
0100
0000
,
0001
0000
0010
0000
0100
0010
0100
0000
,
0010
0000
0001
0000
0100
0010
0100
0000
,
0001
0000
1000
0000
0100
1000
0100
0000
,
1000
0000
0010
0000
0100
0010
0100
0000
,
0010
0000
1000
0000
0001
0010
0001
0000
,
2000
0000
3000
0000
,
0010
0000
0000
0100
0010
0000
0000
1000
,
0001
0000
0000
0010
0100
0000
0000
0000
,
2002
0000
0000
0000
,
0000
0000
0000
0000
,
0000
0000
0000
0000
,
0000
0000
0000
0000
,
0000
0000
0000
0000
,
0000
0000
0000
0000
,
0000
0000
0000
3003
,
1010
0110
0101
0011
,
0001
0000
0100
0010
0100
0000
0001
0000
,
1000
0000
0100
1000
0100
0000
1000
0000
,
0010
0000
0100
0010
0100
0000
0001
0000
,
0011
0110
1100
1001
,
0001
0000
0100
0010
0100
0000
0001
1000
,
0001
0000
1000
0100
1000
0000
0010
0100
,
0010
0000
1000
0001
1000
0000
0001
0000
,
0011
0110
1100
1001
,
0001
0000
0100
0010
0100
0000
0001
1000
,
0001
0000
1000
0100
1000
0000
0010
1000
,
0010
0000
0100
0010
0100
0000
0001
0000
,
0101
1001
1100
1001
,
0100
0000
0001
0100
0010
0000
0100
0001
,
1000
0000
0100
0010
0100
0000
1000
0010
,
1000
0000
0001
0010
0001
0000
0100
0010
,
1000
0110
0001
0110
,
1001
0000
0110
0110
,
0000
1001
0110
1001
,
0202
0000
0000
0000
,
0000
0000
0000
0303
0000
0000
0000
0000
;

//---------------dance-single - ----------------
#NOTES:
     dance-single:
     :
     Hard:
     10:
     0.893,1.000,0.218,0.121,0.687:
1000
0010
0100
0001
,
0010
0000
0010
0000
0010
0000
0000
0000
0100
0000
0000
0100
0010
0000
0100
0000
,
0001
0100
1000
0010
,
0100
0000
0001
0000
1000
0000
0010
0100
,
0001
1000
0100
0010
,
0100
0000
1000
0000
0010
0000
0100
0010
,
1000
0100
0010
0001
,
0010
0000
1000
0000
0010
0100
0010
0001
,
0020
0000
0000
0000
,
0130
0000
0001
0100
0001
0000
1000
0100
1000
0000
0010
0100
0010
0000
0000
0000
,
0100
0000
0001
0010
0001
0000
1000
0000
0010
1000
0010
0000
0100
0000
0000
0000
,
0001
0000
0010
0100
0010
0000
0001
0100
0000
0100
0001
0000
0100
0000
0100
0000
,
0010
0000
0100
0001
0100
0000
0010
0000
1000
0100
1000
0000
0010
0000
0000
0000
,
1000
0000
0001
0010
0001
0000
1000
0000
0100
0010
0100
0000
0010
0000
0010
0000
,
0100
0000
1000
0100
1000
0000
0010
0000
0100
0010
0100
0000
0010
0000
0010
0000
,
0100
0000
0100
0010
0000
0010
1000
0000
1000
0100
0000
0100
,
0010
0000
0100
1000
0100
0000
0010
0000
0001
0100
0001
0000
0010
0000
0010
0000
,
0001
0000
0100
0010
0100
0000
0001
0000
1000
0010
1000
0000
0100
0000
0100
0000
,
1000
0000
0100
0010
0100
0000
0010
0001
0000
0001
0010
0000
0100
0000
1000
0000
,
0010
0000
0100
0010
0100
0000
0010
1000
0010
0000
1000
0000
0100
0010
0001
0100
,
0010
0000
0100
0001
0100
0000
0010
0000
1000
0100
1000
0000
0010
0000
0010
0000
,
0100
0000
1000
0100
1000
0000
0100
0000
0001
0010
0001
0000
0010
0000
0010
0000
,
1000
0000
0010
0001
0010
0000
0001
0100
0000
0100
0001
0000
0010
0000
0100
0000
,
1000
0000
1000
0000
0010
0000
0100
0010
0100
0000
0010
1000
0100
0010
0001
0100
,
0010
0000
0100
0001
0100
0000
0010
0000
0100
1000
0100
0000
1000
0000
1000
0000
,
0010
0000
0100
0000
0200
0000
0000
0000
0310
0100
0010
0100
0001
0000
0001
0000
,
0010
0100
1000
0100
0010
0000
0001
0010
0000
0001
0010
0000
0100
0000
0100
1000
,
0010
0000
0100
0010
0100
0000
0001
0100
0001
0000
0010
0100
0010
0001
1000
0010
,
0100
0000
0010
1000
0010
0000
0100
0000
0100
0001
0100
0000
0010
0100
0010
0000
,
0100
0000
0010
1000
0010
0000
1000
0000
0100
0010
0100
0000
1000
0000
1000
0000
,
0001
0000
0100
0000
0010
0100
0000
0001
0000
0010
0000
0100
0010
0000
0100
0000
,
1000
0010
1000
0010
0100
0000
0100
0000
0001
1000
0001
1000
0100
0000
0010
0000
,
0002
0000
0000
0000
0000
0000
1003
0001
,
0101
0000
0100
1000
0000
0100
0010
0100
,
0001
0100
0100
0010
1000
1000
0100
0001
,
0100
0000
0010
0001
0000
0100
0010
0001
,
0010
1000
1000
0100
0100
0001
0001
0100
,
0010
0000
0001
0100
0000
1000
0100
0010
,
1000
0100
0100
0001
0001
0100
0100
0010
,
0010
0000
0001
0100
0000
1000
0100
0010
,
1000
0100
0010
0001
1000
0100
0010
0001
,
0100
0000
1000
0100
0000
0001
0010
1000
,
0010
0001
0001
0010
1000
0010
0010
0100
,
1000
0010
1000
0000
0010
0000
0100
0010
0100
0000
0001
0000
0001
0000
0010
0000
,
0100
0000
0010
0000
0010
0000
0001
0100
0001
0010
0001
0000
0100
0000
0010
0000
,
1000
0100
0000
1000
0010
0000
1000
0100
0000
1000
0010
0000
1000
0000
0100
0000
,
0010
0000
0100
0000
0100
0000
1000
0000
0010
0100
0010
1000
0100
0000
0010
0000
,
0001
0010
0001
0000
0100
0000
0001
0010
0001
0000
1000
0001
1000
0000
0010
0000
,
0100
0000
0010
0000
0010
0000
1000
0100
0010
0100
1000
0000
0010
0000
0100
0000
,
0202
0000
0000
0000
,
0000
0000
0000
0000
,
0000
0000
0000
0000
,
0000
0000
0000
0000
0000
0000
0303
0101
,
1001
0000
0100
0000
0100
0000
0010
0100
0010
0001
0010
0000
0100
0000
1000
0000
,
0010
0000
0100
0000
0100
0000
0010
1000
0100
0010
0100
0000
1000
0000
0101
0000
,
0101
0000
0100
0000
0100
0000
0010
1000
0100
0010
0100
0000
1000
0000
0010
0000
,
1001
0000
0100
0101
0000
1000
1001
0100
,
0010
0000
0100
0000
1000
0000
0010
0100
0010
0100
0010
0000
1000
0000
0100
0000
,
0001
0000
0100
0010
0100
0010
0100
0000
1000
0000
0010
0000
0100
0000
0010
0000
,
1000
0000
0100
0000
0010
0001
0010
0001
0010
0000
0001
0000
0100
0000
0001
0000
,
1000
0000
0010
0100
0010
0100
0010
0000
1000
0000
0100
0000
0010
0000
0001
0000
,
0100
0000
0010
0000
0100
0001
0100
0001
0100
0000
0001
0000
0010
0000
1000
0000
,
0010
0000
0001
0100
0001
0100
0001
0000
1000
0000
0100
0000
0010
0000
0100
0000
,
1000
0000
0010
0000
0100
0010
0100
0010
0100
0000
1000
0000
0001
0000
0100
0000
,
0001
0000
0010
0100
0010
0100
0010
0000
0002
0000
0000
0003
0000
0000
0000
0000
,
1001
0000
0000
1100
0000
0000
0011
0000
0101
0000
0000
0110
0000
0000
1001
0000
,
1100
0000
0000
0011
0000
0000
0101
0000
0220
0000
0000
0000
0330
0000
0000
0000
,
2002
0000
0000
0000
,
0000
0000
0000
0000
,
0000
0000
0000
0000
,
0000
0000
0000
0000
,
0000
0000
0000
0000
,
0000
0000
0000
0000
,
0000
0000
0000
3003
,
1000
0100
0100
0001
0100
0100
0020
0000
0000
0031
0000
0000
,
1000
0000
0010
0100
0010
0000
1000
0000
0100
0001
0100
0000
0010
0000
0010
0000
,
0001
0000
0100
0010
0100
0000
0001
0000
1000
0100
1000
0000
0010
0000
0010
0000
,
0100
0000
0001
0010
0001
0000
0010
0100
0000
0100
0010
0000
0100
0000
0100
0000
,
1000
0000
0010
1000
0100
0000
0010
0100
1000
0000
0010
0100
0001
0010
0100
1000
,
0010
0000
0100
0001
0100
0000
0001
0000
0010
0100
0010
0000
0001
0000
0001
0000
,
1000
0000
0010
0100
0010
0000
1000
0000
0100
0010
0001
0010
0100
0010
0100
0000
,
0010
0000
0001
0100
0001
0100
0010
0100
0010
0100
0010
1000
0010
1000
0100
1000
,
0100
0000
0100
0000
0010
0100
0000
0000
2002
0000
0000
0000
3003
0000
0000
0000
,
0001
0000
0100
0010
0100
0000
0001
0000
1000
0100
1000
0000
0010
0000
0010
0000
,
0100
0000
0001
0010
0001
0000
1000
0000
0010
0100
0010
0000
1000
0000
1000
0000
,
0100
0000
0100
0000
0010
0100
0000
0000
0010
0001
0010
0000
0001
1000
0001
0000
,
0100
0000
0010
0100
0001
0000
1000
0010
0100
0000
0001
0010
0100
1000
0010
0100
,
0001
0000
0010
0001
0010
0000
0100
0000
0010
0100
0010
0000
0001
0000
0001
0000
,
0100
0000
0100
0000
0010
1000
0000
0100
0010
0100
1000
0000
0010
0100
0010
0000
,
1000
0100
0010
0000
0100
0000
0010
0100
1000
0010
0100
0001
0010
0100
1000
0010
,
0100
0010
0100
0010
1000
0100
1000
0100
0010
0001
0010
0001
0100
0010
0100
0010
,
0001
0000
1001
1001
,
0000
0110
0101
1010
,
2200
0000
0300
0000
,
0000
0000
0000
3001
0000
0000
0000
0000
;
