#TITLE:Setsugekka;
#SUBTITLE:;
#ARTIST:Ryu☆;
#TITLETRANSLIT:;
#SUBTITLETRANSLIT:;
#ARTISTTRANSLIT:;
#CREDIT:Grithokskulk;
#BANNER:Setsugekka.png;
#BACKGROUND:Setsugekka-bg.png;
#LYRICSPATH:;
#CDTITLE:beatmania IIDX.png;
#MUSIC:Setsugekka.mp3;
#OFFSET:-1.933;
#SAMPLESTART:28.875;
#SAMPLELENGTH:15.000;
#SELECTABLE:YES;
#BPMS:0.000=151.000;
#STOPS:32.000=1.200
;
#BGCHANGES:;

//---------------dance-single - ----------------
#NOTES:
     dance-single:
     :
     Easy:
     4:
     0.355,0.382,0.140,0.500,0.000: // measure 1
2000
0000
0000
0000
,  // measure 2
0000
0000
3000
0001
,  // measure 3
0001
0002
0000
0000
,  // measure 4
0000
0000
1003
1000
,  // measure 5
2000
0000
0000
0000
,  // measure 6
0000
0000
3001
0001
,  // measure 7
0002
0000
0000
0003
,  // measure 8
0200
0000
0320
0000
,  // measure 9
0030
0100
0110
0010
,  // measure 10
1000
0001
0011
0010
,  // measure 11
0100
0010
0011
0001
,  // measure 12
1000
0010
0110
0100
,  // measure 13
0100
0100
0110
0010
,  // measure 14
1000
0100
1100
1000
,  // measure 15
0010
0100
0101
0001
,  // measure 16
0010
0200
0000
0000
,  // measure 17
0310
0100
0110
0010
,  // measure 18
0001
0100
0101
0001
,  // measure 19
0010
0100
1100
1000
,  // measure 20
0010
0100
0110
0010
,  // measure 21
0010
0010
0110
0100
,  // measure 22
0001
1000
1001
0001
,  // measure 23
0010
0100
0110
0010
,  // measure 24
0100
1000
1000
1000
,  // measure 25
1000
0002
0000
0203
,  // measure 26
0000
0320
0000
0200
,  // measure 27
0330
0002
0000
0023
,  // measure 28
0000
0230
0000
0320
,  // measure 29
0000
0032
0000
0203
,  // measure 30
0000
0320
0000
0230
,  // measure 31
0000
0302
0000
2003
,  // measure 32
0000
3200
0010
0010
,  // measure 33
0310
0001
0010
0001
,  // measure 34
0010
0001
0010
0001
,  // measure 35
0010
0100
1000
0100
,  // measure 36
1000
0100
1000
0100
,  // measure 37
1000
0010
1000
0010
,  // measure 38
1000
0010
1000
0010
,  // measure 39
1000
0001
0100
0001
,  // measure 40
0100
0001
0100
0001
,  // measure 41
0001
0020
0000
0000
,  // measure 42
0000
0000
0030
0100
,  // measure 43
0100
0200
0000
0000
,  // measure 44
0000
0000
0300
0010
,  // measure 45
0010
0020
0000
0000
,  // measure 46
0000
0000
0030
0100
,  // measure 47
0100
0200
0000
0000
,  // measure 48
0300
0020
0030
0200
,  // measure 49
0300
1000
1000
1001
,  // measure 50
0000
0001
0001
1000
,  // measure 51
1000
0001
0010
0100
,  // measure 52
1000
0010
0010
0100
,  // measure 53
0100
0002
0023
0230
,  // measure 54
2300
3010
0010
0100
,  // measure 55
0100
0002
2003
3020
,  // measure 56
0230
0301
0001
1000
,  // measure 57
1000
0002
0203
2300
,  // measure 58
3200
0310
0010
1000
,  // measure 59
1000
0200
0320
0032
,  // measure 60
0203
0301
0001
1000
,  // measure 61
1000
0200
0320
0230
,  // measure 62
2300
3010
0100
0001
,  // measure 63
0010
0002
0203
2300
,  // measure 64
3200
0310
1000
0100
,  // measure 65
0010
0200
0320
0032
,  // measure 66
2003
3010
0100
0010
,  // measure 67
1000
0002
0000
1003
,  // measure 68
1001
0000
0000
0000
;

//---------------dance-single - ----------------
#NOTES:
     dance-single:
     :
     Medium:
     7:
     0.427,0.471,0.009,0.263,0.009:
0200
0000
0000
0000
,
0000
0000
1000
1000
,
2300
0000
0000
0000
,
0000
0000
0010
0010
,
3020
0000
0000
0000
,
0000
0000
0001
0001
,
0032
0000
0000
0000
,
0203
0000
0020
0000
,
0330
0000
0100
0001
0100
0000
0010
1000
,
0100
0000
0010
0100
0010
0000
0001
1000
,
0010
0000
1000
0100
1000
0000
0001
0100
,
0010
0000
0100
0001
0100
0000
0001
0010
,
0100
1000
0010
0100
0010
0000
0100
0001
,
0100
0000
0001
1000
0001
0000
1000
0100
,
1000
0000
0010
0100
0010
0000
1000
0001
,
1000
0000
0100
1000
0001
0010
0001
0100
,
0010
0000
0100
0001
0100
0000
0010
1000
,
0010
0000
1000
0100
1000
0000
0001
0010
,
0001
0000
0100
0001
0100
0000
0010
1000
,
0010
0000
1000
0100
1000
0000
0001
0010
,
1000
0010
0001
1000
0001
0000
0100
0010
,
0100
0000
0001
0100
0001
0000
1000
0100
,
1000
0000
0001
0010
0100
0000
0010
0001
,
0100
0000
0010
0100
0010
0100
0001
1000
,
0001
1000
0200
0000
0000
0000
0302
0000
,
0000
0023
0000
2030
,
0000
3200
0000
0320
,
0000
0230
0000
2300
,
0000
3020
0000
0032
,
0000
0203
0000
0302
,
0000
0023
0000
2030
,
0000
0001
0001
3001
,
1001
0000
1000
0100
0010
0001
0010
0000
,
0010
0000
0001
0010
0100
1000
0100
0000
,
0100
0000
1000
0010
0100
0001
0100
0000
,
0100
0000
0001
0100
0010
1000
0010
0000
,
0010
0000
1000
0100
0010
0001
0010
0000
,
0010
0000
0001
0100
0010
1000
0010
0000
,
0010
0000
0001
0010
0100
1000
0100
0000
,
0100
0000
1000
0010
0100
0001
0100
0000
,
0100
0020
0000
0000
,
0000
0000
0000
0100
,
1000
0230
0000
0000
,
0000
0000
0000
1000
,
0001
0320
0000
0000
,
0000
0000
0000
0100
,
1000
0230
0000
0000
,
0000
0302
0000
2000
,
3003
0000
0010
0100
0010
0100
0010
0000
,
0010
0000
1000
0001
1000
0001
0010
0001
,
0010
0001
0010
0100
1000
0010
0100
0000
,
0000
0000
0010
0000
0100
0000
0010
0100
,
0001
1000
0200
0000
0010
0000
1000
0000
,
0310
0000
0001
0010
0001
0000
0100
0010
,
0100
0001
0020
0000
1000
0000
0001
0000
,
0130
0000
1000
0010
1000
0000
0001
0010
,
0100
0010
0002
0000
0100
0000
0010
0000
,
0103
0000
0010
0100
0010
0000
1000
0100
,
0010
0100
2000
0000
0001
0000
0010
0000
,
3001
0001
0010
0001
0100
0000
0010
0100
,
0001
0001
1000
0100
0010
0000
0100
1000
,
0010
0010
0100
1000
0100
0000
0001
0010
,
0100
0100
0010
0001
0100
0000
0001
0001
,
1000
1000
0100
0010
0100
1000
0010
0100
,
0100
0000
0010
0100
0001
1000
0100
0010
,
0010
0000
0100
1000
0100
1000
0001
0010
,
0001
0000
0010
0000
0001
0000
0000
0100
0000
0000
0010
0000
0000
0100
0000
0000
,
0001
1000
0000
0000
0000
0000
0000
0000
;

//---------------dance-single - ----------------
#NOTES:
     dance-single:
     :
     Hard:
     10:
     0.742,1.000,0.123,0.763,0.671:
2000
0000
0000
0000
,
0000
0000
0000
0000
3010
0100
0001
0010
,
0100
0010
0200
0000
0000
0000
0000
0000
0000
0000
0000
0000
0000
0000
0000
0000
,
0000
0000
0000
0000
0310
0001
0100
1000
,
0100
0010
0200
0000
0000
0000
0000
0000
0000
0000
0000
0000
0000
0000
0000
0000
,
0000
0000
0000
0000
0301
0010
1000
0010
,
0002
0000
0000
0000
,
0203
0000
0020
0000
,
0000
0330
0000
0000
0100
0010
0100
0000
0001
0000
0000
0010
0000
0100
0000
0010
,
0000
0000
0001
0000
0010
0100
0010
0000
0100
0000
0000
1000
0000
0010
0000
0100
,
0000
0000
0010
0000
1000
0010
1000
0000
0001
0000
0000
0010
0000
0100
0000
0010
,
0000
0000
0001
0000
0100
0001
0100
0000
0010
0000
0000
0000
1000
0000
0100
0000
,
0010
0000
0100
0000
1000
0010
1000
0000
0001
0000
0000
0100
0000
0010
0000
0100
,
0000
0000
0001
0000
0010
0100
0010
0000
0001
0000
0000
0100
0000
1000
0000
0100
,
0000
0000
0001
0000
1000
0100
1000
0000
0010
0000
0000
1000
0000
0100
0000
0001
,
0000
0000
0100
0000
0010
0000
0010
0000
0001
0000
0001
0000
0100
0000
0020
0230
,
0320
0030
2000
3000
0100
1000
0100
0000
1000
0000
0010
0100
0000
0010
0000
1000
,
0000
0000
0100
0000
0010
0100
0010
0000
0100
0000
1000
0001
0000
0100
0000
1000
,
0000
0000
0100
0000
0010
0100
0010
0000
1000
0000
0001
0010
0000
1000
0000
0010
,
0000
0000
0001
0000
0100
0010
0100
0000
0001
0000
0000
0000
0010
0001
0010
0000
,
1000
0010
1000
0000
0010
0100
0010
0000
1000
0000
0001
0010
0000
1000
0000
0010
,
0000
0000
0001
0000
0100
0010
0100
0000
0001
0000
1000
0100
0000
0010
0000
0100
,
0000
0000
1000
0000
0010
0100
0010
0000
1000
0000
0010
0001
0000
0010
0000
0100
,
0000
0000
0001
0000
0010
0100
0010
0000
1000
0001
1000
0000
0001
0100
0001
0000
,
1000
0010
1000
0000
0020
0000
0000
0100
0000
0000
0100
0000
0230
0000
0000
1000
,
0000
0000
1000
0000
2300
0000
0000
0010
0000
0000
0010
0000
3010
0000
0000
0000
,
0011
0000
0000
0000
2100
0000
0000
0100
0000
0000
0100
0000
3200
0000
0001
0000
,
0000
0000
0000
0001
0000
0000
0000
0000
0000
0000
0000
0000
0302
0000
0000
0000
0000
0000
0000
0000
0000
0010
0000
0000
0000
0000
0000
0000
0000
0000
0013
0000
0000
0000
0000
0000
1010
0000
0000
0000
0000
0000
0000
0000
0110
0000
0000
0000
,
0000
0000
0000
0000
0101
0000
0000
0000
0000
0000
0000
0000
0012
0000
0000
0000
0000
0000
0000
0000
0000
0010
0000
0000
0000
0000
0000
0000
0000
0000
0010
0000
0000
0000
0000
0000
0023
0000
0000
0000
0000
0000
0000
0000
0000
0100
0000
0000
,
0000
0000
0130
0000
2001
0000
0000
0010
0000
0000
0010
0000
3020
0000
0000
0100
,
0000
0000
0130
0000
0102
0000
0000
1000
0000
0000
1003
0000
2100
0000
0000
0001
,
0000
0000
3001
0000
0100
0000
0020
0030
0100
0000
0020
0030
0100
0000
0010
0100
,
0010
1000
0100
0010
0010
0100
1000
0010
,
0010
0100
1000
0100
0100
0001
0010
1000
,
1000
0010
0001
0100
0100
0001
0010
0100
,
0100
0010
0001
0100
0100
1000
0100
0001
,
0001
0000
1000
0000
0100
0000
0010
0100
0010
0000
0100
0000
1000
0000
0010
0100
,
0010
0000
0100
0000
0001
0000
0010
1000
0010
0000
0001
0000
0100
0000
0010
0100
,
0010
0000
1000
0000
0100
0000
0001
0100
0001
0000
0100
0000
1000
0000
0010
0100
,
0010
0000
1000
0000
0001
0000
0010
0001
0010
0000
0001
0000
0200
0300
0000
0010
,
0000
0010
2000
0100
0000
0001
0000
0010
,
0000
0100
0000
0100
0000
3010
0100
0001
,
0010
0000
1000
0000
0010
0100
0020
0000
0000
0000
0001
0000
0000
0000
1000
0000
,
0000
0100
0000
0100
0000
0031
0010
0100
,
1000
0000
0010
0000
0100
0001
0200
0000
0000
0000
0000
0000
0000
0000
0000
0000
,
0000
0000
0000
0000
0000
0000
0310
1000
,
0100
0001
0200
0000
0000
0000
0000
0000
,
0000
2300
0000
0020
,
3030
0000
0000
0000
0100
0010
0100
0010
0100
0010
0100
0010
0100
0000
0000
0100
,
0000
0000
0100
0000
0001
0000
0010
0100
0010
0000
1000
0001
1000
0000
0010
0100
,
0010
0000
1000
0010
1000
0000
0010
0000
0100
0000
0001
0000
2000
0000
0100
0000
,
0010
0000
3001
0000
1000
0000
0010
0100
0000
0010
0000
1000
0000
0100
0000
0010
,
0000
0100
1000
0000
0010
0000
0000
0010
0100
0000
1000
0000
0100
0000
0001
0000
,
0010
0000
0100
0000
0010
0000
0001
0100
0000
1000
0000
0100
0000
0010
0000
1000
,
0000
0100
0001
0000
0100
0000
0000
0100
0010
0000
0001
0000
0100
0010
0000
0010
,
0100
0000
0001
0000
0010
0000
0100
0010
0000
0001
0000
0100
0000
1000
0000
0100
,
0000
0010
1000
0000
0100
0000
0000
0100
0010
0000
0100
0000
1000
0000
0010
0000
,
0001
0000
0010
0000
1000
0000
0100
0010
0000
0100
0000
1000
0000
0010
0000
0001
,
0000
0010
0000
0100
0000
0000
0000
0101
0000
0000
0010
0000
0000
0100
2000
3200
,
2300
3000
0020
0030
0100
0000
1000
0100
0000
0001
0000
0010
0000
0100
0020
0230
,
0320
0030
0002
0003
0100
0000
0000
0100
0010
0000
1000
0000
0001
0000
0020
0230
,
0320
0030
0002
0003
0100
0000
1000
0100
0000
0010
0000
1000
0000
0100
0020
0230
,
0320
0030
0200
0300
0010
0000
0000
0010
0001
0000
0200
0320
0230
0300
0200
0300
,
0200
0300
0020
0030
1000
0000
0100
0001
0000
0100
0000
1000
0000
0010
0200
0320
,
2030
3000
0200
0300
0010
0000
0000
0010
0100
0000
2000
3020
2030
3000
2000
3000
,
2000
3000
0020
0030
0200
0302
0203
0300
0020
2030
3020
0030
2000
3200
2300
3000
,
0002
0023
0032
0003
2002
3003
0000
0202
0303
0000
2020
3030
0000
2000
3200
0300
,
0020
0030
0220
0330
0000
0000
0000
0000
0000
0000
0000
0000
0000
0000
0000
0000
;
