#TITLE:Senritsu no dogma;
#SUBTITLE:~Miserables~;
#ARTIST:Prim = Siegfried = Faielrozen;
#TITLETRANSLIT:;
#SUBTITLETRANSLIT:;
#ARTISTTRANSLIT:;
#CREDIT:Grithokskulk;
#BANNER:Senritsu no dogma ~Miserables~.png;
#BACKGROUND:Senritsu no dogma ~Miserables~-bg.png;
#LYRICSPATH:;
#CDTITLE:beatmania IIDX.png;
#MUSIC:Senritsu no dogma ~Miserables~.mp3;
#OFFSET:-10.712;
#SAMPLESTART:61.835;
#SAMPLELENGTH:15.000;
#SELECTABLE:YES;
#BPMS:0.000=192.000,260.000=96.000,268.000=192.000,372.000=96.000;
#STOPS:;
#BGCHANGES:;

//---------------dance-single - ----------------
#NOTES:
     dance-single:
     :
     Easy:
     4:
     0.305,0.343,0.254,0.225,0.000: // measure 1
2000
0000
0000
0000
,  // measure 2
3000
0000
0002
0003
,  // measure 3
0020
0000
0000
0030
,  // measure 4
0200
0000
0300
0000
,  // measure 5
0110
0000
1001
0000
,  // measure 6
0110
0000
1001
0000
,  // measure 7
0011
0000
1100
0000
,  // measure 8
2002
0000
3003
0000
,  // measure 9
0100
0001
1000
0000
,  // measure 10
0100
1000
0100
0000
,  // measure 11
1000
0010
0100
0000
,  // measure 12
0001
0010
0001
0000
,  // measure 13
0010
0010
0100
0100
,  // measure 14
1000
0001
1000
0000
,  // measure 15
0010
0010
0100
0100
,  // measure 16
0001
0000
1001
0000
,  // measure 17
2000
0000
3000
0100
,  // measure 18
0100
0000
0010
0000
,  // measure 19
0200
0000
0300
0000
,  // measure 20
0010
0010
0000
0100
,  // measure 21
0100
0000
1000
0000
,  // measure 22
0001
0000
0100
0000
,  // measure 23
0110
0000
0000
0000
,  // measure 24
1001
0000
0000
0000
,  // measure 25
1000
0100
1000
0100
,  // measure 26
1000
0100
1000
0100
,  // measure 27
0010
0100
0010
0100
,  // measure 28
0010
0000
0110
0000
,  // measure 29
0001
0100
0001
0100
,  // measure 30
0001
0100
0001
0100
,  // measure 31
0001
1000
0001
1000
,  // measure 32
0001
0000
1001
0000
,  // measure 33
1100
0000
0110
0000
,  // measure 34
0011
0000
1001
0000
,  // measure 35
0002
0003
1000
1000
,  // measure 36
0200
0300
0010
0100
,  // measure 37
1100
0000
0110
0000
,  // measure 38
1100
0000
1010
0000
,  // measure 39
0110
0000
0000
0001
,  // measure 40
2002
0000
0000
0000
,  // measure 41
3003
0000
0000
0000
,  // measure 42
1000
0100
1000
0100
,  // measure 43
0010
0100
0010
0100
,  // measure 44
1000
0000
0001
0000
,  // measure 45
0110
0000
1001
0000
,  // measure 46
0220
0330
0000
0001
,  // measure 47
0010
0000
0100
0000
,  // measure 48
0010
0001
0010
0000
,  // measure 49
0100
1000
0100
0000
,  // measure 50
1000
0010
0100
0010
,  // measure 51
1000
0010
0100
0100
,  // measure 52
0001
0010
0100
0000
,  // measure 53
0010
0001
0010
0000
,  // measure 54
2002
3003
0000
1000
,  // measure 55
1000
0000
0010
0000
,  // measure 56
0100
0010
0100
0000
,  // measure 57
0001
0000
1001
0000
,  // measure 58
2000
0000
0000
0000
,  // measure 59
3000
0000
0000
0001
,  // measure 60
0002
0000
0000
0003
,  // measure 61
0020
0000
0000
0030
,  // measure 62
0010
0000
0110
0000
,  // measure 63
0100
0000
1100
0000
,  // measure 64
1000
0000
1001
0000
,  // measure 65
0220
0000
0330
0000
,  // measure 66
0200
0300
0020
0030
,  // measure 67
2000
3000
0002
0003
,  // measure 68
0010
0000
0100
0000
,  // measure 69
0010
0000
0001
0000
,  // measure 70
1000
1000
1000
0000
,  // measure 71
0010
0010
0010
0000
,  // measure 72
0000
0000
0000
0000
,  // measure 73
0000
0000
0000
0000
,  // measure 74
0100
0001
0100
0001
,  // measure 75
1000
0001
0010
0010
,  // measure 76
0100
1000
0001
1000
,  // measure 77
0010
1000
0100
0100
,  // measure 78
0020
0030
0000
0100
,  // measure 79
0010
0000
0001
0000
,  // measure 80
0100
0010
0100
0000
,  // measure 81
0001
1000
0001
0000
,  // measure 82
1000
0010
0100
0010
,  // measure 83
0001
0010
1000
0010
,  // measure 84
0100
0001
0010
0100
,  // measure 85
1000
0100
0001
0010
,  // measure 86
0200
0300
0000
0010
,  // measure 87
0100
0000
1000
0000
,  // measure 88
0001
1000
0001
0000
,  // measure 89
0100
0010
0100
0000
,  // measure 90
2002
3003
0000
0000
,  // measure 91
0110
0000
0000
0000
,  // measure 92
1001
0000
0110
0000
,  // measure 93
0001
0010
0100
1000
,  // measure 94
0020
0030
0100
0100
,  // measure 95
0002
0000
0003
0000
;

//---------------dance-single - ----------------
#NOTES:
     dance-single:
     :
     Medium:
     6:
     0.477,0.445,0.239,0.203,0.000:
1000
0100
0000
0001
,
0100
0000
0010
0000
0001
0010
0001
0000
,
0100
0010
0000
0010
,
0100
0000
0001
0000
1000
0100
1000
0000
,
1001
0000
0000
0110
0000
0000
0001
0000
,
0011
0000
0000
1100
0000
0000
0010
0000
,
0110
0000
0000
1001
0000
0000
0100
0000
,
0220
0000
0330
0000
,
0001
0000
0010
0000
0100
0010
0100
0000
,
0010
0001
0100
0000
,
0001
0000
1000
0000
0010
0100
0010
0000
,
1000
0100
0010
0000
,
0100
1000
0100
0000
1000
0100
1000
0000
,
0010
0001
0010
0000
0001
0010
0001
0000
,
0100
0000
0100
0010
0000
0000
0110
0000
,
0001
0010
0100
1000
0000
0000
0001
0000
,
0002
0010
0100
0013
,
2000
0010
0100
3010
,
0100
0010
0100
0000
0001
0000
0010
0000
,
0100
1000
0100
0000
1000
0000
0000
0000
,
0001
0100
0001
0000
0100
0001
0100
0000
,
0001
0010
0001
0000
0010
0001
0010
0000
,
0100
0010
0200
0000
0000
0000
0010
0000
,
0320
0000
0100
0130
,
1000
0100
1000
0000
0100
1000
0100
0000
,
1000
0100
1000
0000
0100
1000
0100
0000
,
0001
0100
0001
0000
0100
0001
0100
0000
,
0002
0000
0000
0103
0000
0000
0001
0000
,
0010
0100
0010
0000
0100
0010
0100
0000
,
0010
0100
0010
0000
0100
0010
0100
0000
,
0001
0010
0001
0000
0010
0000
0001
0200
,
0000
0000
0000
0310
0000
0000
0100
0000
,
0110
0000
0000
1001
0000
0000
0110
0000
,
0000
1001
0000
0000
0100
0000
1000
0000
,
0010
0000
0100
0000
0010
0100
0010
0000
,
1000
0000
0001
0000
0010
0001
0010
0000
,
0011
0000
0000
1100
0000
0000
1010
0000
,
0000
0101
0000
0000
0010
0100
0010
0000
,
0001
0100
0100
0010
,
1000
0100
1000
0000
0001
0100
0002
0000
,
0000
0003
0000
0000
0000
0000
0000
0000
,
1000
0000
0100
1000
0000
0100
0000
0010
,
0000
0100
0000
1000
0010
0000
0100
0000
,
0001
0000
0010
0001
0000
0100
0000
0010
,
0100
0010
0000
0000
0000
0000
0000
0000
,
0200
0000
0310
0000
0000
0000
1000
0100
,
1000
0000
0001
0010
0001
0000
1000
0000
,
0100
0000
0000
0010
0010
0000
0000
0100
,
0100
1000
0001
1001
,
0001
0100
0001
0100
0000
0001
0000
0010
,
0000
0100
0000
0010
0001
0000
1000
0000
,
0010
0000
0100
0010
0000
1000
0000
0100
,
0010
0200
0000
0000
0010
0000
0310
0000
,
0002
0000
1003
0000
0000
0001
1000
0001
,
1000
0000
0000
0010
0000
0000
0100
0000
,
0001
0010
0001
0010
0000
0000
0100
0000
,
0010
0100
0110
0000
,
2000
0100
0010
0001
,
0010
0010
0100
3100
,
0002
0100
0010
0103
,
0020
0100
0100
0130
,
0110
0000
0000
1001
0000
0000
0010
0000
,
1010
0000
0000
0101
0000
0000
0010
0000
,
0011
0000
0000
1100
0000
0000
0001
0000
,
0220
0000
0330
0000
,
2000
3010
0020
0130
,
0200
0000
0301
0000
0001
0010
0100
0000
,
0010
0001
0010
0000
0002
0000
0000
0003
,
1000
0001
1000
0000
0020
0000
0030
0000
,
0100
0010
0100
0000
0001
1000
0001
0000
,
0010
0001
0010
0000
0100
1000
0100
0020
,
0000
0000
0000
0000
,
0200
0000
0330
0000
,
0100
0001
0100
0001
0000
0010
0000
0100
,
0000
0010
0000
0001
0100
0001
0100
0000
,
0010
0000
1000
0100
0000
0010
0000
0100
,
1000
0000
0010
0000
0100
0010
0100
0000
,
2002
0000
3003
0000
0001
0010
0001
0000
,
0010
0100
0010
0001
,
0100
0010
0100
0000
0001
1000
0001
0000
,
1000
0000
0100
1000
0000
0010
1000
0000
,
0010
0100
0010
0100
0000
0001
0000
0010
,
0000
0100
0000
0010
0001
0010
0001
0000
,
1000
0010
1000
0010
0000
0100
0000
0010
,
1000
0000
0100
0000
0010
0100
0010
0000
,
2002
3003
0000
0001
,
0100
0010
0100
0000
0001
0010
0001
0000
,
1000
0100
0010
0001
0000
0000
0100
0000
,
0010
0100
0010
0000
1000
0000
1000
0000
,
1001
0000
0000
0000
1000
0100
1000
0000
,
1010
0000
0000
0000
0010
0100
0010
0000
,
0110
0000
1001
0000
,
0001
0010
0001
0000
1000
0010
1000
0000
,
0110
0000
0000
0001
0010
0000
0100
0000
,
0010
0000
1001
0000
;

//---------------dance-single - ----------------
#NOTES:
     dance-single:
     :
     Hard:
     9:
     0.700,0.685,0.152,0.174,0.152:
1000
0000
0100
0001
0000
0100
0010
0001
,
0100
0000
0010
0100
0000
0001
0010
1000
,
0010
0000
0100
1000
0000
0010
0001
0010
,
0100
0000
0001
0010
0000
0100
1000
0000
,
0010
0100
0010
0000
0000
0000
0100
0001
0100
0000
0000
0000
0001
0010
0001
0000
,
0010
0100
0010
0000
0000
0000
0001
0010
0001
0000
0000
0000
1000
0010
1000
0000
,
0010
0100
0010
0000
0000
0000
1000
0001
1000
0000
0000
0000
0100
0010
0100
0000
,
2000
0000
3000
0000
0001
0010
0100
0010
,
0002
0000
0103
0000
0010
0100
0010
1000
,
0200
0000
1300
0000
0100
0010
0001
0100
,
0010
0000
0100
0001
0010
0000
0001
1000
,
0010
0000
0100
0010
1000
0100
0010
0001
,
0100
0000
1000
0000
0100
0010
1000
0100
,
0010
0000
1000
0000
0010
0001
0100
0000
,
0010
0100
0001
0000
0010
0100
1000
0000
,
0010
0100
0010
0100
0000
0100
0001
0010
,
0200
0000
0001
0000
1300
0000
0010
0100
,
0020
0000
0001
0000
1030
0010
0100
0001
,
0000
0001
0010
0000
0100
0010
0001
1000
,
0000
0010
0100
0000
0010
1000
0100
0010
,
0001
0000
0100
1000
0000
1000
0100
0001
,
0000
0001
0010
0100
0010
0000
0001
0000
,
0010
0001
0020
0000
0100
0000
0000
0000
0001
0000
0000
0000
0031
0000
0000
0000
,
0110
0000
0001
0101
0000
1000
1000
0000
,
0100
0001
0100
1000
0100
0001
0100
0010
,
0100
1000
0100
0001
0100
0010
0100
0010
,
0100
1000
0010
0001
0010
0000
0100
0001
,
0000
0001
1000
0100
0000
1000
0010
0000
,
1000
0010
0001
0010
0100
0010
1000
0010
,
0100
0010
1000
0010
0001
0010
0100
0010
,
1000
0001
0010
0000
0100
0010
0001
0101
,
0000
0001
1000
1001
0000
1000
0100
0000
,
0110
0000
0100
1100
0000
1000
1010
0000
,
0010
0110
0000
0100
0101
0000
0011
0000
,
0001
0010
0100
0000
0100
0010
0001
0100
,
0020
0000
1030
0010
0000
0010
1000
0100
,
0110
0000
0001
0011
0000
0100
0110
0000
,
0001
1001
0000
1000
0100
0001
0100
1000
,
0010
0000
0100
0010
0100
0000
0101
0000
,
1000
0100
0010
0001
0100
0010
1000
0002
,
0000
0003
0000
0000
0000
0000
0000
0000
,
0010
0100
1000
0100
0001
0100
0010
0100
,
1000
0100
0001
0100
0010
0100
0010
0100
,
1000
0010
0001
0010
0100
0010
1000
0010
,
0001
0010
0100
0010
1000
0001
0010
0100
,
0020
0000
0031
0000
0100
0010
0100
0001
,
1000
0000
0100
0100
0000
0010
0100
0000
,
1000
0010
0001
0010
0100
0000
0001
0000
,
0010
0001
0010
0000
0000
0000
1000
0010
1000
0000
0000
0000
0010
0100
0010
0000
,
1000
0010
0001
0010
1000
0010
0001
0010
,
0100
0010
1000
0010
0100
0010
0100
0010
,
1000
0100
0001
0100
1000
0100
0010
0100
,
1000
0100
0001
0100
0010
0100
1000
0100
,
0020
0000
0031
0000
0100
1000
0100
0010
,
1000
0000
0100
0100
0000
0010
0100
0000
,
1000
0010
0001
0010
0000
0100
0100
0000
,
0001
0010
0010
0000
0100
0010
0001
0100
,
0102
0000
1003
0100
0001
0100
0010
0100
,
1000
0010
0100
0010
1000
0010
0001
0010
,
0200
0000
0301
0010
0100
0010
0001
0100
,
0002
0000
1003
0100
0010
0100
1000
0000
,
0010
0001
0010
0000
0000
0000
1000
0010
1000
0000
0000
0000
0001
0100
0001
0000
,
1000
0100
1000
0000
0000
0000
0001
0010
0001
0000
0000
0000
1000
0010
1000
0000
,
0010
0100
0010
0000
0000
0000
1000
0001
1000
0000
0000
0000
0100
0010
0100
0000
,
2000
0000
3000
0000
,
0002
0000
0100
0100
0000
0010
0013
0000
0200
0000
0001
0001
0000
1000
1300
0000
,
0100
0001
0100
2000
0000
0000
0010
0000
0100
0000
0100
0000
0010
0000
0100
0000
,
3010
0001
0100
0010
0000
0010
0100
0000
,
0001
1000
0100
0001
0000
0001
0100
0000
,
1000
0010
1000
0000
0000
0000
0001
0100
0001
0000
0000
0000
0010
0001
0010
0000
,
0100
0010
0100
0000
0000
0000
1000
0001
1000
0000
0000
0000
0010
0100
0020
0000
,
0000
0000
0000
0000
,
0200
0000
0000
0000
0330
0000
0001
0010
,
0100
0001
0100
1000
0100
0010
0100
1000
,
0100
0001
0100
0010
0100
1000
0100
1000
,
0010
0001
0010
1000
0010
0100
0010
1000
,
0010
0001
0010
0100
0010
1000
0010
0001
,
0120
0000
1030
0000
0100
0001
0100
0010
,
0001
0000
0100
0100
0000
0010
0010
0000
,
0100
0001
1000
0100
0010
0000
0100
1000
,
0001
0100
0001
0000
0000
0000
1000
0100
1000
0000
0000
0000
0010
0100
0010
0000
,
0100
1000
0100
0001
0100
0010
0100
1000
,
0100
0001
0100
0010
0100
0001
0100
0001
,
0010
1000
0010
0001
0010
0100
0010
0001
,
0010
1000
0010
0001
0010
0100
0010
0001
,
0012
0000
1003
0000
0010
0100
1000
0100
,
0001
0000
0010
0010
0000
0100
0100
0000
,
0010
0001
0100
1000
0000
0100
0100
0000
,
0010
1000
0100
0010
0100
1000
0001
0010
,
0011
0000
0001
0001
0000
0100
0010
0100
,
0101
0000
1000
1000
0000
0100
0010
0000
,
0100
1000
0010
0100
0001
0010
0100
0010
,
0001
0100
0010
1000
0100
0010
0100
1000
,
2200
0000
0000
0000
3300
0001
0010
0100
0010
0000
0000
0010
0001
0000
0100
0000
,
0010
0100
0001
2000
0000
0000
0000
0000
3100
0000
0000
0000
0000
0000
0000
0000
;
