#TITLE:Sayonara Heaven;
#SUBTITLE:;
#ARTIST:Nekomata Master;
#TITLETRANSLIT:;
#SUBTITLETRANSLIT:;
#ARTISTTRANSLIT:;
#CREDIT:Grithokskulk;
#BANNER:Sayonara Heaven.png;
#BACKGROUND:Sayonara Heaven-bg.png;
#LYRICSPATH:;
#CDTITLE:pop'n music.png;
#MUSIC:Sayonara Heaven.mp3;
#OFFSET:-7.471;
#SAMPLESTART:69.615;
#SAMPLELENGTH:15.000;
#SELECTABLE:YES;
#BPMS:0.000=111.000;
#STOPS:;
#BGCHANGES:;

//---------------dance-single - ----------------
#NOTES:
     dance-single:
     :
     Easy:
     3:
     0.224,0.269,0.096,0.192,0.000: // measure 1
0000
0000
0000
0000
,  // measure 2
1001
0000
0010
0000
,  // measure 3
0100
0000
0010
1000
,  // measure 4
0100
0000
0010
0100
,  // measure 5
2000
0000
0000
3001
,  // measure 6
0002
0003
0100
0010
,  // measure 7
2000
3000
0100
1000
,  // measure 8
0001
0001
0010
0010
,  // measure 9
0200
0300
0010
0001
,  // measure 10
0020
0030
0001
0100
,  // measure 11
0020
0030
1000
0001
,  // measure 12
1000
0100
0010
0000
,  // measure 13
0100
0100
0100
0000
,  // measure 14
1000
0010
1000
0000
,  // measure 15
0001
0000
0100
0000
,  // measure 16
0010
0100
0001
0000
,  // measure 17
0010
0100
0010
0000
,  // measure 18
0100
1000
0100
0000
,  // measure 19
2000
3000
0002
0003
,  // measure 20
0100
0001
0010
0000
,  // measure 21
0100
0000
0110
0000
,  // measure 22
0001
0000
1001
0000
,  // measure 23
0100
0100
0010
0010
,  // measure 24
2000
3200
0320
0032
,  // measure 25
0103
0000
0110
0000
,  // measure 26
0001
0000
1001
0000
,  // measure 27
1000
0100
1000
0010
,  // measure 28
0200
0300
0020
0030
,  // measure 29
0110
0000
1001
0010
,  // measure 30
0100
0100
0010
0010
,  // measure 31
0100
0100
0010
0001
,  // measure 32
0100
0100
0010
0010
,  // measure 33
1000
0100
0010
0100
,  // measure 34
1000
1000
0001
0001
,  // measure 35
1000
1000
0001
0100
,  // measure 36
0010
0010
0100
0100
,  // measure 37
0001
1000
0100
1000
,  // measure 38
0010
0010
0100
0100
,  // measure 39
0010
0010
0100
0001
,  // measure 40
1000
1000
0100
0100
,  // measure 41
1000
0001
0100
0010
,  // measure 42
0110
0000
1001
0000
,  // measure 43
0110
0000
1001
0000
,  // measure 44
1000
0100
0010
0100
,  // measure 45
2000
0000
3000
0001
,  // measure 46
0002
0003
0200
0320
,  // measure 47
2030
3000
0002
0023
,  // measure 48
0130
0010
0001
1000
,  // measure 49
0020
0000
0130
0001
,  // measure 50
2000
0000
3100
1000
,  // measure 51
0020
0000
0130
0001
,  // measure 52
0010
0100
1000
1001
;

//---------------dance-single - ----------------
#NOTES:
     dance-single:
     :
     Medium:
     5:
     0.340,0.310,0.048,0.384,0.000:
0000
0000
0000
0000
0000
0000
0100
0010
,
1000
0000
1000
0100
1000
0000
1000
0010
,
1000
0000
1000
0001
1000
0000
0100
0010
,
0001
0000
0001
0100
0001
0000
0001
1000
,
0002
0010
0100
0023
,
0230
0010
2300
3020
,
0230
0001
0320
2030
,
3100
0010
0100
0000
1000
0001
1000
0000
,
0002
0100
0023
0230
,
0320
0001
0032
0203
,
0320
0100
2030
3200
,
0301
0100
1000
0010
0100
0000
0110
0000
,
0001
0000
0000
0001
0010
0000
0000
0010
,
0100
0000
0000
0100
0010
0000
0000
0010
,
0001
0000
0000
0001
0100
0000
0000
0100
,
0010
0000
0000
0010
0100
0000
0000
0100
,
0001
0000
0000
0001
1000
0000
0000
1000
,
0100
0000
0000
0100
0010
0000
0000
0010
,
0100
0000
0000
0100
1000
0000
0000
1000
,
0010
0000
0100
0010
0100
0000
0110
0000
,
0002
0000
0000
0000
0000
1000
1003
0000
,
0200
0000
0000
0000
0000
0010
0310
0000
,
0001
0010
0100
1000
,
0020
0230
0302
2003
,
3200
0000
0000
0000
0000
0010
0310
0000
,
0002
0000
0000
0000
0000
1000
1003
0000
,
0020
0230
2300
3200
,
0320
0000
0200
0330
,
0001
0000
0000
0000
1000
0000
0001
1000
,
0100
0000
0010
0100
0010
0000
0001
1000
,
0001
0000
0100
0010
0100
0000
0001
0010
,
0100
0000
1000
0010
1000
0000
1000
0001
,
1000
0100
0010
0001
0100
0000
0001
0010
,
0001
0000
0001
0100
0001
0000
0001
1000
,
0001
0000
0001
0010
0001
0000
0010
0100
,
1000
0000
1000
0010
1000
0000
1000
0001
,
1000
0100
0010
0001
0100
0000
0010
0100
,
0010
0000
0010
1000
0010
0000
0010
0100
,
0010
0000
0010
0001
0010
0000
0010
1000
,
0100
0000
0100
0010
0100
0000
0100
0001
,
0100
0010
0001
0100
0010
0000
1000
0001
,
1000
1001
0100
0110
,
0001
0000
0011
0000
1000
0000
0010
1000
,
0100
0000
0010
0100
0010
0000
0001
0100
,
0020
0001
1000
0230
,
0302
0010
2003
3200
,
0320
0100
0230
2300
,
3010
0100
0010
0000
1000
0001
1000
0000
,
0002
0010
2003
3200
,
2300
0010
3002
0203
,
0320
0100
2030
3200
,
0310
0100
1000
0000
0001
0000
1001
0000
;

//---------------dance-single - ----------------
#NOTES:
     dance-single:
     :
     Hard:
     8:
     0.467,0.455,0.168,0.224,0.308:
0000
0000
0000
0000
0000
0000
1000
0010
,
0100
0000
0000
0100
0010
0000
1000
0000
0100
0000
0000
0100
0010
0000
0100
0000
,
1000
0000
0000
1000
0001
0000
0100
0000
0001
0000
0000
0000
0010
0000
0100
0000
,
0010
0000
0000
0010
0001
0000
0100
0000
1000
0000
0100
0000
0001
0000
0010
0000
,
0200
0001
0010
2300
,
3020
0000
0000
0000
0001
0000
0000
0000
1030
0000
0000
1000
0100
0000
0000
0100
,
0020
1000
0032
0203
,
1300
0100
0010
1000
0100
0001
0100
0010
,
0002
0100
0023
0230
,
0302
0000
0000
0000
0100
0000
0000
0000
0103
0000
0000
0100
1000
0000
0000
1000
,
0020
0000
0000
0000
0001
0000
0000
0000
2030
0000
0000
0000
3002
0000
0000
0003
,
0100
0000
1000
0000
0100
0000
0001
0000
1000
0000
0000
0001
1001
0000
0000
1000
,
0100
0000
0000
0100
0000
0000
0010
0000
0100
0000
0000
0000
1000
0000
0010
0000
,
0100
0000
0010
0000
0010
0000
0100
0000
0001
0000
0000
0001
1000
0000
0100
0000
,
0010
0000
0000
0110
0000
0000
0100
0000
1000
0000
0000
0010
0000
0000
0100
0000
,
0010
0000
0000
0010
0000
0000
1000
0000
0001
0000
0000
0000
1001
0000
0001
0010
,
0100
0000
0000
0100
0010
0000
0001
0000
0100
0000
0010
0000
0010
0000
0100
0000
,
0001
0000
1000
0000
1000
0000
0100
0000
0010
0000
0000
0010
0100
0000
1000
0000
,
0010
0000
0000
0110
0000
0000
0010
0000
1000
0000
0000
0001
0000
0000
0010
0000
,
0100
0000
0000
0010
0000
0000
0001
0000
1000
0000
0000
0001
1001
0000
0000
2000
,
0010
0000
0000
0010
0000
0000
0010
0000
3010
0000
0110
0000
0110
0000
0100
0002
,
0010
0000
0000
0010
0000
0000
0010
0000
0013
0000
0011
0000
0011
0000
0001
0200
,
0010
0000
0000
0010
0000
0000
0010
0000
0310
0000
0000
0010
0100
0000
0001
0000
,
1000
0000
0000
1000
0100
0000
0000
0100
0010
0000
0000
0010
0001
0000
0000
0002
,
0100
0000
0000
0100
0000
0000
0100
0000
0103
0000
0110
0000
0110
0000
0010
2000
,
0100
0000
0000
0100
0000
0000
0100
0000
3100
0000
0110
0000
0110
0000
0010
0002
,
0100
0000
0000
0100
0000
0000
0100
0000
0013
0000
0000
0010
0100
0000
0001
0000
,
0010
0100
0110
0000
1000
0001
1001
0000
,
0100
0000
0000
0000
0010
0000
0000
0000
0110
0000
0000
0000
0000
0000
0000
0000
1000
0000
0000
0000
0001
0000
0000
0000
1001
0000
0000
0000
0000
0000
0000
0000
0000
1000
0000
0000
0100
0000
0000
0000
0000
0000
0010
0000
0000
0000
0000
0000
,
0100
0000
0000
0100
1000
0000
0010
0000
0100
0000
0000
0100
1000
0000
0100
0000
,
0001
0000
0000
0001
0010
0000
1000
0000
0010
0000
0000
0000
0100
0000
0010
0000
,
0001
0000
0000
0001
0100
0000
0010
0000
0100
0000
0001
0000
0010
0000
1000
0000
,
0010
0010
0100
0100
1000
0000
0010
0100
,
0001
0000
0000
0001
1000
0000
0010
0000
0001
0000
0000
0001
0010
0000
0100
0000
,
0001
0000
0000
0001
0010
0000
1000
0000
0010
0000
0000
0000
0100
0000
1000
0000
,
0010
0000
0000
0010
0100
0000
1000
0000
0100
0000
0001
0000
1000
0000
0100
0000
,
0010
0010
0100
0100
1000
0010
0100
0001
,
0010
0000
0000
0010
0001
0000
0100
0000
0010
0000
0000
0010
0100
0000
0001
0000
,
1000
0000
0000
1000
0100
0000
0010
0000
0100
0000
0000
0000
1000
0000
0010
0000
,
0100
0000
0000
0100
0001
0000
0010
0000
1000
0000
0010
0000
0001
0000
0100
0000
,
0010
0000
0010
0000
0100
0000
0100
0000
1000
0000
0000
1000
0100
0000
0010
0000
,
0100
0000
0000
0110
0000
0000
0001
0000
0010
0000
0000
1100
0000
0000
0001
0000
,
0100
0000
0000
1010
0000
0000
0001
0000
0010
0000
0000
0010
0100
0000
0010
0000
,
0001
0000
0000
0001
0100
0000
0010
0100
0010
0000
1000
0000
0100
0000
0001
0000
,
0100
0000
0000
0100
0010
0000
0000
0010
0001
0000
0000
0001
0200
0000
0000
0000
,
0320
0000
0000
0000
1030
0000
0000
1000
0200
0000
0000
0000
0320
0000
0000
0000
,
0230
0000
0000
0000
1300
0000
0000
1000
0020
0000
0000
0000
0230
0000
0000
0000
,
0301
0010
1000
0010
0001
0100
1000
0100
,
0010
0000
0000
0010
1000
0000
0000
1000
0100
0000
0000
0100
0001
0000
0000
0001
,
0200
0000
0000
0000
0310
0000
0000
0000
0001
0000
0000
0001
0100
0000
0000
0100
,
2000
0000
0000
0000
3100
0000
0000
0000
0010
0000
0000
0010
1000
0000
0000
1000
,
0100
0000
0010
0000
0100
0000
1000
0000
0001
0000
0000
0100
0110
0000
0000
0000
;
