#TITLE:Sakimori renka;
#SUBTITLE:;
#ARTIST:Ax feat. Yoko Natsukawa;
#TITLETRANSLIT:;
#SUBTITLETRANSLIT:;
#ARTISTTRANSLIT:;
#CREDIT:Grithokskulk;
#BANNER:Sakimori renka.png;
#BACKGROUND:Sakimori renka-bg.png;
#LYRICSPATH:;
#CDTITLE:pop'n music.png;
#MUSIC:Sakimori renka.mp3;
#OFFSET:-5.773;
#SAMPLESTART:45.575;
#SAMPLELENGTH:15.000;
#SELECTABLE:YES;
#BPMS:0.000=170.000;
#STOPS:;
#BGCHANGES:;

//---------------dance-single - ----------------
#NOTES:
     dance-single:
     :
     Easy:
     4:
     0.276,0.290,0.161,0.144,0.000: // measure 1
0200
0000
0000
0000
,  // measure 2
0000
0000
0000
0000
,  // measure 3
0000
0000
0000
0000
,  // measure 4
0000
0300
0010
0000
,  // measure 5
1000
0000
0100
1000
,  // measure 6
0100
0000
0010
0000
,  // measure 7
0100
0000
0010
0001
,  // measure 8
0010
0000
0001
0000
,  // measure 9
0100
0010
0100
0000
,  // measure 10
0001
0000
1000
0000
,  // measure 11
0100
0010
0200
0000
,  // measure 12
0000
0000
0300
0000
,  // measure 13
0000
1000
1000
1000
,  // measure 14
0000
0001
0100
0001
,  // measure 15
0010
0000
0100
0100
,  // measure 16
0000
0020
0000
0000
,  // measure 17
0030
0001
0100
0001
,  // measure 18
0000
1000
0100
0010
,  // measure 19
0100
0000
1000
1000
,  // measure 20
0000
0002
0000
0000
,  // measure 21
0003
1001
0000
0110
,  // measure 22
0000
0001
1000
0001
,  // measure 23
0000
1000
0100
0010
,  // measure 24
0001
0100
0100
0010
,  // measure 25
0010
0110
0000
1001
,  // measure 26
0000
1000
0100
0010
,  // measure 27
0000
0002
0003
1000
,  // measure 28
0010
0200
0000
0020
,  // measure 29
0330
0100
0100
0010
,  // measure 30
0010
1000
0001
0010
,  // measure 31
0100
0010
0010
0100
,  // measure 32
0100
1000
0001
1001
,  // measure 33
0000
0001
0001
1000
,  // measure 34
1000
0010
0100
0001
,  // measure 35
1000
0100
0010
0110
,  // measure 36
0000
0100
0100
0100
,  // measure 37
0000
1000
0001
1001
,  // measure 38
0000
0010
0100
0110
,  // measure 39
0000
0002
0000
0000
,  // measure 40
0003
2000
0000
0000
,  // measure 41
3000
0200
0000
0000
,  // measure 42
0300
0020
0000
0000
,  // measure 43
0030
0200
0000
0000
,  // measure 44
0000
0000
0300
2000
,  // measure 45
0000
0000
3000
0020
,  // measure 46
0000
0030
0000
0000
,  // measure 47
0000
0000
0000
0000
,  // measure 48
0000
0000
0000
0000
,  // measure 49
0000
0000
0000
0000
,  // measure 50
0000
0000
0000
0000
,  // measure 51
0000
0110
0000
1001
,  // measure 52
0000
0010
0100
0010
,  // measure 53
0000
0001
0010
0100
,  // measure 54
1000
0010
0010
0100
,  // measure 55
0100
1001
0000
0110
,  // measure 56
0000
0001
0010
0001
,  // measure 57
0000
2000
3000
0001
,  // measure 58
0100
0020
0000
0200
,  // measure 59
0330
0001
0001
1000
,  // measure 60
1000
0100
0010
0100
,  // measure 61
1000
0010
0010
0100
,  // measure 62
0100
0001
1000
1001
,  // measure 63
0000
1000
1000
0001
,  // measure 64
0001
0010
0100
0010
,  // measure 65
0001
0100
0100
0010
,  // measure 66
0010
1000
0001
1001
,  // measure 67
0000
0000
1001
0000
,  // measure 68
0110
0000
0001
1000
,  // measure 69
0010
0000
1001
0000
,  // measure 70
1000
0100
0010
0100
,  // measure 71
0100
0010
0100
1000
,  // measure 72
0001
0100
1000
0100
,  // measure 73
0001
0010
0100
0100
,  // measure 74
0010
0001
1000
1001
,  // measure 75
0000
0100
0010
1000
,  // measure 76
0001
0010
0010
0110
;

//---------------dance-single - ----------------
#NOTES:
     dance-single:
     :
     Medium:
     6:
     0.396,0.386,0.093,0.280,0.000:
0200
0000
0000
0000
0000
0000
0000
0302
,
0000
0000
0000
0003
,
0000
0000
0000
0000
0000
0020
0000
0000
,
0000
0000
0230
0000
,
0320
0000
0000
0032
0000
0000
0100
0000
,
1000
0000
0100
0003
1000
0000
2000
0000
,
0100
3200
0010
0310
,
0002
0000
0003
0000
2000
0000
3000
0020
,
0000
0100
0100
0130
,
0001
0002
0013
0020
,
0130
0200
2300
0000
,
0000
0000
3000
0000
,
0000
1000
0001
1001
,
0000
0001
0000
0010
0100
0000
0010
0000
,
0001
0000
0100
0100
,
0010
0200
0000
0000
0000
0000
0000
0000
,
0300
0001
0010
0110
,
0000
0010
0000
0010
0001
0000
0100
0000
,
0010
0000
1000
1000
,
0001
2000
0000
0000
0000
0000
0000
0000
,
3000
0000
1001
0000
0001
0010
0001
0000
,
1000
0010
1000
0000
0010
0000
0100
0000
,
0000
0000
0001
0000
0010
0100
0010
0000
,
0001
1000
0001
0000
0001
0000
1000
0000
,
1000
0000
0010
0000
0100
0001
0100
0000
,
0010
1000
0010
0000
1000
0000
0100
0000
,
0000
0020
0000
0100
,
0100
0200
0030
0310
,
0000
0000
0001
0010
0001
0000
1000
0010
,
1000
0001
0010
0100
,
1000
0000
0001
0100
0001
0000
1000
0100
,
1000
0010
0100
0110
,
0000
0000
0001
1000
0001
0000
0010
0100
,
0010
0001
1000
0100
,
1000
0020
0100
0130
,
0001
1000
0000
1000
0000
0001
1000
0000
,
0100
0010
0100
0000
0010
0000
0100
0000
,
0100
0010
0000
0001
1000
0001
1000
0000
,
0000
0002
0000
0100
,
0000
0010
0000
0100
,
0100
2003
0000
0010
,
0000
0001
0010
3200
,
0000
0001
0000
0010
,
0010
1000
1000
2300
,
0000
0010
0000
0001
,
0010
3002
0000
0203
,
0000
0320
0000
0230
,
0000
0302
0000
0023
,
0000
0230
0000
0000
,
0000
0010
0010
0010
,
0310
0000
0110
0000
0100
0001
0100
0000
,
0001
1000
0001
0000
0010
0000
0110
0000
,
0000
0000
1000
0000
0001
0100
0001
0000
,
1000
0100
1000
0000
1000
0000
0001
0000
,
0001
0000
0110
0000
0001
0010
0001
0000
,
1000
0010
1000
0000
0001
0000
0100
0000
,
0000
0010
0200
0000
0000
0000
0001
0000
,
0001
0002
0300
1003
,
0000
0000
0001
0010
0001
0000
1000
0010
,
1000
0000
0001
0010
0100
1000
0001
0000
,
1000
0000
0010
0100
0010
0000
1000
0001
,
1000
0100
0010
0110
,
0000
0000
0001
0010
0001
0000
1000
0010
,
1000
0000
0001
0100
0010
1000
0100
0000
,
0010
0100
1000
1000
,
0001
1000
0000
1000
0001
1000
0001
0000
,
0000
0000
0110
0000
,
1001
0000
0100
0010
,
0100
0000
1100
0000
,
0010
0001
0010
0000
0001
0000
0100
0000
,
0000
0000
0010
0100
0010
0000
1000
0001
,
1000
0000
0100
0010
0100
1000
0001
0000
,
0100
0010
0100
0000
0001
0000
0010
0000
,
0100
0100
0000
0010
0000
0010
0100
0000
,
1000
0001
1000
0000
0010
0000
0100
0000
,
0001
0001
0000
1000
1000
0001
1000
0000
;

//---------------dance-single - ----------------
#NOTES:
     dance-single:
     :
     Hard:
     7:
     0.556,0.547,0.433,0.306,0.013:
2000
0000
0000
0000
0010
0000
0000
3200
,
0000
0301
0100
1000
0010
0100
0002
0000
,
0000
0000
0010
0000
0000
2000
0000
0000
,
0000
3003
0201
0000
,
1000
0000
0000
0320
0000
1030
0100
0001
,
0100
1000
0020
0000
0001
0000
1000
0000
,
0100
0100
2030
0100
,
3002
0000
0000
0000
0023
0000
0000
0230
,
0000
0000
0001
0000
0010
0000
1000
0300
,
0010
0020
1000
0001
,
0130
0010
0001
0100
0020
0000
0000
0000
,
0000
0000
0030
0000
,
0000
0110
0001
0010
,
0000
0100
0000
0010
0001
0010
0001
0010
,
0100
0010
0000
0000
0100
0000
1000
0000
,
0010
0200
0000
0010
0310
0000
1000
0100
,
0010
0100
1000
0000
1010
0000
0010
0000
,
0000
0100
0000
1000
0100
0010
0100
0010
,
1000
0100
0000
0000
0010
0000
0100
0000
,
1000
0020
0000
0100
0100
0000
1000
1000
,
1030
0000
1010
0000
1000
0001
0011
0000
,
0001
1000
1010
0000
0110
0000
0101
0000
,
0000
1000
0100
0000
0010
0100
1000
1000
,
0010
0010
0110
0000
0101
0000
0011
0000
,
1100
0000
1001
0000
1000
0010
1010
0000
,
0010
0100
0110
0000
0001
0000
0110
0000
,
0000
0100
0102
0000
0000
0000
0010
0000
,
1000
0003
0200
0000
0000
0000
0020
0000
,
0330
0000
1000
0001
1001
0000
0100
0010
,
0110
0000
1000
0010
0001
0010
1000
0100
,
0001
0100
0010
0001
0011
0000
1000
0010
,
0100
0000
0010
0000
1000
0000
0000
0000
1000
0100
0000
0000
0010
0000
0100
0000
,
0100
0000
0010
0001
0011
0000
1000
0010
,
1010
0000
1000
0010
0001
0010
1000
0100
,
0010
0100
1000
0000
2010
0000
3001
0000
,
0100
0100
0000
0001
0000
0010
0110
0000
,
1000
0100
2100
0000
0010
0000
3100
0000
,
0010
0010
0000
0001
0001
1000
0001
0000
,
0000
0201
0000
1000
,
0000
0320
0000
0000
1000
0000
0001
0000
,
0100
2030
0100
0010
,
0100
3200
0001
0320
,
0000
0000
0001
0000
0000
0230
0000
0000
,
0001
0010
1000
0310
,
0020
0000
0001
0000
1000
0000
0031
0010
,
0100
1000
0020
0000
0001
0000
1000
0000
,
0100
2030
0100
3002
,
0010
0000
0203
0000
1000
0000
0310
0100
,
0001
0010
0200
0000
0000
0000
0000
0000
,
0000
0000
0010
0000
0010
0000
0310
0100
,
0010
0100
0110
0000
1000
0010
1010
0000
,
0001
0010
0011
0000
0101
0000
0110
0000
,
0000
1000
0200
0000
0310
0100
1000
0010
,
0100
0001
0011
0000
1100
0000
1010
0000
,
0101
0000
1001
0000
1000
0100
0110
0000
,
0100
1000
2010
0000
0001
0000
3100
0000
,
0000
0010
0200
0000
0000
0000
0001
0000
,
0010
0000
2300
0000
0000
0000
0001
0001
,
3001
0000
0100
0010
1001
0000
1000
0100
,
0011
0000
0001
0100
1000
0100
0001
0010
,
1000
0010
0001
1000
0110
0000
0001
0100
,
0010
0000
1000
0000
0100
0000
0000
0000
0010
0100
0000
0000
1000
0000
0010
0000
,
0010
0010
0100
0010
1001
0000
0100
0001
,
1010
0000
1000
0100
0001
0100
1000
0010
,
0001
0010
0100
0000
0101
0000
0010
0000
,
0100
0100
0000
0010
0010
0100
0010
0000
,
0000
0000
1001
0000
,
0110
0000
1000
0010
0001
0010
0100
0001
,
0001
0010
0100
0000
0110
0000
0100
1000
,
0010
0000
0001
0000
0010
0000
0000
0000
0100
0010
0000
0000
1000
0000
0001
0000
,
0001
0001
0010
0100
1100
0000
0001
0100
,
0110
0000
1000
0010
0001
0010
1000
0100
,
0001
0100
1000
0000
1010
0000
0001
0000
,
0010
0010
0000
0100
0100
0010
0001
0000
,
1000
0010
0100
0000
0101
0000
1000
0000
,
0100
0100
0000
0010
0010
0100
0010
0000
;
