#TITLE:STARLIGHT DANCEHALL;
#SUBTITLE:;
#ARTIST:P*Light;
#TITLETRANSLIT:;
#SUBTITLETRANSLIT:;
#ARTISTTRANSLIT:;
#CREDIT:Grithokskulk;
#BANNER:STARLIGHT DANCEHALL.png;
#BACKGROUND:STARLIGHT DANCEHALL-bg.png;
#LYRICSPATH:;
#CDTITLE:beatmania IIDX.png;
#MUSIC:STARLIGHT DANCEHALL.mp3;
#OFFSET:-0.033;
#SAMPLESTART:45.715;
#SAMPLELENGTH:15.000;
#SELECTABLE:YES;
#BPMS:0.000=177.000,199.000=88.500,215.000=177.000;
#STOPS:;
#BGCHANGES:0.000=STARLIGHT DANCEHALL.avi=1.000=1=1=0,
99999=-nosongbg-=1.000=0=0=0 // don't automatically add -songbackground-
;

//---------------dance-single - ----------------
#NOTES:
     dance-single:
     :
     Easy:
     4:
     0.294,0.293,0.033,0.184,0.000:
0000
0000
0000
0000
,
0000
0000
0000
1000
,
0000
0000
0000
0001
,
0000
0000
0000
0010
,
0000
0000
0000
0100
,
0000
0010
0000
0001
,
0000
0000
0000
0100
,
0000
0000
0000
0010
,
0000
0000
0000
1000
,
0000
0001
0000
0010
,
0010
0010
0010
0010
,
0010
0020
0030
0100
,
0100
0100
0100
0100
,
0100
0200
0300
1000
,
1000
1000
0000
0001
,
0001
0001
0000
0100
,
0010
0100
0010
0200
,
0000
0000
0300
0001
,
0100
0001
0000
1000
,
0100
1000
0000
0001
,
0010
0001
0000
1000
,
0010
1000
0000
0001
,
1000
0100
0000
1000
,
0001
0100
0000
1001
,
0000
0100
0000
0110
,
0000
0010
0000
0001
,
0010
0001
0010
0100
,
1000
0100
1000
0010
,
0010
0100
0100
0001
,
1000
0001
0000
1000
,
0100
1000
0100
0010
,
0001
0010
0001
0100
,
0100
0010
0010
1000
,
0001
1001
0000
0001
,
0010
0200
0300
0010
,
0001
0200
0300
0010
,
0010
0100
0100
0001
,
1000
0001
0000
1000
,
0100
2000
3000
0001
,
0100
0002
0003
1000
,
1000
0001
0001
0020
,
0030
0100
0100
0020
,
0000
0000
0030
0001
,
0100
0010
1000
0200
,
0000
0000
0300
1000
,
0010
1000
0001
0020
,
0000
0000
0030
0100
,
0010
0001
0100
0020
,
0000
0000
0030
0100
,
0000
0100
0000
0110
,
0000
0010
0000
1000
,
0000
0100
0010
0100
,
0000
0010
0000
0001
,
0000
0200
0300
0010
,
0100
0010
0100
0010
,
0100
0020
0030
1000
,
0001
1000
0001
1000
,
0001
2000
3000
0100
,
1000
0100
0000
0001
,
0100
0001
0000
0010
,
0100
1000
0001
0200
,
0000
0000
0300
0010
,
0100
0010
0100
0001
,
1000
0001
0000
1000
,
0100
0010
0100
1000
,
0010
1000
0000
0001
,
0010
0100
0010
0001
,
0100
0001
0000
1000
,
0001
1000
0100
1000
,
0010
0100
0000
0010
,
0010
0020
0030
0100
,
0100
0200
0300
0001
,
0001
0002
0003
1000
,
1000
1000
0100
1000
,
1000
2000
3000
0010
,
0010
0020
0030
0100
,
0100
0200
0300
0001
,
0001
1000
0001
0100
;

//---------------dance-single - ----------------
#NOTES:
     dance-single:
     :
     Medium:
     7:
     0.503,0.520,0.259,0.217,0.000:
0000
0000
0000
0000
,
0000
0000
0000
2000
,
0000
0000
0000
3100
0000
0000
0200
0000
,
0000
0010
0000
0000
0000
0000
0310
0000
,
0020
0000
0000
0100
0000
0000
0230
0000
,
0000
1000
0000
0000
0001
0000
1300
0000
,
2000
0000
0001
3020
,
0000
0230
0000
0000
0000
0000
0310
0000
,
0020
0000
0000
0000
0100
0030
0200
0000
,
0000
0301
0010
0100
,
0100
0100
0100
0100
,
0100
0100
0120
0130
,
0100
0100
0100
0100
,
0100
0100
2100
3100
,
0100
0100
0100
0102
,
0103
0100
0100
0120
,
0130
2100
3100
0220
,
0000
0300
0030
0000
,
0100
0000
0001
0010
0001
0000
1000
0100
,
1000
0000
0001
0010
0001
0000
1000
0000
,
0010
0010
0010
0010
0010
0000
0100
0100
,
0100
0000
0010
0010
0010
0000
1000
0100
,
1000
0000
0001
0010
0001
0000
1000
0100
,
1000
0000
0010
1000
0010
0000
0110
0000
,
0110
0000
0000
0001
0000
0000
0011
0000
,
0011
0000
0000
1000
0000
0000
1000
0000
,
0010
0000
0100
0010
0100
0000
0001
0000
,
0010
0000
0100
0010
0100
0000
0010
0000
,
0001
0010
0001
0010
0001
0000
1000
0010
,
1000
0010
1000
0000
0110
0000
0010
0000
,
1000
0000
0001
0010
0100
0000
0010
0000
,
0001
0000
0100
0001
1000
0000
0100
1000
,
0100
1000
0001
1000
0001
1000
0020
0000
,
0000
0000
0000
0000
0030
0000
0100
0010
,
0100
0002
0000
1000
1000
0003
0100
0000
,
0010
0100
0010
0000
0100
0000
1100
0000
,
0011
0101
1010
0010
,
0100
0010
0100
0000
0000
0000
0001
0010
,
0100
2000
0000
0001
3001
0000
1000
0000
,
0010
0100
0010
0000
1000
0000
1001
0000
,
0110
1001
0110
0000
,
0001
0010
0001
0000
1000
0010
2000
0000
,
0010
0010
0010
3010
,
0100
0010
0100
0000
0001
0010
0200
0000
,
0010
0010
0010
0310
,
0100
1000
0100
0000
1000
0010
2000
0000
,
0010
0010
0010
3010
,
0100
0001
0100
0000
0001
0010
0002
0000
,
1000
1000
1003
1001
,
0010
0100
1001
0000
0000
0000
0100
0100
,
0000
0010
1000
1000
0000
0100
0001
0001
,
0000
0100
0010
0010
0001
0001
0100
0100
,
0000
0010
0100
0100
0000
0001
1000
1000
,
0000
0100
0020
0000
0200
0330
1000
0000
,
0010
0100
0010
1000
,
0010
0000
0100
0000
0001
0010
0100
0000
,
0010
0000
0001
0000
0100
0010
0100
0000
,
0001
0000
1000
0100
0010
0000
0100
0000
,
1000
0000
0010
0000
1000
0010
0100
0000
,
0010
0000
1000
0000
0001
0010
0100
0000
,
0010
0001
0100
0000
0010
0100
0002
0000
,
1000
1000
1003
0001
,
1000
0100
0010
0000
0100
1000
0010
0000
,
0100
0001
0010
0000
0001
0100
0001
0000
,
1000
0100
0010
0000
0100
1000
0100
0000
,
0010
0001
0100
0000
0010
0100
0010
0000
,
1000
0001
0010
0000
0001
1000
0010
0000
,
0100
0001
1000
0000
0100
0010
0100
0000
,
1000
0010
0100
0000
0001
0010
0001
0000
,
1000
0000
0100
0010
0100
0000
1100
0000
,
1100
0000
1000
0010
1000
0000
1001
0000
,
1001
0000
0001
0100
0001
0000
0011
0000
,
0011
0000
0010
0100
0010
0000
0001
0001
,
0001
0000
1000
0010
1000
0000
0110
0000
,
0110
0000
1000
0001
1000
0000
1100
0000
,
1100
0000
0001
0010
0001
0000
0001
0100
,
0001
0100
0010
0100
0010
0000
1000
1000
,
1000
0000
0001
0010
0100
1000
0001
0000
;

//---------------dance-single - ----------------
#NOTES:
     dance-single:
     :
     Hard:
     9:
     0.703,0.715,0.335,0.360,0.410: // measure 1
0000
0000
0000
0000
,  // measure 2
0000
0000
0000
2100
,  // measure 3
0000
0000
0000
0001
0000
0001
3200
0000
,  // measure 4
0000
0020
0000
0000
0330
0000
0101
0000
,  // measure 5
0102
0000
0000
0010
0000
0013
0200
0000
,  // measure 6
0000
0320
0000
0000
0031
0000
0102
0000
,  // measure 7
0203
0000
0000
0310
0100
0000
1002
1000
,  // measure 8
2003
0000
0000
3100
0010
0000
2100
0000
,  // measure 9
3002
0000
0000
0103
0010
0010
0200
0000
,  // measure 10
0000
0000
0310
1000
0100
0010
0001
0000
,  // measure 11
1100
1010
0101
0011
,  // measure 12
1100
0000
1010
0000
0220
0330
1001
0000
,  // measure 13
0011
1100
1001
0101
,  // measure 14
1010
0000
1001
0000
0220
0330
1010
0000
,  // measure 15
0100
0010
1000
0100
0010
0001
0011
0000
,  // measure 16
0001
0000
0100
0000
1000
0000
0100
0000
0010
0000
1000
0000
0100
0000
0010
0100
,  // measure 17
0010
0000
1000
0001
1000
0000
0001
0100
0001
0000
1000
0200
1000
0000
0000
0000
,  // measure 18
0001
0000
0310
0000
0110
0000
1000
0010
,  // measure 19
0001
0010
0100
1000
0100
0010
1000
0100
,  // measure 20
0001
0100
0010
0001
0100
0010
0200
0000
,  // measure 21
0001
0001
0001
0301
0002
0000
0013
0100
,  // measure 22
0010
0100
0010
0020
0000
0130
0010
1000
,  // measure 23
0010
0100
1000
0010
0100
1000
0100
0001
,  // measure 24
0010
0100
0010
0001
0100
1000
0100
0000
,  // measure 25
0110
0000
1000
0100
0010
0000
0100
0100
,  // measure 26
0100
0000
0000
0000
0010
0000
0001
0000
0100
0000
0000
0000
0001
0000
0000
0001
,  // measure 27
0010
0000
0000
0000
0100
0000
0010
0000
0001
0000
0000
0000
0100
0000
0000
0100
,  // measure 28
1000
0000
0000
0000
0100
0000
0010
0000
1000
0000
0100
0010
0200
0000
0000
0000
,  // measure 29
1000
1000
1000
1000
2300
0000
3010
0100
,  // measure 30
0010
0000
0100
0000
0010
0000
0020
0000
0000
0000
0130
0000
0001
0000
0000
0001
,  // measure 31
1000
0000
0000
0000
0100
0000
0001
0000
0100
0000
1000
0010
0100
0000
0000
0100
,  // measure 32
0001
0000
0000
0000
1000
0000
0100
0000
0001
0000
0100
1000
0010
0000
0010
0000
,  // measure 33
0100
0100
0001
0001
1000
1000
0200
0000
,  // measure 34
0001
0000
0000
0310
0110
0000
1000
0010
,  // measure 35
0001
0010
2000
0100
0100
3000
0001
0100
,  // measure 36
1000
0010
0100
0010
1000
0100
1100
0000
,  // measure 37
0011
0000
0100
0001
0101
0000
0010
1000
,  // measure 38
0100
0001
0100
0100
0110
0000
1000
0010
,  // measure 39
0001
0010
0100
1000
0100
0010
1000
0100
,  // measure 40
0001
0100
0010
0001
0010
0100
0110
0000
,  // measure 41
1100
0000
0010
0100
0110
0000
0001
0100
,  // measure 42
0000
1000
0000
0000
0100
0000
0001
0000
0010
0000
0100
0000
1000
0000
0000
0000
,  // measure 43
1001
0000
0010
0100
0010
0000
0001
0010
,  // measure 44
0000
0100
0000
0000
0010
0000
0001
0000
0100
0000
0010
0000
1000
0000
0000
0000
,  // measure 45
1100
0000
0100
0001
0100
1000
0010
0100
,  // measure 46
0000
0001
0000
0000
0010
0000
0100
0000
1000
0000
0010
0000
0100
0000
0001
0000
,  // measure 47
0100
0001
0100
0001
1001
0000
1000
0100
,  // measure 48
1000
0000
0100
0000
1000
0000
0100
0000
1001
0000
0000
0000
0100
0010
0100
0000
,  // measure 49
0010
0000
0010
0000
1000
0001
1000
0000
0001
0000
0010
0000
0200
0000
0000
0000
,  // measure 50
0310
0001
2000
0000
3000
0000
0102
0000
,  // measure 51
0000
1000
0000
1003
0200
0000
0000
0320
0000
0000
0000
0000
0130
0000
0200
0000
,  // measure 52
0000
1000
0000
1300
0020
0000
0000
0230
0000
0000
0302
0000
0023
0000
0000
0000
,  // measure 53
0000
0001
0000
0031
0200
0000
0000
0320
0000
0000
0000
0000
0130
0000
0200
0000
,  // measure 54
0000
0001
0000
0301
1000
0100
2000
0000
3001
0010
0100
1000
0010
0100
0000
0000
,  // measure 55
0010
0100
0000
0000
0010
0100
0000
0000
0010
0100
0000
0000
0010
0100
0000
0000
,  // measure 56
0010
0100
0000
0000
0010
0100
0010
0000
1001
0000
0000
0000
1000
0100
0000
0000
,  // measure 57
1000
0100
0000
0000
1000
0100
0000
0000
1000
0100
0000
0000
1000
0100
0000
0000
,  // measure 58
1000
0100
0000
0000
1000
0100
1000
0000
1001
0000
0000
0000
0001
0000
0100
0000
,  // measure 59
0010
0000
0100
0000
0001
0000
0000
0001
0000
0000
0001
0000
0010
0000
0100
0000
,  // measure 60
1000
0000
0010
0000
0100
0000
0000
0100
0000
0000
0100
0000
0010
0000
1000
0100
,  // measure 61
1000
0000
0001
0010
0001
0000
1000
0001
1000
0000
0010
0100
0020
0000
0000
0000
,  // measure 62
1000
0000
0000
0000
0001
0000
0000
0000
0130
0000
0000
0000
0001
0000
0000
0010
,  // measure 63
0000
0000
1000
0000
0000
0010
0000
0000
0100
0000
1000
0000
0010
0000
0000
0100
,  // measure 64
0000
0000
0010
0000
0000
1000
0000
0000
0100
0010
0100
1000
0010
0000
0000
0100
,  // measure 65
0000
0000
1000
0000
0000
0100
0000
0000
0001
0010
0100
0010
0001
0000
0000
0100
,  // measure 66
0000
0000
0010
0000
0000
0100
0000
0000
0001
0000
1000
0000
0100
0000
0000
0010
,  // measure 67
0000
0000
0100
0000
0000
1000
0000
0000
0001
0000
0010
0000
1000
0000
0000
0010
,  // measure 68
0000
0000
0001
0000
0000
0100
0000
0000
0010
1000
0100
0010
0100
0000
0000
1000
,  // measure 69
0000
0000
0010
0000
0000
0001
0000
0000
0010
1000
0100
0010
0100
0000
0000
1000
,  // measure 70
0000
0000
0010
0000
0000
0100
0000
0000
0010
0000
1000
0000
0100
0000
0000
0001
,  // measure 71
0000
0000
0100
0000
0000
0010
0000
0000
0001
0100
0001
0010
0100
0000
0000
0010
,  // measure 72
0000
0000
0001
0000
0000
0100
0000
0000
1000
0100
0010
1000
0100
0000
0000
0001
,  // measure 73
0000
0000
0100
0000
0000
1000
0000
0000
0010
0000
0100
0000
0001
0000
0000
0010
,  // measure 74
0000
0000
1000
0000
0000
0010
0000
0000
0002
0000
0000
0000
0103
0000
0000
1000
,  // measure 75
0000
0000
0100
0000
0000
0010
0000
0000
1000
0100
0010
0100
1000
0000
0000
0001
,  // measure 76
0000
0000
0010
0000
0000
1000
0000
0000
0010
0001
0100
0010
0100
0000
0001
0100
,  // measure 77
0001
0000
1000
0100
1000
0000
0001
0010
0001
0000
1000
0010
1000
0000
1000
0000
,  // measure 78
2000
0000
3001
0010
1000
0010
0001
0000
;
