#TITLE:SON OF SUN;
#SUBTITLE:;
#ARTIST:Shinji Hosoe;
#TITLETRANSLIT:;
#SUBTITLETRANSLIT:;
#ARTISTTRANSLIT:;
#CREDIT:Grithokskulk;
#BANNER:SON OF SUN.png;
#BACKGROUND:SON OF SUN-bg.png;
#LYRICSPATH:;
#CDTITLE:grithokskulk.png;
#MUSIC:SON OF SUN.mp3;
#OFFSET:-0.144;
#SAMPLESTART:14.815;
#SAMPLELENGTH:15.000;
#SELECTABLE:YES;
#BPMS:0.000=200.000;
#STOPS:;
#BGCHANGES:0.000=SON OF SUN.avi=1.000=1=1=0,
99999=-nosongbg-=1.000=0=0=0 // don't automatically add -songbackground-
;

//---------------dance-single - ----------------
#NOTES:
     dance-single:
     :
     Easy:
     4:
     0.331,0.436,0.255,0.085,0.000:
0000
0000
0000
0000
,
0000
0000
0000
0000
,
0000
0000
0000
0000
,
0000
0000
0000
0000
,
0000
0010
0010
0010
,
0001
0000
0000
0000
,
0000
0000
0000
0000
,
0000
0000
0000
0000
,
0000
1000
1000
1000
,
0100
0000
0000
0000
,
0000
0000
0000
0000
,
0000
0002
0023
0230
,
2300
3010
0100
0010
,
0100
0010
0000
0010
,
0000
1000
0001
1000
,
0001
1000
0000
1000
,
0000
0001
0010
0001
,
0010
0001
0000
0001
,
0000
0100
0010
0100
,
0010
0200
0302
2003
,
3200
0310
0000
0110
,
0000
0100
0100
0010
,
0010
0001
0000
1001
,
0000
1000
1000
0010
,
0010
0100
0000
0110
,
0000
0010
0010
1000
,
1000
0001
0000
1001
,
0000
0010
0010
0010
,
0020
0130
0100
0110
,
0000
0001
0001
1001
,
0000
1000
1000
1001
,
0000
0100
0000
0010
,
0010
0100
0100
0110
,
0000
0001
0001
1001
,
0000
0010
0010
0110
,
0000
0100
0000
0010
,
0001
0100
0000
0000
,
0000
0110
0000
0000
,
0000
1001
0000
0000
,
0000
0100
0100
0100
,
0100
0010
0000
0000
,
0000
0110
0000
0000
,
0000
1001
0000
0000
,
0000
0100
0100
0100
,
0100
0010
0000
0100
,
0000
0001
1000
0001
,
0000
1000
0000
0100
,
0000
0010
0100
0010
,
0000
0100
0000
1000
,
0000
0001
0100
0001
,
1000
0100
0000
0010
,
0000
0010
0000
0010
,
0010
0110
0000
0000
,
0000
0000
0000
0000
,
0000
1001
0000
0000
,
0000
0000
0000
0000
,
0000
0110
0000
0000
,
0000
0000
0000
0000
,
0000
1001
0000
0000
,
0000
0100
0100
0100
,
0000
0010
0100
0010
,
0100
1000
0100
1000
,
0000
0001
0100
0001
,
0100
0010
0100
0010
,
0000
1000
0001
1000
,
0001
0010
0001
0010
,
0000
0100
0010
0100
,
0010
0100
1000
0100
,
0000
0010
0010
0100
,
0100
0010
0100
0010
,
0010
0100
0010
0100
,
0010
0110
0000
0000
,
0000
0001
0001
1000
,
1000
0001
1000
0001
,
0001
1000
0001
1000
,
0001
1001
0000
1001
,
0000
0001
0001
0001
,
0001
0001
0001
0001
,
1001
0000
1000
1000
,
1000
1000
1001
0000
,
1001
0000
0010
0010
,
0010
0010
0010
0010
,
0110
0000
0100
0100
,
0100
0110
0000
0010
,
1001
0000
0000
0000
;

//---------------dance-single - ----------------
#NOTES:
     dance-single:
     :
     Medium:
     7:
     0.481,0.594,0.490,0.000,0.000:
0000
0000
0000
0000
,
0000
0000
0000
0000
,
0000
0000
0000
0000
,
0000
0000
0000
0000
,
0000
0000
0100
0100
0100
0000
0001
1000
,
0001
0000
0010
0010
,
0000
0100
0100
0100
,
0000
0010
0010
0010
,
0000
0000
0100
0100
0100
0000
1000
0010
,
0100
0000
0010
0010
,
0000
1000
1000
1000
,
0000
0011
1100
1010
,
0101
0000
0001
0010
0001
0000
1000
0000
,
0010
0000
0100
0100
0100
0000
0010
0010
,
0010
0000
1000
0001
1000
0000
0001
0000
,
0010
0000
0100
1000
0100
0000
0010
0001
,
0010
0000
0001
0001
0001
0000
0100
0000
,
0010
0000
0100
0001
0100
0000
0001
1000
,
0001
0000
1000
1000
1000
0000
0100
1000
,
0100
0110
1001
0011
,
1100
1001
0001
0101
,
0001
0000
0010
0100
0010
0000
1000
0100
,
1000
1010
1000
1001
,
1000
0000
0100
1000
0100
0000
0010
0000
,
0010
0110
0010
0011
,
0001
0000
0001
0100
0001
0000
0100
0010
,
0100
0110
0100
1100
,
0100
0000
0001
0100
0001
0100
0001
0100
,
0001
0000
1000
0100
1000
0100
1000
0000
,
0000
0000
0001
0100
0001
0100
0001
0000
,
0000
0000
1000
0010
1000
0010
1000
0000
,
0000
0001
0000
1000
,
1000
0000
0100
0010
0100
0010
0100
0000
,
0000
0000
0010
0001
0010
0001
0010
0000
,
0000
0000
1000
0001
1000
0001
1000
0000
,
0000
0010
0000
0100
,
0100
0000
0001
0000
0000
0010
0000
0000
,
0100
0000
0100
0000
0000
0010
0000
0000
,
0100
0000
1000
0000
0000
0001
0000
0000
,
0100
0110
0110
0110
,
0110
0000
0010
0000
0000
0100
0000
0000
,
0001
0000
0011
0000
0000
0010
0000
0000
,
0100
0000
0110
0000
0000
0100
0000
0000
,
1000
1010
1010
1010
,
1010
0000
0010
0000
0100
0000
0010
1000
,
0010
1000
0000
0000
0100
0000
0010
0000
,
0000
0000
0100
0000
0010
0000
0001
0010
,
0001
0010
0000
0000
0001
0000
0001
0000
,
0000
0000
0100
0000
0010
0000
0100
0001
,
0100
0001
0000
0000
1000
0000
1000
0000
,
0000
1100
0000
0010
,
0000
0100
0000
0010
,
0010
0100
0000
0000
,
0000
0000
0000
0000
,
0000
0001
1000
0000
1001
0000
0000
0000
,
0000
0000
0000
0000
,
0000
1100
0000
0000
,
0000
0000
0000
0000
,
0000
0010
0100
0000
0110
0000
0000
0000
,
0000
0001
0001
1000
,
1000
0110
0110
1000
,
0100
1001
1001
0001
,
0100
0101
0101
1000
,
0001
0011
0011
0010
,
0100
1100
1100
0010
,
0100
1001
1001
1000
,
0100
0011
0011
0001
,
0100
1010
1010
0100
,
0010
0000
0100
0000
0000
0100
0010
0000
,
0000
0010
0001
0000
0001
0000
0001
0000
,
0000
0000
0100
0000
0000
0100
0001
0000
,
0000
1001
1001
1001
,
0000
0000
1000
0000
0000
1000
0100
0000
,
0000
0100
0010
0000
0010
0000
0010
0000
,
0000
0000
0100
0000
0000
0100
1000
0000
,
0000
0000
1001
0000
0000
0110
0000
0000
,
1001
0000
0000
0010
0000
0010
0000
0010
,
0000
0010
0000
0010
0000
0010
0000
0010
,
0100
0000
0000
1000
0000
1000
0000
1000
,
0000
1000
0000
1000
0001
0000
0000
0100
,
0010
0000
0000
0001
0000
0001
0000
0001
,
0000
0001
0000
0001
0000
0001
0000
0001
,
0010
0000
0000
0100
0000
0100
0000
0100
,
0000
0100
0010
0000
0000
0000
0001
1000
,
0001
0000
0000
0000
;

//---------------dance-single - ----------------
#NOTES:
     dance-single:
     :
     Hard:
     9:
     0.725,0.792,0.698,0.094,0.000: // measure 1
0000
0000
0100
0000
1000
0100
0000
0001
,  // measure 2
0100
0000
1000
0000
0001
0010
0000
1000
,  // measure 3
0010
0000
0001
0000
1000
0100
0000
0001
,  // measure 4
0100
0000
1000
0000
0001
0100
0000
1000
,  // measure 5
0100
0000
0010
0010
0010
0000
0100
1000
,  // measure 6
0020
0100
1000
0001
,  // measure 7
0001
0000
0100
0000
0100
0100
0000
1000
,  // measure 8
1000
0000
0100
0000
1000
1000
0000
0001
,  // measure 9
0031
0000
0010
0010
0010
0000
0100
0001
,  // measure 10
0020
0000
0100
0000
0001
0001
0000
1000
,  // measure 11
1000
0000
0100
0000
0001
0001
0000
0100
,  // measure 12
0130
0011
1100
1010
,  // measure 13
0101
0000
1000
0010
0100
0010
1000
0010
,  // measure 14
0100
0000
0001
0001
0001
0000
0010
0100
,  // measure 15
0010
0000
0001
0010
1000
0010
0001
0010
,  // measure 16
0100
0000
0010
0001
0010
0000
0100
0100
,  // measure 17
0100
0000
1000
0010
0001
0010
0100
0010
,  // measure 18
1000
0000
0001
0100
0001
0000
1000
1000
,  // measure 19
1000
0000
0100
0001
0100
1000
0010
0100
,  // measure 20
0001
0101
1010
1100
,  // measure 21
0011
0000
1001
0001
0100
0000
0110
0010
,  // measure 22
1000
0000
1000
0100
0001
0000
0001
0100
,  // measure 23
1000
0000
1010
0010
0100
0000
0101
0001
,  // measure 24
1000
0000
0100
0010
0100
0000
1000
0010
,  // measure 25
1000
0010
1010
0010
0100
0000
0110
0100
,  // measure 26
0001
0000
0001
0010
0100
0000
0100
0010
,  // measure 27
0100
0000
0011
0001
0100
0000
0110
0100
,  // measure 28
0001
0000
0101
0001
0101
0001
0101
0001
,  // measure 29
1010
0000
1000
0100
1000
0100
1100
0000
,  // measure 30
0011
0000
0001
0100
0010
0100
0101
0000
,  // measure 31
1001
0000
1000
0100
0001
0100
0110
0000
,  // measure 32
0011
0000
0100
0100
0100
0000
0010
0100
,  // measure 33
0001
0000
1000
0100
0010
0100
1100
0000
,  // measure 34
1010
0000
0100
0001
0010
0001
0101
0000
,  // measure 35
1010
0000
1000
0100
0001
0100
1100
0000
,  // measure 36
0011
0000
0010
0010
0010
0000
0100
0010
,  // measure 37
0100
0000
2100
0010
0000
0100
0000
0000
,  // measure 38
3100
0000
0102
0010
0000
0100
0000
0000
,  // measure 39
0103
0000
0210
0001
0000
1000
0000
0000
,  // measure 40
1300
0000
0001
0100
0001
0100
0010
0100
,  // measure 41
0010
0100
0120
1000
0000
0100
0000
0000
,  // measure 42
0031
0000
2010
0100
0000
0001
0000
0000
,  // measure 43
3010
0000
0102
0010
0000
1000
0000
0000
,  // measure 44
0103
0000
0010
0100
0010
0100
0010
0100
,  // measure 45
0010
0010
0100
0000
0110
0000
1000
0100
,  // measure 46
0001
0100
0000
0100
0010
0001
0010
1000
,  // measure 47
0010
0000
0001
0000
0011
0000
0001
0100
,  // measure 48
0010
0100
0000
0001
1000
0100
0001
0100
,  // measure 49
1000
0000
1010
0000
0101
0000
1000
0010
,  // measure 50
0001
0010
0000
0010
0100
1000
0100
0001
,  // measure 51
1000
0100
0020
0000
1000
0000
0001
0000
,  // measure 52
0000
0000
0001
0000
0000
0000
0001
0001
,  // measure 53
0031
0011
0000
0000
,  // measure 54
0000
0000
0000
0000
,  // measure 55
0000
1000
1010
0000
0101
0000
0000
0000
,  // measure 56
0000
0000
0000
0000
,  // measure 57
0000
0110
0000
0000
,  // measure 58
0000
0000
0000
0000
,  // measure 59
0000
1000
1010
0000
0101
0000
0000
0000
,  // measure 60
0000
0000
0001
0010
0001
0010
0001
1000
,  // measure 61
0001
1000
0001
0100
0010
0100
0101
0000
,  // measure 62
1001
0000
1000
0100
0001
0100
0110
0000
,  // measure 63
0011
0000
0001
0010
1000
0010
0011
0000
,  // measure 64
1001
0000
1000
0010
0001
0010
0100
0010
,  // measure 65
0100
0010
1000
0010
0001
0010
0110
0000
,  // measure 66
1001
0000
1000
0100
0001
0100
0110
0000
,  // measure 67
0011
0000
0001
0100
1000
0100
0110
0000
,  // measure 68
1010
0000
1000
0100
1000
0100
0010
0001
,  // measure 69
0010
0001
0010
0100
0000
0100
0010
0000
,  // measure 70
0001
0011
1100
1010
,  // measure 71
0101
0000
1000
0010
0000
0010
0100
0000
,  // measure 72
0001
1002
0010
0100
,  // measure 73
0103
0000
0010
0100
0000
0100
0001
0000
,  // measure 74
1000
1100
0011
0101
,  // measure 75
1010
0000
0010
0100
0000
0100
0001
0010
,  // measure 76
0100
0000
0110
0000
0000
1001
0000
0000
,  // measure 77
0110
0000
0001
0010
1000
0010
0001
0010
,  // measure 78
0100
0010
0001
0010
1000
0010
0001
0010
,  // measure 79
0100
0000
1000
0010
0001
0010
1000
0010
,  // measure 80
0100
0010
1000
0010
0001
0000
0010
0100
,  // measure 81
0001
0000
1000
0100
0001
0100
1000
0100
,  // measure 82
0010
0100
1000
0100
0001
0100
0010
0100
,  // measure 83
1000
0000
0001
0100
1000
0100
0010
0100
,  // measure 84
1000
0100
0001
0001
0001
0000
1010
0100
,  // measure 85
0011
0000
0000
0000
;
