#TITLE:SEED;
#SUBTITLE:(DJ Noriken Remix);
#ARTIST:DJ Noriken;
#TITLETRANSLIT:;
#SUBTITLETRANSLIT:;
#ARTISTTRANSLIT:;
#CREDIT:Grithokskulk;
#BANNER:SEED (DJ Noriken Remix).png;
#BACKGROUND:SEED (DJ Noriken Remix)-bg.png;
#LYRICSPATH:;
#CDTITLE:SOUND VOLTEX.png;
#MUSIC:SEED (DJ Noriken Remix).mp3;
#OFFSET:-2.835;
#SAMPLESTART:68.235;
#SAMPLELENGTH:14.980;
#SELECTABLE:YES;
#BPMS:0.000=175.000,64.000=87.500,80.000=175.000;
#STOPS:172.000=1.071
,235.000=0.300
;
#BGCHANGES:;

//---------------dance-single - ----------------
#NOTES:
     dance-single:
     :
     Easy:
     3:
     0.244,0.283,0.025,0.167,0.000: // measure 1
1000
1000
1000
1000
,  // measure 2
0001
0001
0001
0001
,  // measure 3
0100
0100
0100
0100
,  // measure 4
0010
0010
0010
0010
,  // measure 5
0100
0100
0100
0100
,  // measure 6
0001
0001
0001
0001
,  // measure 7
0010
0010
0010
0010
,  // measure 8
0200
0000
0000
0300
,  // measure 9
1000
0100
1000
0100
,  // measure 10
0010
0001
0010
0001
,  // measure 11
0100
0010
0100
0010
,  // measure 12
1000
0001
1000
0001
,  // measure 13
0010
0000
0010
0000
,  // measure 14
0100
0000
0100
0000
,  // measure 15
1000
1000
0001
0001
,  // measure 16
0100
0010
0000
0010
,  // measure 17
0200
0000
0000
0000
,  // measure 18
0000
0300
0010
1000
,  // measure 19
0002
0003
0020
0030
,  // measure 20
0200
0000
0000
0300
,  // measure 21
0020
0000
0000
0000
,  // measure 22
0000
0000
0000
0000
,  // measure 23
0000
0000
0000
0030
,  // measure 24
0001
0100
0010
0000
,  // measure 25
0200
0000
0300
0000
,  // measure 26
0020
0000
0030
0000
,  // measure 27
2000
0000
3000
0000
,  // measure 28
2002
0000
0000
3003
,  // measure 29
1000
0100
1000
0000
,  // measure 30
0001
0100
0001
0000
,  // measure 31
1000
0010
1000
0000
,  // measure 32
0001
0010
0001
0000
,  // measure 33
1000
0010
0100
0000
,  // measure 34
0001
1000
0100
0000
,  // measure 35
0010
0001
0100
0000
,  // measure 36
0001
0010
0010
0000
,  // measure 37
0001
0100
0001
0100
,  // measure 38
0010
1000
0010
1000
,  // measure 39
0100
1000
0100
1000
,  // measure 40
0001
0100
0001
0000
,  // measure 41
0010
0010
0001
0001
,  // measure 42
1000
1000
0010
0010
,  // measure 43
0100
0100
0001
1000
,  // measure 44
1001
1000
0000
1000
,  // measure 45
0100
0010
0000
0010
,  // measure 46
0100
1000
0000
0001
,  // measure 47
0000
0100
0000
0010
,  // measure 48
0000
0100
0000
0100
,  // measure 49
0001
0010
0000
0010
,  // measure 50
0001
1000
0000
0010
,  // measure 51
0000
0100
0000
0010
,  // measure 52
0000
1000
1000
0100
,  // measure 53
0000
1000
1000
0001
,  // measure 54
0000
0010
0000
0001
,  // measure 55
0000
0100
0000
0010
,  // measure 56
0000
0100
0100
0010
,  // measure 57
0000
1000
1000
0100
,  // measure 58
0000
1000
0000
0001
,  // measure 59
0000
0100
0000
0010
,  // measure 60
0200
0000
0000
0000
,  // measure 61
0000
0000
0000
0000
,  // measure 62
0000
0000
0300
0000
,  // measure 63
0010
1000
0100
0000
,  // measure 64
0020
0000
0030
0000
,  // measure 65
0200
0000
0300
0000
,  // measure 66
2000
0000
0000
3000
,  // measure 67
0001
0010
0001
0000
,  // measure 68
0200
0000
0000
0000
,  // measure 69
0000
0000
0000
0000
,  // measure 70
0000
0000
0300
0000
,  // measure 71
0010
0100
0001
0000
,  // measure 72
2000
0000
3000
0000
,  // measure 73
0002
0000
0003
0000
,  // measure 74
0010
0000
0100
0000
,  // measure 75
2002
0000
0000
0000
,  // measure 76
3003
0000
0000
0000
;

//---------------dance-single - ----------------
#NOTES:
     dance-single:
     :
     Medium:
     6:
     0.427,0.471,0.059,0.167,0.000:
1000
0010
1000
0010
,
0100
0001
0100
0001
,
0010
0001
0010
0001
,
1000
0010
1000
0010
,
1000
0100
0010
0001
,
0100
0001
0010
0001
,
0100
0010
1000
0100
,
0210
0010
0310
0110
,
1000
0000
0010
0000
0100
0000
0010
1000
,
0000
0001
0000
0010
0000
0001
0000
0100
,
0010
0000
0100
0000
0010
0000
1000
0100
,
0000
0010
0000
0100
0000
1000
0000
0001
,
0100
0000
0001
0000
0010
0000
0100
0010
,
0000
0001
0000
0100
0000
0010
0000
0000
,
0100
0000
0010
0000
1000
0000
0100
1000
,
0002
0000
0103
0000
0010
0100
0010
0000
,
2001
0000
0000
0000
,
0000
0000
3000
0000
0100
1000
0010
0100
,
0020
0000
0130
0100
0200
0000
0301
0001
,
0002
0000
0000
0000
0013
0100
1000
0010
,
0200
0010
1000
0001
,
0010
0010
0001
0001
,
1000
0001
0010
0001
,
0310
1000
0100
0010
,
0002
0000
0000
2003
0000
0000
3100
0000
,
0020
0000
0000
0230
0000
0000
1300
0000
,
0020
0000
0200
0330
,
0220
0000
0000
0330
,
1000
1000
0000
0000
0001
0000
0010
0000
,
0001
0001
0000
0000
0100
0000
0010
0000
,
0100
0100
0000
0000
0001
0000
0010
0000
,
0001
0001
0000
0000
0010
0000
0100
0000
,
0010
0010
0000
0000
0100
0000
1000
0000
,
0100
0100
0000
0000
0010
0000
0001
0000
,
0010
0010
0000
0000
0001
0000
0100
0000
,
0001
0001
0000
0000
1000
0000
1001
0000
,
1000
0000
0010
0000
1000
0000
0010
0100
,
0010
0000
0100
0000
0010
0000
0100
0001
,
0100
0000
0001
0000
0100
0000
0001
0010
,
0001
0010
0001
0010
,
0100
0010
0100
0010
0100
0010
0100
0000
,
1000
0001
1000
0001
1000
0001
1000
0000
,
0010
0100
0010
0000
1000
0001
1000
0000
,
1001
0000
1000
0000
0000
1000
0000
0000
,
1000
0100
1000
0000
0000
0010
0000
0000
,
0100
0010
0100
0000
0001
0000
0010
0001
,
0010
0000
0001
0000
0100
0000
0010
0100
,
0010
0000
1000
0000
0000
0100
0000
0000
,
0010
0100
0010
0000
0000
0100
0000
0000
,
1000
0001
1000
0000
0001
0000
0010
0000
,
0001
0100
0010
0100
,
0001
0000
0010
0000
0000
0001
0000
0000
,
0100
0001
0100
0000
0000
0010
0000
0000
,
0100
0010
0100
0000
0001
0000
0010
0001
,
0010
0000
0100
0000
1000
0000
0010
0100
,
0010
0000
1000
0000
0000
0001
0000
0000
,
0100
0010
0100
0000
0000
0001
0000
0000
,
0010
0001
0010
0000
0100
0000
1000
0000
,
0010
0000
0100
0010
0100
0000
1001
0000
,
0020
0100
0001
1000
,
0001
0001
0100
0100
,
0001
0100
0001
0031
,
0010
0100
0010
0000
0100
0000
1000
0000
,
0020
0000
0130
0010
0100
0000
0001
0000
,
0020
0000
0130
0010
0100
0000
1000
0000
,
0020
0100
1000
1030
,
1000
0100
1000
0000
0001
0010
0001
0000
,
0200
0010
1000
1000
,
0010
0001
0010
0010
,
0001
0010
0001
0301
,
0010
0001
0010
0000
0100
0000
1000
0000
,
0010
0100
0010
0100
0010
0100
0010
0000
,
1000
0001
1000
0001
1000
0001
1000
0000
,
0001
0010
0001
0000
1000
0010
1000
0000
,
0001
0010
0100
1000
0010
0000
0100
0000
,
0010
0000
0000
0000
;

//---------------dance-single - ----------------
#NOTES:
     dance-single:
     :
     Hard:
     9:
     0.623,0.691,0.377,0.218,0.306:
0010
0100
0001
0100
0010
0100
0001
0000
,
0010
0100
1000
0100
0001
0100
1000
0000
,
0010
0100
0001
0100
0010
0100
0001
0000
,
0001
0010
0100
0010
0000
0010
0100
1000
,
0010
0000
0101
0000
1010
0000
1000
0100
,
0020
0000
1000
0000
0031
0010
0100
1000
,
0010
0000
0110
0000
0001
0100
0010
0200
,
0000
0001
0000
0001
0000
0001
0300
0000
,
1001
0000
1100
0000
1000
0100
0010
0100
,
0000
0010
0001
0100
0000
0010
0000
0100
,
0001
0000
1001
0000
1000
0100
0010
0100
,
0000
0010
0100
0000
1000
0000
0000
0000
0000
0000
0010
0000
0100
0000
0001
0000
,
0110
0000
1010
0000
0000
0000
1001
0000
0000
0011
0000
0000
0110
0000
0001
0000
,
0011
0000
0101
0000
0000
0000
0110
0000
0000
1001
0000
0000
1100
0000
0000
0000
,
0100
0000
0010
0100
0010
0000
1000
0001
1000
0000
0001
0000
0100
0000
0010
0000
,
2000
0000
3100
0010
0100
0000
1100
0000
,
1002
0000
0000
0000
0000
0000
0000
0200
0000
0000
0000
0000
0003
0000
0000
0000
,
0002
0000
0000
0000
0300
0000
0000
0013
0100
0020
0000
0230
0000
0000
0310
0000
,
0002
0000
0000
0100
0000
0000
0010
0000
2003
0000
0000
0100
0000
0000
0010
0000
,
0002
0000
0000
0000
3003
0000
0000
0001
0010
0100
0000
0010
0000
0001
1000
0000
,
0010
1010
1000
1100
,
0100
0110
0010
0110
,
0100
1100
1000
1001
,
0001
0100
0010
0100
0002
0000
0013
0000
,
0200
0001
1000
0010
,
0320
0001
1000
0100
,
0032
0000
1000
0000
0100
0000
0013
0220
,
0000
0000
0000
0330
,
1000
0000
0100
0000
0000
0010
0000
0000
0001
0000
0000
0100
0000
0000
0010
0000
,
0100
0000
0001
0000
0000
0010
0000
0000
0001
0000
0000
0010
0000
0000
0100
0000
,
0010
0000
0001
0000
0000
0100
0000
0000
1000
0000
0000
0100
0000
0000
0001
0000
,
0010
0000
0100
0000
0000
0010
0000
0000
0001
0000
0010
0000
0100
0000
1000
0000
,
0010
0000
0100
0000
0000
0001
0000
0000
0010
0000
0000
0001
0000
0000
0100
0000
,
0010
0000
0100
0000
0000
0001
0000
0000
0010
0000
0000
0100
0000
0000
0010
0000
,
0100
0000
1000
0000
0000
0010
0000
0000
1000
0000
0000
0100
0000
0000
0010
0000
,
0100
0000
1000
0000
0000
0010
0000
0000
1000
0000
0000
0100
1000
0000
0010
0000
,
0100
0000
0000
0010
0100
0000
0000
0010
0100
0000
0000
0010
0100
0000
0010
0000
,
1000
0000
0000
0100
1000
0000
0000
0100
1000
0000
0000
0100
1000
0000
0001
0000
,
0010
0000
0000
0100
0010
0000
0000
0100
0010
0000
0000
0100
0010
0000
0001
0000
,
0100
0000
0000
0001
0100
0000
0000
0001
0100
0000
0000
0001
0100
0000
0010
0000
,
1000
0100
1000
0100
1000
0100
1100
0000
,
0001
0100
0001
0100
0001
0100
0101
0000
,
0110
0100
0010
0000
1001
0001
1000
0000
,
1100
0000
0000
0000
0010
0000
0000
0100
0000
0000
0010
0000
0000
0100
0000
0000
,
0010
0000
1000
0000
0100
0000
0000
1000
0000
0000
0100
0000
0000
1000
0000
0000
,
0100
0000
1000
0000
0010
0000
0000
0100
0000
0000
0001
0000
0000
0001
0000
0000
,
0010
0000
0001
0000
0100
0000
0000
0010
0000
0000
1000
0000
0000
1000
0000
0000
,
0100
0000
1000
0000
0001
0000
0000
0010
0000
0000
0001
0000
0000
0010
0000
0000
,
0001
0000
0100
0000
0010
0000
0000
0100
0000
0000
0010
0000
0000
0100
0000
0000
,
0010
0000
0100
0000
0001
0000
0000
0001
0000
0000
1000
0000
0000
0100
0000
0000
,
1000
0000
0100
0000
0010
0000
0000
0010
0000
0000
0100
0000
0000
1000
0000
0000
,
0010
0000
0100
0000
0001
0000
0000
0001
0100
0000
0000
0000
0001
0000
0010
0000
,
0100
0000
0010
0000
0001
0000
0000
0001
1000
0000
0000
0000
1000
0000
0100
0000
,
0010
0000
0100
0000
1000
0000
0000
1000
0010
0000
0000
0000
1000
0000
0100
0000
,
0001
0000
0100
0000
1000
0000
0000
1000
0001
0000
0100
0000
0010
0000
0000
0000
,
0110
0000
0000
0000
0010
0000
0000
1010
0000
0000
1000
0000
0000
1100
0000
0000
,
0100
0000
0010
0000
0100
0000
0000
1100
0000
0000
1000
0000
0000
1001
0000
0000
,
0001
0000
0100
0000
0010
0000
0100
0000
0010
0100
0010
0000
1000
0000
0001
0000
,
0010
0000
0100
0000
1001
0000
0000
1001
0000
0000
0220
0000
0000
0330
0000
0000
,
1000
0000
0100
0000
0010
0000
0100
0000
1000
0000
0000
1000
0000
0000
1000
0000
,
0010
0000
0100
0000
0001
0000
0010
0000
0100
0000
0000
0100
0000
0000
0100
0000
,
0010
0000
0001
0000
0100
0000
1000
0000
0100
0000
0000
0100
0000
0000
0100
0000
,
0010
2000
0000
3200
0000
0310
0100
0010
,
1000
0000
0001
0000
1000
0000
0001
0000
0100
0000
0000
0100
0000
0000
0100
0000
,
0001
0000
0010
0000
0001
0000
0010
0000
0100
0000
0000
0100
0000
0000
0100
0000
,
0010
0001
0100
0010
1000
0000
0001
1000
,
0001
0200
0000
0320
0000
1030
1001
0000
,
1100
0000
0010
0000
0100
0000
1000
0010
,
0000
0110
0000
0101
0000
1001
0000
1000
,
1100
0000
0011
0000
0010
0000
0100
1000
,
0010
0200
0000
0320
0000
1030
0100
0100
,
1000
0100
1000
0100
1000
0100
1000
0000
,
0001
0100
0001
0100
0001
0100
0001
0000
,
0010
0100
0010
0100
1000
0001
1000
0002
,
0000
0010
0000
0100
0000
1000
0000
0100
,
0003
0000
0000
0000
;
