#TITLE:River in the Desert;
#SUBTITLE:;
#ARTIST:Shoji Meguro feat. Lyn;
#TITLETRANSLIT:;
#SUBTITLETRANSLIT:;
#ARTISTTRANSLIT:;
#CREDIT:Grithokskulk;
#BANNER:River in the Desert.png;
#BACKGROUND:River in the Desert-bg.png;
#LYRICSPATH:;
#CDTITLE:grithokskulk.png;
#MUSIC:River in the Desert.mp3;
#OFFSET:-7.698;
#SAMPLESTART:72.895;
#SAMPLELENGTH:15.000;
#SELECTABLE:YES;
#BPMS:0.000=130.000;
#STOPS:;
#BGCHANGES:;

//---------------dance-single - ----------------
#NOTES:
     dance-single:
     :
     Easy:
     3:
     0.221,0.218,0.028,0.328,0.000: // measure 1
1000
0100
1000
0100
,  // measure 2
0010
0001
0010
0001
,  // measure 3
0100
0001
0100
0001
,  // measure 4
0100
0010
0100
0010
,  // measure 5
1000
0000
0100
0000
,  // measure 6
0010
0000
0100
1000
,  // measure 7
0000
0001
0100
0100
,  // measure 8
0020
0000
0000
0030
,  // measure 9
0000
1000
1000
0000
,  // measure 10
0100
1000
0010
0100
,  // measure 11
0002
0003
2000
3000
,  // measure 12
0200
0000
0000
0300
,  // measure 13
0020
0030
0200
0300
,  // measure 14
0000
0000
1000
0010
,  // measure 15
0200
0300
0002
0003
,  // measure 16
0000
0000
0010
0001
,  // measure 17
0200
0300
0020
0030
,  // measure 18
0000
0000
1000
0100
,  // measure 19
0020
0030
0200
0300
,  // measure 20
0000
0000
0000
0000
,  // measure 21
1000
0010
1000
0010
,  // measure 22
0100
0001
0100
0001
,  // measure 23
0010
0001
0010
0000
,  // measure 24
0002
0000
0000
0003
,  // measure 25
0000
1000
0100
1000
,  // measure 26
0010
0100
0010
0100
,  // measure 27
0002
0003
2000
3000
,  // measure 28
0200
0000
0000
0300
,  // measure 29
0010
0001
0010
0001
,  // measure 30
1000
0100
1000
0100
,  // measure 31
0010
0100
0010
0100
,  // measure 32
1000
0001
1000
0001
,  // measure 33
0200
0300
0020
0030
,  // measure 34
2000
3000
0200
0300
,  // measure 35
0020
0030
0002
0003
,  // measure 36
2002
0000
0000
3003
,  // measure 37
2000
3000
0002
0003
,  // measure 38
0000
0000
0100
0010
,  // measure 39
2000
3000
0002
0003
,  // measure 40
0000
0000
0000
0000
,  // measure 41
0010
0010
0010
0010
,  // measure 42
0100
0100
0100
0100
,  // measure 43
1000
0000
0010
0000
,  // measure 44
0220
0000
0330
0000
,  // measure 45
2000
3000
0002
0003
,  // measure 46
0010
0010
0100
0100
,  // measure 47
2000
3000
0002
0003
,  // measure 48
0100
0100
0001
0001
,  // measure 49
0020
0030
0200
0300
,  // measure 50
1000
0100
0010
0001
,  // measure 51
0200
0000
0000
0300
,  // measure 52
0010
0000
1000
0001
,  // measure 53
2002
0000
0000
3003
,  // measure 54
0100
0100
0010
0010
,  // measure 55
2000
3000
0002
0003
,  // measure 56
0020
0030
0200
0300
,  // measure 57
0000
2000
0000
3000
,  // measure 58
0001
0010
0100
1000
,  // measure 59
0002
0000
0003
0001
,  // measure 60
0200
0000
0300
0100
,  // measure 61
0010
0000
0000
0010
,  // measure 62
1000
0000
0000
1000
,  // measure 63
0001
0000
0000
0001
,  // measure 64
0010
0000
0000
0010
,  // measure 65
0100
0000
0000
0100
,  // measure 66
1000
0000
0000
1000
,  // measure 67
0001
0000
0000
0001
,  // measure 68
0100
0000
0000
0010
,  // measure 69
0110
0000
0000
0000
;

//---------------dance-single - ----------------
#NOTES:
     dance-single:
     :
     Medium:
     5:
     0.326,0.339,0.263,0.207,0.000:
2000
0000
3000
1000
0000
0000
0010
0000
,
0200
0000
0300
0100
0000
0020
0000
0030
,
0002
0000
0003
0001
0000
0000
0000
0000
,
2000
0000
3000
1000
0000
0002
0000
0003
,
0001
0100
0010
0100
,
0001
0000
1000
0000
0100
1000
0100
1000
,
0100
0000
0010
0000
0001
0000
0000
0200
,
0000
0020
0000
0000
0000
0000
0330
0000
,
0001
0000
1000
0000
0100
1000
0100
0000
,
0010
0000
0001
0000
0100
0010
0100
0000
,
0002
0000
0000
2000
0000
0000
0000
0000
,
3003
0000
0000
1000
0100
0000
1000
0000
,
1100
0000
0000
0011
0000
0000
0001
0000
,
0100
0000
0010
0000
1000
0100
1000
0000
,
1001
0000
0000
0110
0000
0000
0001
0000
,
0010
0001
0010
0000
0100
1000
0100
0000
,
1100
0000
0000
1010
0000
0000
0010
0000
,
0100
0010
0100
0000
0001
1000
0001
0000
,
0110
0000
0000
1001
0000
0000
0010
0000
,
0100
0001
0100
0000
0001
0000
0000
0000
,
1000
0000
0100
1000
0100
0000
0010
0000
,
0001
0100
0001
0000
0010
0000
0100
0000
,
1000
0000
0010
0100
0010
0000
0000
2000
,
0000
0002
0000
0000
0000
0000
3003
0000
,
1000
0000
0100
0000
0010
0100
0010
0000
,
0100
1000
0001
0100
,
0020
0000
0000
0200
0000
0000
0000
0000
,
0330
0000
1000
1000
,
0100
0000
0010
0000
0001
1000
0001
0000
,
0010
0100
0010
0000
0011
0000
1100
0000
,
1000
0000
0010
0000
0100
0010
0100
0000
,
0001
1000
0001
0000
0010
0000
0100
0000
,
2000
0000
0000
0002
0000
0000
3003
0000
,
0002
0000
0000
0000
0003
0001
0000
0000
,
2000
0000
0000
0000
3000
1000
0000
0020
,
0000
0000
0130
0000
,
1000
0100
1000
0010
0000
0010
0000
0100
,
0000
0001
0000
0010
0100
0010
0100
0000
,
0011
0000
0000
1100
0000
0010
0100
0010
,
0000
1000
0000
0001
0000
0010
0100
0010
,
0000
0010
0000
0001
0000
0001
0000
0100
,
0000
0100
0000
0010
0000
0010
0000
2000
,
0000
0000
0000
0000
3000
0100
1000
0100
,
0000
0100
0000
0010
0001
0000
1000
0000
,
1001
0000
0000
0110
0000
1000
0001
1000
,
0000
0100
0000
0010
0001
0010
0001
0000
,
1001
0000
0000
0110
0000
0010
1000
0010
,
0000
1000
0000
0100
1000
0100
1000
0000
,
1100
0000
0000
0011
0000
0000
0100
0010
,
0110
0000
0000
1001
0000
0000
1000
0100
,
1100
0000
0000
0011
0000
0001
1000
0000
,
0010
0100
0010
0000
1000
0000
0100
0000
,
0020
0001
1000
0031
,
0200
1000
0010
1300
,
0020
0001
1000
0130
,
0002
0100
0010
1003
,
0020
0001
1000
0130
,
2000
0100
0001
3010
,
0200
1000
0001
0310
,
0020
0000
1000
0000
0100
0100
0130
0000
,
0110
0000
0000
0000
0000
0110
0000
1001
,
0000
0000
0000
0000
0000
1001
0000
1100
,
0000
0000
0000
0000
0000
1100
0000
0011
,
0000
0000
0000
0000
0000
0011
0000
1001
,
0000
0000
0000
0000
0000
0110
0000
1010
,
0000
0000
0000
0000
0000
1100
0000
0011
,
0000
0000
0000
0000
0000
1001
0000
0110
,
0000
0000
0000
0000
0000
2000
0000
0000
,
3001
0000
0000
0000
;

//---------------dance-single - ----------------
#NOTES:
     dance-single:
     :
     Hard:
     7:
     0.477,0.412,0.242,0.185,0.004:
2000
0000
3100
0010
0100
0000
1100
0000
,
2000
0000
3010
0100
0001
0000
0011
0000
,
0002
0000
0103
0010
0100
0000
0010
0000
,
2000
0000
3100
1000
0010
0000
0110
0000
,
0010
1000
0010
1000
0100
0100
0000
0010
,
0001
0100
0000
0001
1000
1000
0100
0100
,
0000
0010
0100
1000
0010
0100
0000
0002
,
0000
2003
0000
0000
3100
0000
1100
0000
,
1000
0010
0100
0001
0010
0010
0000
0001
,
0010
0100
0010
0001
0000
1000
0010
1000
,
0000
0100
1000
0200
0000
0010
0000
0310
,
0200
0000
1300
1100
,
1000
0010
0100
0001
0000
1000
0001
1000
,
0000
0001
0010
0100
0010
0001
0100
0010
,
0100
0001
1000
0100
0000
1000
0100
0010
,
0000
0100
1000
0010
0100
0001
0100
0001
,
1000
0100
0010
0100
0000
0010
0001
0100
,
0000
0010
0100
0001
0010
0100
0010
0100
,
0010
0001
1000
0010
0000
0100
0001
0100
,
0000
0010
1000
0100
0010
0200
0000
0300
,
1000
0000
1100
0000
1000
0010
0100
0000
,
0010
0010
0100
0000
0001
0010
1000
0010
,
0001
0000
1001
0000
1000
0010
0000
0110
,
0000
0102
0000
0010
0013
0000
0011
0000
,
0001
0100
0010
1000
0100
0100
0000
1000
,
0010
0010
0100
0001
0000
0010
0100
1000
,
0000
0001
0100
0001
0000
1000
0100
0000
,
2001
0000
0100
3100
,
0010
0001
0010
0001
0100
0100
0000
0010
,
0100
0100
0000
0010
1000
0100
0010
0001
,
0000
0001
0100
0010
0100
0100
0000
0010
,
1000
0100
0001
0100
0000
1000
0010
0100
,
0002
0000
1000
1003
0000
0010
0100
2000
,
0000
0100
3100
0000
0010
0100
1000
0000
,
1002
0000
0100
0103
0000
0010
0100
0002
,
0000
1000
1003
0000
0001
0000
1001
0000
,
1000
0100
0010
0100
0000
1000
0100
0000
,
1000
0010
0100
0001
0000
0010
0010
0000
,
0001
0100
0010
0100
0000
0001
1000
0000
,
0100
1000
0010
1000
0000
0100
1000
0010
,
0100
0010
0100
0010
0100
0010
0100
0001
,
0100
1000
0100
1000
0100
1000
0100
0020
,
1000
0000
0100
0000
1030
0010
1000
0100
,
0000
0100
0010
0000
0010
0001
0100
0001
,
1000
0100
0010
0100
0000
0100
1000
0000
,
0001
1000
0010
0100
0001
0000
1001
0000
,
1000
0100
0010
0100
0000
0100
1000
0000
,
1000
0010
0001
0010
0100
0001
0010
0000
,
0010
0001
0100
0001
0000
0001
1000
0000
,
1000
0100
0010
0001
0000
0001
0100
0010
,
2000
0000
0100
0000
3001
0010
0100
0010
,
0002
0100
0103
0000
0010
0100
0001
1000
,
2100
3001
0020
0130
,
1000
0100
0010
0001
0010
0100
1000
0010
,
0200
0000
1300
0100
0002
0000
0013
0001
,
0020
0000
0130
1000
0000
0010
0100
0001
,
1000
2100
0010
3010
,
1000
0000
0010
0000
0100
0000
0001
0000
0010
0000
0000
0001
0000
0000
0100
0000
,
0020
0000
0130
0010
1000
0100
0010
0100
,
2000
0000
3001
0100
0001
0000
0101
0000
,
1010
0000
1000
0100
0010
0011
0000
1100
,
0000
1000
0010
0100
0010
1010
0000
1100
,
0000
1000
0100
0010
0001
0011
0000
0101
,
0000
0010
0100
0001
1000
1001
0000
0011
,
0000
0001
0010
0100
1000
1100
0000
0110
,
0000
0010
0100
1000
0010
0110
0000
1010
,
0000
1000
0001
0010
0001
1001
0000
1010
,
0000
0100
0010
1000
0001
1100
0000
0000
,
1001
0000
0000
0000
;

//---------------dance-single - ----------------
#NOTES:
     dance-single:
     :
     Challenge:
     8:
     0.555,0.484,0.221,0.164,0.160:
2000
0000
3100
1000
0010
0100
0100
0000
,
0020
0000
1030
0010
0001
0010
0010
0100
,
0002
0000
0013
0100
0010
0001
0001
0000
,
2000
0000
3010
0100
0010
1000
0100
0000
,
1000
0000
0100
0000
0010
0000
0010
0001
0100
0000
0010
0000
0000
0000
1000
0100
,
1000
0000
0001
0000
0000
0000
0100
0010
0100
0000
0010
0000
0010
0000
1000
0000
,
0000
0000
0100
0000
1000
0000
0010
0100
0010
0000
1000
0000
0000
0000
1100
0000
,
0000
0201
0000
0301
1000
0100
0100
0000
,
0011
0000
0100
0000
0100
0000
0010
0001
0100
0000
0010
0000
0000
0000
0100
0000
,
0001
1000
1000
0100
0000
0010
0100
1000
,
0020
0000
0230
0001
0300
0001
1000
0100
,
0010
0000
0000
0000
0100
0000
1000
0000
0010
0000
0000
0100
0000
0000
0001
1000
,
0100
0001
0100
1000
0010
0100
0100
0010
,
1000
0000
0100
0000
0010
0000
0100
0000
1000
0000
0000
0010
0000
0000
0100
0010
,
1000
0100
0010
0001
0100
0010
0010
0100
,
0001
0000
0010
0000
0001
0000
1000
0000
0010
0000
0000
1000
0000
0000
0100
1000
,
0010
0100
0001
0010
1000
0010
0001
0100
,
0010
0000
1000
0000
1000
0000
0100
0000
1000
0000
0000
0001
0000
0000
0100
1000
,
0100
0001
0010
0100
1000
0010
0100
0001
,
1000
1000
0100
0010
0000
2200
0000
3300
,
0010
0000
0001
0000
0001
0000
0100
0010
0100
0000
0001
0000
0000
0000
1000
0100
,
1000
0000
0001
0000
0000
0000
0100
0001
0100
0000
0010
0000
0010
0000
1000
0000
,
0000
0000
0100
0000
1000
0000
0010
0100
0001
0000
0010
0000
0000
0000
0011
0000
,
0000
2100
0000
0010
3010
0000
0110
0000
,
0010
0000
1000
0000
1000
0000
0100
1000
0010
0000
0100
0000
0000
0000
0001
0010
,
0100
0010
0001
0100
0000
0010
0100
0001
,
2000
0000
3100
1000
0020
0000
0130
0001
,
0020
0000
1000
0000
0031
0100
0100
0010
,
1000
0000
0100
0000
0100
0000
0010
0001
0100
0000
0010
0000
0000
0000
1000
0010
,
0100
0000
0001
0000
0000
0000
1000
0100
1000
0000
0010
0000
0010
0000
0100
0000
,
0000
0000
0001
0000
0010
0000
0100
0010
0001
0000
0100
0000
0000
0000
0010
1000
,
0100
0010
0100
1000
0000
0010
0100
0001
,
2100
0000
0010
0000
3100
0010
0001
0100
,
0020
0000
0001
0000
1030
0100
0010
0000
,
0021
0000
0130
0000
0010
0001
0100
0010
,
2000
0000
0000
0000
3100
0000
0000
0000
1000
0000
0000
0100
0000
0000
0010
0100
,
1000
0010
0100
0001
0010
0100
0100
0001
,
0100
0000
1000
0000
0010
0000
1000
0000
0001
0000
0000
0100
0000
0000
0010
0100
,
0001
0010
0100
1000
0010
0100
0100
0010
,
1000
0100
0100
1000
0010
0100
0001
0010
,
0100
0010
0100
0010
0001
0010
1000
0010
,
0001
0010
0001
0010
0100
1000
0010
0100
,
0020
0000
1030
0000
0100
1000
0010
0110
,
0000
0000
0101
0000
0000
0000
1000
0000
0100
0000
0000
0010
0000
0000
0001
0010
,
0100
1000
0010
0100
0010
1000
1000
0100
,
0001
0000
0100
0000
1000
0000
0010
0000
0100
0000
0000
0001
0000
0000
1000
0100
,
0001
0100
1000
0010
0100
0001
0001
0010
,
0001
0000
0100
0000
1000
0000
0100
0000
0001
0000
0000
0010
0000
0000
0100
0010
,
0001
0000
0100
0000
0100
0000
0010
0000
1000
0000
0100
0000
0010
0000
0100
0010
,
0001
0100
1000
0100
0001
0010
0100
0010
,
0001
0100
0100
0010
1000
0100
0001
0100
,
2000
0001
3001
0000
0100
0010
1000
0001
,
0012
1000
0100
1003
,
1000
0000
0100
0000
0010
0000
0001
0000
0000
0100
0000
0000
0010
0000
0000
1000
0000
0000
0100
0000
0000
0001
0000
0000
,
0200
0000
0310
0100
2000
0000
3010
0100
,
0001
0000
0010
0000
0001
0000
0100
0010
1000
0000
0100
0000
0001
0000
0100
0000
,
1000
1020
0100
0130
,
0001
0000
0000
0000
0010
0000
0000
0000
0100
0000
0000
0000
1000
0000
0000
0000
0000
0000
0010
0000
0000
0000
0000
0000
0100
0000
0000
0000
0000
0000
0001
0000
0000
0000
0000
0000
0010
0000
0000
0000
0000
0000
0001
0000
0000
0100
0000
0000
,
0010
1000
1000
0100
0001
0100
1000
0010
,
0000
0010
0100
0000
0011
0000
1100
0000
,
1001
0000
1000
0010
0100
0101
0010
1010
,
0000
1000
0100
0010
0001
0011
0100
1100
,
0000
1000
0010
0100
0001
0101
0010
0110
,
0000
0001
1000
0100
0010
0110
0100
1100
,
0000
0000
1000
0010
1000
0000
0010
0000
0100
0000
0101
0000
0001
0000
0011
0000
,
0000
0000
0010
0100
0010
0000
0100
0000
1000
0000
1010
0000
0010
0000
0110
0000
,
0000
0000
0100
0000
0001
0000
0010
0001
0010
0000
0110
0000
0100
0000
1100
0000
,
0000
0000
1000
0000
0001
0000
0100
0000
0010
0000
1000
0100
0010
0000
0000
0000
,
0110
0000
0000
0000
;
