#TITLE:Reflected Fantasia;
#SUBTITLE:;
#ARTIST:IRUKABU;
#TITLETRANSLIT:;
#SUBTITLETRANSLIT:;
#ARTISTTRANSLIT:;
#CREDIT:Grithokskulk;
#BANNER:Reflected Fantasia.png;
#BACKGROUND:Reflected Fantasia-bg.png;
#LYRICSPATH:;
#CDTITLE:REFLEC BEAT.png;
#MUSIC:Reflected Fantasia.mp3;
#OFFSET:-5.671;
#SAMPLESTART:63.615;
#SAMPLELENGTH:15.000;
#SELECTABLE:YES;
#BPMS:0.000=138.000;
#STOPS:;
#BGCHANGES:;

//---------------dance-single - ----------------
#NOTES:
     dance-single:
     :
     Easy:
     2:
     0.192,0.208,0.067,0.172,0.000: // measure 1
1000
0000
0000
0100
0000
0000
0020
0000
,  // measure 2
0000
0030
0000
0000
0001
0000
0000
0100
,  // measure 3
0000
0000
0020
0000
0000
0030
0000
0000
,  // measure 4
0100
0000
0000
0001
0000
0000
2000
0000
,  // measure 5
0000
3000
0000
0000
0100
0000
0000
0010
,  // measure 6
0000
0000
0200
0000
0000
0300
0000
0000
,  // measure 7
0010
0000
0000
0001
0000
0000
0100
0000
,  // measure 8
0000
0010
0000
0000
0100
0000
0000
0002
,  // measure 9
0000
0000
0003
0000
0000
1000
0000
0000
,  // measure 10
0100
0000
0000
0010
0000
0000
0100
0000
,  // measure 11
0000
1000
0000
0000
0010
0000
0000
0110
,  // measure 12
0000
0000
0200
0000
0000
0300
0000
0000
,  // measure 13
0001
0000
0000
0010
0000
0000
0100
0000
,  // measure 14
0000
0010
0000
0000
0001
0000
0000
1000
,  // measure 15
0000
0000
0020
0000
0000
0030
0000
0000
,  // measure 16
0100
0000
0000
0010
0000
0000
1000
0000
,  // measure 17
0000
0100
0000
0000
0010
0000
0000
0110
,  // measure 18
0000
0000
0100
0000
0000
0110
0000
0000
,  // measure 19
0100
0000
0000
0100
0000
0000
1000
0000
,  // measure 20
0000
0010
0000
0000
0100
0000
0000
0010
,  // measure 21
0000
0000
1000
0000
0000
1001
0000
0000
,  // measure 22
0001
0000
0000
0010
0000
0000
0100
0000
,  // measure 23
0000
0010
0000
0000
0001
0000
0000
0100
,  // measure 24
0000
0000
0010
0000
0000
0100
0000
0000
,  // measure 25
0002
0000
0000
2003
,  // measure 26
0000
0000
3200
0000
,  // measure 27
0000
0320
0000
0000
,  // measure 28
0230
0000
0000
0010
,  // measure 29
0000
0000
0010
0000
,  // measure 30
0000
0310
0000
0000
,  // measure 31
0020
0000
0000
0001
,  // measure 32
0000
0000
0001
0000
,  // measure 33
0000
0000
0100
0000
0000
0031
0000
0000
,  // measure 34
0000
0000
0000
0100
0000
0000
0010
0000
,  // measure 35
0000
0100
0000
0000
0001
0000
0000
0010
,  // measure 36
0000
0000
0100
0000
0000
0110
0000
0000
,  // measure 37
0000
0000
0000
1000
0000
0000
0010
0000
,  // measure 38
0000
1000
0000
0000
0100
0000
0000
1000
,  // measure 39
0000
0000
1000
0000
0000
0001
0000
0000
,  // measure 40
1001
0000
0000
0001
0000
0000
0100
0000
,  // measure 41
0000
0001
0000
0000
0010
0000
0000
0100
,  // measure 42
0000
0000
0100
0000
0000
0110
0000
0000
,  // measure 43
0010
0000
0000
0001
0000
0000
1000
0000
,  // measure 44
0000
0010
0000
0000
0100
0000
0000
0001
,  // measure 45
0000
0000
1000
0000
0000
0100
0000
0000
,  // measure 46
0010
0000
0000
0000
,  // measure 47
0000
0000
0000
0000
,  // measure 48
0000
0000
0000
0000
0000
0010
0000
0000
,  // measure 49
0001
0000
0000
0100
0000
0000
0001
0000
,  // measure 50
0000
0020
0000
0000
0030
0000
0000
0200
,  // measure 51
0000
0000
0300
0000
0000
1000
0000
0000
,  // measure 52
0010
0000
0000
0100
0000
0000
0010
0000
,  // measure 53
0000
2000
0000
0000
3000
0000
0000
0002
,  // measure 54
0000
0000
0003
0000
0000
0020
0000
0000
,  // measure 55
0030
0000
0000
0100
0000
0000
0000
0000
;

//---------------dance-single - ----------------
#NOTES:
     dance-single:
     :
     Medium:
     6:
     0.382,0.365,0.019,0.134,0.000:
1000
1000
0000
0100
0100
0000
1000
0010
,
1000
0010
0000
0000
0100
0100
0000
0001
,
0001
0000
0010
0001
0010
0001
0000
0000
,
0100
0000
0010
0010
0010
0000
0100
0000
,
0001
0000
1000
0000
0100
0000
0010
0010
,
0010
0100
1000
0010
,
0000
0100
0100
0000
0001
0001
0000
0010
,
0001
0100
0010
0100
0001
0000
1000
1000
,
0000
0000
0000
0100
0100
0010
0100
1000
,
0000
0010
0010
0000
0100
0100
0000
0010
,
1000
0100
0010
0001
0200
0000
0000
0310
,
0000
0000
0100
0010
0100
0002
0000
1003
,
0000
0100
0010
0000
0010
0100
0000
0100
,
1000
0010
0100
0001
0010
0000
0010
0001
,
0000
0000
0000
0001
0100
0010
0100
0001
,
0000
1000
0100
0000
0100
0010
0100
1000
,
0010
0100
0001
0010
0001
0000
0100
0100
,
0000
0000
0000
0010
0100
0010
1000
0100
,
0010
0000
0000
0100
1000
0010
0100
0000
,
0000
0001
0010
0100
0010
0000
0000
0001
,
0000
0000
0200
0000
0000
0300
0000
0000
,
0010
0000
0000
0100
0001
0100
0001
0000
,
0000
1000
0100
1000
0100
0000
0000
0010
,
0001
0010
0001
0000
0000
0100
0010
0100
,
0020
0000
0000
0100
0000
0000
1000
0000
,
0000
0001
0000
0000
0100
0000
0000
0001
,
0000
0000
1000
0000
0000
0130
0000
0000
,
0002
0000
0000
0003
1000
1000
0200
0000
,
0000
0300
0010
0010
0200
0000
0000
0300
,
1000
1000
0020
0000
0000
0230
0000
0000
,
0302
0000
0000
0013
0001
0010
0200
0000
,
0000
0320
0000
0000
0031
0100
0001
0100
,
0000
0010
0100
0000
0001
1000
0000
0200
,
0000
0000
0300
0010
0000
0010
0100
0000
,
0000
1000
0000
1000
0001
0000
0000
0100
,
0010
0100
0001
0100
0010
0100
0000
0000
,
0010
0000
0000
1000
0001
1000
0100
0000
,
0000
0010
0001
0100
0010
0000
0000
0100
,
0001
0100
0010
1000
0010
1000
0000
0100
,
0010
0000
0000
0100
0000
1000
0001
1000
,
0001
0100
0000
0010
0100
0010
0100
0001
,
0100
0001
1000
0100
1000
0010
0000
0000
,
0100
0010
1000
0100
0000
0000
0110
0000
,
0000
0010
0000
0000
0011
0000
0000
0001
,
0100
0001
1000
0100
1000
0001
0010
0001
,
1000
0010
1000
0000
0000
0000
0000
0000
,
0000
0000
0000
0000
,
0000
0000
0000
0000
0000
0100
0000
0010
,
0100
0000
0001
0010
0000
0100
1000
0000
,
0010
0100
0000
0100
0010
0000
0010
1000
,
0000
1000
0100
1000
0100
0010
0000
0010
,
0100
0000
0100
1000
0000
1000
0001
1000
,
0001
0100
0000
0100
0001
0000
0001
0010
,
0000
0010
0100
0010
0001
2000
0000
0000
,
0000
0000
0000
3001
0000
0000
0000
0000
;

//---------------dance-single - ----------------
#NOTES:
     dance-single:
     :
     Hard:
     8:
     0.577,0.599,0.029,0.230,0.168:
1000
0000
0100
0010
0100
0000
1000
0000
0010
0100
0010
0000
0100
0000
0001
1000
,
0001
0000
0020
0000
0100
0000
0130
0000
0010
0000
0001
0100
0001
0000
0100
0000
,
0010
1000
0010
0000
1000
0000
0100
0010
0100
0000
1000
0000
0010
0000
0100
0000
,
0102
0000
0010
0010
0013
0000
0200
0000
,
1000
0000
0301
0000
0020
0000
0100
0100
,
0130
2000
0001
0010
,
3100
0001
0001
0100
1000
1000
0100
0001
,
0100
1000
0010
0001
0020
0000
0100
0230
,
0000
0000
0301
0010
1000
0010
0001
0100
,
0010
1000
1000
0010
0001
0001
0010
0100
,
0010
1000
0100
0001
0200
0000
0010
0320
,
0000
0001
0031
0100
1000
0200
0000
0310
,
1000
0100
0100
0001
0100
0100
0010
0100
,
0100
1000
0010
0100
1000
0000
1000
0100
,
0000
0100
0001
0010
0010
0100
0010
0001
,
0100
0010
0010
1000
0010
0010
0001
0010
,
1000
0100
0001
0100
0010
0001
0001
0010
,
0000
0000
0010
0100
0010
0001
0100
0010
,
2010
0000
0000
0000
0100
3000
0010
0000
0100
0000
1000
0000
0020
0000
0000
0000
,
0130
0000
1000
0000
0100
0000
0001
0000
0020
0000
0000
0000
0100
0030
0200
0000
,
0000
0310
0001
0001
0001
1000
1000
1000
,
0002
0000
0013
0100
0010
0001
0100
0000
,
0100
0010
1000
0100
0001
0000
0001
0100
,
0010
0001
0100
0010
0010
0100
0001
0001
,
2000
0000
0100
0100
0000
0010
0010
0000
,
0001
0001
0001
0001
0100
0000
0010
0010
,
0000
0100
0100
0000
0010
0010
0010
3010
,
0200
0000
0310
0010
0100
1000
0100
0000
,
0001
0001
0010
0100
1000
0000
0100
0100
,
0010
0001
1000
0000
0100
0100
0000
0010
,
0010
0000
0001
0010
0100
0010
0001
0000
,
1000
1000
0000
0010
0100
0001
0010
0100
,
0000
0001
0100
1000
1000
0010
0100
0100
,
0000
0000
0000
0000
0000
0000
0001
0010
0000
0010
0100
0000
0010
0000
0001
0000
,
0100
0000
0010
1000
0000
1000
0100
0000
0001
0000
0100
0000
1000
0000
0001
0000
,
0001
0000
0100
0000
1000
0000
1000
0000
0100
0000
0001
0000
0000
0001
0010
0000
,
0100
0000
0100
0000
0100
0000
0010
0001
0000
0001
0010
0000
0100
0000
0010
0000
,
0001
0000
0100
1000
0000
1000
0100
0000
0010
0000
1000
0000
0100
0000
0010
0000
,
0010
0000
0010
0000
0100
0000
0100
0000
0100
0000
1000
0001
0000
0001
1000
0000
,
1001
0000
0000
0000
0000
0000
0001
0010
0000
0010
0100
0000
0010
0000
0001
0000
,
0100
0000
1000
0100
0000
0100
0010
0000
1000
0000
0100
0000
0001
0000
0100
0000
,
0100
0000
0100
0000
0010
0000
0010
0000
0010
0000
0001
0000
0000
0001
1000
0000
,
0010
0100
0010
2000
0000
0100
3200
0000
,
0010
0320
0000
0100
0230
0000
1000
1300
,
0010
0010
0100
1000
1000
0100
0001
0001
,
0010
0100
0100
0000
0000
0000
0000
0000
,
0000
0010
0010
0010
0020
0000
0000
0031
,
0001
0001
0002
0000
0000
0103
1000
0100
,
0001
0000
0000
0001
0010
0000
0100
0000
0100
0000
0100
0000
0010
0000
0010
0000
,
0010
0000
0001
0000
0100
0010
0100
0000
0001
0000
0010
0100
0010
0000
0001
0000
,
0100
0010
0100
0001
0010
0000
0100
0000
1000
0000
0010
0000
0100
0010
0100
0000
,
0010
0000
1000
0100
1000
0000
0010
0000
1000
0100
0001
0100
1000
0000
0010
0000
,
0100
0000
0010
0000
1000
0100
1000
0000
0010
0000
0100
0001
0100
0000
0001
0000
,
0010
0100
0001
0100
1000
0000
0010
0000
0100
0000
0002
0000
0000
0000
0000
0000
,
0000
0000
0000
1003
0000
0000
0000
0000
;
