#TITLE:Recursive function;
#SUBTITLE:;
#ARTIST:OSTER project;
#TITLETRANSLIT:;
#SUBTITLETRANSLIT:;
#ARTISTTRANSLIT:;
#CREDIT:Grithokskulk;
#BANNER:Recursive function.png;
#BACKGROUND:Recursive function-bg.png;
#LYRICSPATH:;
#CDTITLE:SOUND VOLTEX.png;
#MUSIC:Recursive function.mp3;
#OFFSET:-6.998;
#SAMPLESTART:13.155;
#SAMPLELENGTH:15.000;
#SELECTABLE:YES;
#BPMS:0.000=145.000;
#STOPS:;
#BGCHANGES:;

//---------------dance-single - ----------------
#NOTES:
     dance-single:
     :
     Easy:
     5:
     0.272,0.322,0.181,0.163,0.000: // measure 1
0000
0100
0000
0000
0000
0010
0000
0000
,  // measure 2
1000
0000
0000
0000
0100
0000
0000
0010
,  // measure 3
0000
0000
0000
0100
0000
0000
0000
0000
,  // measure 4
0110
1001
0000
0001
,  // measure 5
0100
0001
0000
0010
,  // measure 6
0100
0010
0000
0001
,  // measure 7
1000
0001
0000
2000
,  // measure 8
3000
0020
0030
0100
,  // measure 9
0010
0100
0000
0001
,  // measure 10
1000
0001
0000
0010
,  // measure 11
0100
1000
0000
0010
,  // measure 12
0000
0100
0000
0000
0001
0000
0000
0010
,  // measure 13
0000
0200
0000
0010
,  // measure 14
0010
0020
0000
0330
,  // measure 15
0000
1000
0010
0100
,  // measure 16
0010
1000
0002
0003
,  // measure 17
0010
0001
0100
0100
,  // measure 18
0010
0200
0300
0010
,  // measure 19
1000
0100
0010
0100
,  // measure 20
2000
0000
0001
0001
,  // measure 21
0002
0000
3003
1001
,  // measure 22
0000
0100
0010
0110
,  // measure 23
0000
1000
1100
0000
,  // measure 24
0010
0001
1001
0000
,  // measure 25
1000
0000
0010
0000
0000
0100
0000
0000
,  // measure 26
0010
0000
0000
1000
0000
0000
0001
0000
,  // measure 27
0010
0200
0000
0000
,  // measure 28
0000
0000
0310
0000
0000
0110
0000
0000
,  // measure 29
0000
0010
0001
0010
,  // measure 30
0001
0100
0010
0100
,  // measure 31
0010
1000
0100
0010
,  // measure 32
0100
1000
0010
0110
,  // measure 33
0000
0001
0010
0100
,  // measure 34
0010
0001
1000
0010
,  // measure 35
1000
0000
0100
0100
,  // measure 36
0000
0110
0000
0000
,  // measure 37
0000
1001
0000
0000
0000
0000
0000
0000
,  // measure 38
0001
0100
0010
0000
,  // measure 39
1001
0000
0000
0000
0000
0000
0000
1100
,  // measure 40
0000
0000
0000
0020
,  // measure 41
0130
0200
1300
2000
,  // measure 42
3010
0020
0130
0220
,  // measure 43
0000
0000
0330
1001
,  // measure 44
0000
0010
0110
0000
,  // measure 45
0000
1100
0000
0000
,  // measure 46
0000
0011
0000
0001
,  // measure 47
0001
0100
0010
1000
,  // measure 48
0100
0010
0100
2000
,  // measure 49
3001
1000
0010
0001
,  // measure 50
0010
0100
0001
0010
,  // measure 51
0100
0010
0010
0001
,  // measure 52
1001
1000
0010
0100
,  // measure 53
0010
0100
0001
1000
,  // measure 54
0100
0010
0010
0100
,  // measure 55
0100
1000
0001
2002
,  // measure 56
3003
0001
0100
0010
,  // measure 57
0100
0001
0010
0100
,  // measure 58
1000
0000
0100
0100
,  // measure 59
0000
1000
0000
0001
,  // measure 60
0000
1001
0000
0000
0000
0000
0000
0000
;

//---------------dance-single - ----------------
#NOTES:
     dance-single:
     :
     Medium:
     7:
     0.395,0.403,0.254,0.145,0.050:
0000
1000
0000
0100
0010
0100
0000
1000
,
0001
0000
0100
0010
0100
0000
0001
0010
,
0000
0100
0010
0100
0000
0010
0000
0000
,
1001
0110
0000
0001
,
0010
0100
0010
0000
0001
0000
1000
0000
,
0010
1000
0100
0000
0010
0000
0100
0000
,
1000
0010
1000
0000
0001
0000
0010
0100
,
0010
0001
0100
0010
0100
0000
0001
0000
,
1000
0100
1000
0000
0010
0000
0100
0000
,
0010
1000
0001
0000
0010
0000
0100
0000
,
0010
0000
0001
0000
0100
0000
0000
0000
0001
0000
0000
0000
1000
0000
0000
1000
,
0000
0000
0001
0000
0000
0001
0000
0000
0100
0000
0000
0100
0000
0000
0010
0000
,
0000
0010
0000
0000
2000
0000
0000
0000
0000
0000
0000
0000
0100
0000
0000
0000
,
0010
0002
3003
0101
,
0000
0000
0010
0000
0100
0010
1000
0000
,
0100
0010
0100
1000
0010
0000
0000
0000
,
0100
0000
0010
1000
0010
0000
0100
0001
,
0000
0010
0100
0000
0000
0000
0010
0000
,
0001
0010
0001
0000
1000
0000
0010
0000
,
0210
0000
0010
0010
,
0302
0010
1003
1001
,
0000
0100
1000
1010
,
0010
0100
0110
0000
,
1000
0001
0011
0001
,
0100
0000
0110
0000
0000
1010
0000
0000
,
1100
0000
0000
0011
0000
0000
0100
0000
,
0010
2002
0000
0000
,
3003
0000
0001
1000
0001
0000
1001
0000
,
0000
0000
0010
0100
0010
0000
1000
0000
,
0100
0000
0010
0100
1000
0000
0001
0000
,
0100
0000
0010
0100
0001
0000
1000
0100
,
0010
0000
0100
1000
0010
0100
0010
0000
,
1010
0000
0001
0010
0100
0000
0010
0000
,
0001
0000
1000
0001
0010
0000
0001
0000
,
1000
0000
0010
0100
0010
0000
1000
0010
,
0000
1001
0000
0000
,
0000
0110
0000
0000
0000
0000
0000
0000
,
0001
0000
0000
0001
0000
0000
1000
0000
0000
1000
0000
0000
0100
0000
0010
0000
,
0100
0000
0000
0000
0000
0000
0000
1100
,
0000
0000
0000
0012
,
0100
0203
1000
2300
,
0010
3020
0001
0032
,
0000
0000
0000
0000
0000
0000
0000
0000
0000
0000
0000
0000
1003
0000
0000
0010
,
0000
0100
0000
0010
0000
0100
0000
0000
0020
0000
0000
0000
0030
0000
0000
0000
,
0000
0202
0000
0000
,
0303
2200
0000
0000
,
3300
0000
0010
0000
0100
0010
0001
0000
,
0100
0000
0010
1000
0001
0010
0001
0000
,
0100
0010
0100
0000
0001
1000
0100
0000
,
0010
0000
0100
1000
0010
1000
0100
0000
,
0010
0000
0001
0010
0001
0000
1000
0010
,
1000
0000
0010
0100
0001
0100
0010
0000
,
1001
0000
0100
0010
0100
1000
0010
0000
,
1010
0000
1000
0001
0010
0000
0001
1000
,
0010
0000
0100
0001
0010
0100
0010
0000
,
0011
0000
1000
0010
0100
0010
1000
0000
,
1001
0000
0010
0100
0010
0001
0100
0000
,
0110
0000
1000
0001
0010
0000
0001
1000
,
0010
0000
0100
0001
0010
0100
1000
0000
,
1010
0000
0000
0101
0000
0000
0000
0000
0000
0000
0000
0000
0000
0000
0000
0000
;

//---------------dance-single - ----------------
#NOTES:
     dance-single:
     :
     Hard:
     9:
     0.658,0.644,0.381,0.408,0.934:
0000
0000
1000
0000
0100
0010
0000
0100
0000
1000
0000
0010
0000
0100
0010
0100
,
0001
0000
0010
0100
0000
0010
0000
0001
0000
0100
0000
0010
0100
0010
1000
0000
,
0100
0000
0000
0010
0000
0000
0000
0000
0000
1000
0000
0000
0000
0000
0000
0010
0000
0000
0000
0000
0000
0100
0000
0000
0000
0000
0000
1000
0000
0000
0010
0000
0000
0100
0000
0000
0000
0000
0000
0000
0010
0000
0000
0000
0100
0000
0000
0000
,
0210
0000
0000
0000
0301
0010
0001
0010
0100
0010
0100
0010
0001
0000
0100
1000
,
0000
0100
0000
0010
0000
1000
0000
0100
0010
0000
0100
0000
1000
0000
0010
0100
,
0000
1000
0000
0100
0000
0001
0000
0010
0100
0000
0010
0000
0001
0000
0100
1000
,
0000
0100
0000
0010
0000
1000
0000
0100
0001
0000
0100
0000
2000
0010
0000
0010
,
0000
0010
0000
0010
3000
0000
0010
0000
1001
0000
0000
0000
0010
0000
0100
0010
,
0000
0001
0000
0100
0000
1000
0000
0100
0010
0000
1000
0000
0100
0000
0001
0100
,
0000
0010
0000
1000
0000
0010
0000
0001
0100
0000
0010
0000
0001
0000
1000
0100
,
0000
0010
0000
1000
0000
0100
0000
0010
1000
0000
0010
0000
0100
0000
0000
0110
,
0000
0000
1000
0000
0000
1010
0000
0000
0001
0000
0000
0011
0000
0000
0100
0000
,
0000
0110
0000
0000
0102
0000
0000
0000
0010
0000
0000
0000
1000
0000
0000
0000
,
0010
0000
0000
0000
0100
0000
0000
0100
0000
0000
0100
0000
0023
0000
0000
0000
,
0000
1000
0001
0230
,
0001
0010
2300
0000
,
0010
0001
3020
0001
,
0100
2030
0000
0100
,
0001
3020
0001
0100
,
2030
3200
0320
0230
,
0001
0000
0000
0001
0000
0000
0002
0000
0303
0000
0100
0000
0110
0000
0000
0210
,
0000
0000
1000
0000
0010
0000
0000
0000
0310
0000
0000
0000
0011
0000
0000
0012
,
0000
0000
0000
0000
0103
0000
0000
0000
1001
0000
0000
2001
0000
0000
0010
0000
,
0100
0000
0000
0000
3100
0000
0000
0000
1100
0000
0000
2100
0000
0000
0000
0000
,
3010
0000
0220
0000
0330
0202
0000
0303
,
0022
0000
0033
2200
0000
3300
1001
0000
,
0110
0102
0000
0000
,
0000
0000
0000
0000
1003
0001
1000
0001
0000
0100
0000
0010
0000
0000
0202
0000
,
0000
0000
0303
0000
1000
0000
0100
0010
0000
0100
0000
1000
0000
0010
0100
0001
,
0010
0100
0010
0001
0100
0000
0010
0100
0000
1000
0000
0100
0000
0001
0000
0010
,
0000
0100
1000
0010
0100
0000
0010
1000
0000
0100
0010
0100
1000
0000
0001
0200
,
0000
0000
0010
0000
0310
0000
0100
0001
0000
0010
0000
0200
0000
0000
0010
0000
,
1000
0000
0010
0000
1300
0000
0010
0100
0000
1000
0000
0100
0000
0001
0100
1000
,
0001
0100
1000
0100
0010
0000
1000
0100
0000
0001
0000
1000
0000
0100
0000
0001
,
0000
0100
1000
0010
0000
0100
0010
0100
0000
0001
1000
0001
0000
0000
2200
0000
,
0000
3300
0011
0000
0000
0000
0000
0000
,
0000
0101
0000
0000
0000
0000
0000
0000
,
0110
0000
0000
1001
0000
0000
1100
0000
0000
0011
0000
0000
1001
0000
0110
0000
,
0101
0000
0000
0000
0000
0000
0000
1001
,
0000
0000
0000
2100
,
3010
0100
0001
0020
0000
0000
0031
1000
0010
0200
0000
0000
,
1300
0100
0010
2000
0000
0000
3100
0001
0100
0020
0000
0000
,
0000
0000
0000
0000
0000
0000
0000
0000
0000
0000
0000
0000
0130
0010
0100
0010
,
0000
0001
0000
1000
0000
0010
0100
1000
0100
0010
1000
0100
0000
0000
0000
0000
,
0000
0000
0110
0000
0000
0000
0000
0011
,
0000
1100
0000
0000
1010
0000
0100
0010
0000
1000
0000
0001
0000
0010
0000
0100
,
0000
1000
0010
0100
0001
0000
0010
0100
0000
0100
0010
0001
0200
0000
0000
1000
,
0000
0000
0310
0000
1000
0000
0100
0001
0000
0100
0000
2000
0000
0000
0010
0000
,
0100
0000
3010
0000
0100
0000
0010
0100
0000
1000
0000
0010
0000
0001
0010
0100
,
0001
0010
0100
0010
0001
0000
1000
0010
0000
0100
0000
1000
0000
0100
0000
0001
,
0000
0010
0100
0010
0000
0001
1000
0001
0100
0010
0100
0020
0000
0000
1000
0000
,
0100
0000
1030
0000
0100
0000
0010
1000
0000
0100
0000
0001
0000
0100
0010
0001
,
0100
0010
1000
0100
1000
0000
0010
0100
0000
1000
0000
0100
0000
0010
0000
1000
,
0000
0100
0001
0100
0010
0000
0001
0010
0000
0001
0100
0010
0100
0000
0010
2000
,
0000
0000
0010
0000
0100
0000
3010
0100
0000
0001
0000
0020
0000
0000
0100
0000
,
0001
0000
0130
0000
1000
0000
0010
0100
0000
1000
0000
0100
0000
0001
0010
0100
,
0010
0001
0100
0010
1000
0000
0100
1000
0000
0010
0000
0100
0000
0010
0000
1000
,
0000
0100
0001
0100
0000
1000
0100
1000
0100
0010
0100
0010
0000
0000
0220
0000
,
0000
0000
0330
0000
1000
0100
1000
0001
0100
0001
1000
0010
0000
0000
0000
0000
,
1100
0000
0000
0101
0000
0000
0000
0000
0000
0000
0000
0000
0000
0000
0000
0000
;
