#TITLE:RISLIM;
#SUBTITLE:-Remix-;
#ARTIST:ric Remixed by Hisashi Nawata;
#TITLETRANSLIT:;
#SUBTITLETRANSLIT:;
#ARTISTTRANSLIT:;
#CREDIT:Grithokskulk;
#BANNER:RISLIM -Remix-.png;
#BACKGROUND:RISLIM -Remix--bg.png;
#LYRICSPATH:;
#CDTITLE:beatmania IIDX.png;
#MUSIC:RISLIM -Remix-.mp3;
#OFFSET:-7.675;
#SAMPLESTART:14.775;
#SAMPLELENGTH:15.000;
#SELECTABLE:YES;
#BPMS:0.000=132.000;
#STOPS:144.000=1.360
;
#BGCHANGES:;

//---------------dance-single - ----------------
#NOTES:
     dance-single:
     :
     Easy:
     2:
     0.177,0.218,0.009,0.196,0.000: // measure 1
1000
0000
0100
0000
,  // measure 2
1000
0100
0000
0000
,  // measure 3
0001
0000
0100
0000
,  // measure 4
0001
0100
0000
0000
,  // measure 5
0020
0000
0030
0000
,  // measure 6
2000
0000
3000
0000
,  // measure 7
0002
0000
0000
0000
,  // measure 8
0000
0000
0003
0000
,  // measure 9
0020
0000
0030
0000
,  // measure 10
0200
0000
0300
0000
,  // measure 11
0020
0000
0000
0030
,  // measure 12
0001
0001
0000
1001
,  // measure 13
1000
0000
0010
0000
,  // measure 14
1000
0100
1000
0000
,  // measure 15
0001
0000
0010
0000
,  // measure 16
0100
0010
0100
0000
,  // measure 17
0020
0000
0030
0000
,  // measure 18
0002
0000
0003
0000
,  // measure 19
0100
0000
0100
0000
,  // measure 20
0100
0100
0100
0100
,  // measure 21
0020
0000
0000
0000
,  // measure 22
0000
1000
1000
1000
,  // measure 23
2030
0000
0000
0000
,  // measure 24
0000
0000
0000
0000
,  // measure 25
3002
0000
0000
0000
,  // measure 26
0000
0000
0000
0000
,  // measure 27
0023
0000
0000
0000
,  // measure 28
0230
0000
0000
0300
,  // measure 29
0010
0010
0000
0100
,  // measure 30
0010
0000
0001
0000
,  // measure 31
0100
0100
0000
0010
,  // measure 32
0100
0000
0001
0000
,  // measure 33
1000
1000
0000
0100
,  // measure 34
1000
0000
0010
0000
,  // measure 35
0100
0000
0010
0000
,  // measure 36
0100
0001
0010
0100
,  // measure 37
1000
0010
0010
0100
,  // measure 38
0000
0001
0010
0001
,  // measure 39
0000
2000
3000
0020
,  // measure 40
0030
0200
0300
0020
,  // measure 41
0030
1000
0100
0010
,  // measure 42
0000
0001
0100
0010
,  // measure 43
0000
2000
3000
0002
,  // measure 44
0003
0010
0100
0010
,  // measure 45
0100
0010
0010
0001
,  // measure 46
0010
0100
0100
1000
,  // measure 47
0100
1000
0000
0010
,  // measure 48
0000
0100
0100
0010
,  // measure 49
0000
1000
0000
0001
,  // measure 50
0000
0010
0001
0010
,  // measure 51
0000
0200
0300
0200
,  // measure 52
0300
0100
0100
0100
,  // measure 53
0100
0000
0000
0000
;

//---------------dance-single - ----------------
#NOTES:
     dance-single:
     :
     Medium:
     5:
     0.358,0.364,0.289,0.521,0.000:
1000
0000
0001
0000
,
1000
0001
0000
0000
,
0010
0000
0100
0000
,
0010
0100
0010
0100
0000
0000
0000
0000
,
2000
0000
0000
3200
0000
0000
0320
0000
,
0230
0000
0000
0320
0000
0000
0032
0000
,
0203
0000
0020
0300
,
0200
0030
0020
0330
,
0200
0000
0000
0302
0000
0000
0023
0000
,
0230
0000
0000
0320
0000
0000
0032
0000
,
0203
0000
0020
0300
,
0130
0010
0100
0010
0000
0000
1001
0000
,
1000
0000
0100
0000
0010
0100
1000
0000
,
0001
0000
0100
0000
0010
0100
0001
0000
,
0010
0000
0100
0000
0010
0001
1000
0000
,
0010
1000
0100
0000
0010
0010
0010
0000
,
0200
0000
0000
0320
0000
0000
0230
0000
,
2300
0000
0000
3020
0000
0000
0230
0000
,
0302
0000
2003
0000
,
3001
1000
0001
1000
0001
1000
0001
1000
,
0200
0000
0000
0000
,
0320
1000
0100
0001
,
0230
0000
0000
0000
,
2300
0000
0000
0000
,
3002
0000
0000
0000
,
0203
0000
0000
0000
,
0320
0000
0230
0000
,
0302
0000
0010
0010
,
0013
0100
0010
0000
0100
0000
0110
0000
,
1000
0001
1000
0000
0001
0000
1001
0000
,
0100
0001
0100
0000
0001
0000
0101
0000
,
1000
0010
1000
0000
0010
0000
1010
0000
,
0100
0010
0100
0010
0100
0000
0110
0000
,
0001
1000
0001
0000
1000
0000
1001
0000
,
0001
0010
0001
0000
0011
0000
1000
0000
,
1010
0110
0101
1001
,
0100
0000
0020
0000
0000
0230
0000
0000
,
2300
0000
3020
0000
0000
0230
0000
0000
,
0302
0013
0110
0100
,
1100
1000
1010
0010
,
0110
0000
0200
0000
0000
0302
0000
0000
,
0023
0000
0032
0000
0000
0203
0000
0000
,
0310
0110
0010
1010
,
1000
1100
1100
0011
,
0011
0000
0200
0000
0000
0302
0000
0000
,
0023
0000
0230
0000
0000
0320
0000
0000
,
0031
0101
0100
0110
,
0010
1010
1000
1100
,
0100
0000
0020
0000
0000
0230
0000
0000
,
2300
0000
3020
0000
0000
0230
0000
0000
,
0310
1010
0010
0110
,
0100
0101
0011
0110
,
1000
0100
0000
0000
0000
0000
0000
0000
;

//---------------dance-single - ----------------
#NOTES:
     dance-single:
     :
     Hard:
     7:
     0.529,0.486,0.186,0.661,0.051:
1100
0001
0101
0010
,
0110
0000
0011
0010
0000
0100
0100
0000
,
0011
0001
0101
0010
,
0110
1000
0110
0001
0000
0000
1001
0000
,
0210
0000
0301
0020
0100
0030
0002
0000
,
0203
0000
1300
0200
0010
1300
0200
0000
,
0302
0000
0103
0010
0002
0000
0103
0010
,
2000
0000
3100
0200
0000
0010
0310
0000
,
0200
0000
1300
0020
0100
1030
0200
0000
,
0302
0000
0013
0200
0001
0310
0002
0000
,
0203
0000
0310
1000
0200
0000
0310
0001
,
1000
0010
0100
0002
0000
0003
0110
0000
,
0020
0000
0000
0000
1030
0000
0100
0010
0000
0000
0100
0000
0100
0000
0000
0000
,
0010
0000
0001
0000
0100
0000
0010
0100
0000
0000
0001
0000
0001
0000
0000
0000
,
1000
0000
0100
0000
0001
0000
0100
1000
0000
0000
0010
0000
0010
0000
0000
0000
,
0100
0010
1000
0010
0001
0010
0100
0000
,
0002
0000
0013
0200
0010
0301
0200
0000
,
2300
0000
3100
0020
1000
0130
0001
0100
,
0210
0301
0012
0013
,
0100
0000
0100
0000
1000
0000
1000
0000
0010
0000
0010
0000
0100
0010
0100
0010
,
0200
1000
1000
1000
,
1000
0302
0023
0230
,
0320
1000
0001
0100
,
0001
0001
0100
0100
,
0032
0100
0010
1000
,
0203
1000
0010
0001
,
0320
0000
0230
0000
,
0302
0010
0023
0100
,
0130
0000
1000
0000
0010
0000
0100
0010
0000
0000
1000
0000
1000
0000
0000
0000
,
0001
0000
0010
0000
0100
0000
0010
0100
0000
0000
0010
0000
0001
0000
0000
0000
,
0001
0100
0010
0000
0010
0100
0001
0000
,
1000
0100
0001
0100
1000
0000
1001
0000
,
1000
0000
0010
0000
0010
0000
0100
0010
0000
0000
1000
0000
0010
0000
0000
0000
,
0100
0000
0001
0000
0010
0000
0001
0010
0000
0000
0001
0000
0100
0000
0000
0000
,
0001
0010
1000
0000
1000
0010
0001
0000
,
1000
0010
0001
0010
1000
0100
0010
0100
,
1000
0000
0020
0000
0130
0002
0010
1003
,
0020
0000
0230
0000
1300
0020
0100
1030
,
0200
0000
0302
0000
0013
0100
0020
0000
,
0031
0100
0020
0000
1030
0100
0020
0000
,
0130
0010
0002
0000
0103
2000
0100
3010
,
2000
0100
3020
0000
0130
0020
0001
0130
,
2000
0100
3020
0000
1030
0001
0020
0000
,
0031
1000
0100
0010
0100
0010
0100
0010
,
1001
0000
0002
0100
0013
0200
0000
0301
,
2000
0000
3200
0001
0310
0002
0000
0013
,
0200
0000
0320
1000
0130
0010
0200
1000
,
0310
0000
0200
0001
0310
0001
0200
0010
,
1300
0000
0200
0010
0301
2000
0000
3010
,
0200
0000
0302
0010
1003
0020
0000
0031
,
0100
0000
0110
0000
0001
1000
0110
0000
,
0001
1000
0110
0010
1010
1000
1100
0100
,
0010
0100
0010
0100
0000
0000
0000
0000
0000
0000
0000
0000
0000
0000
0000
0000
;

//---------------dance-single - ----------------
#NOTES:
     dance-single:
     :
     Challenge:
     9:
     0.615,0.607,0.233,0.112,0.382:
0100
0000
0000
0000
0010
0000
0100
0001
0000
0000
0010
0000
0100
0000
0000
0000
,
0010
0000
0100
1000
0100
0000
1000
0010
0000
0000
0100
0000
0100
0000
0000
0000
,
0001
0000
0000
0000
0010
0000
0100
0010
0000
0000
0001
0000
0001
0000
0000
0000
,
0100
0010
0100
0010
0000
0000
0000
0000
,
1000
0000
0000
0000
0100
0000
0010
0100
0000
1000
0010
0000
0100
0000
0000
0000
,
0001
0000
0000
0000
0010
0000
0001
0100
0000
0010
0100
0000
0001
0000
0000
0000
,
1000
0000
0100
0000
0010
0000
0100
1000
0000
0000
0010
0000
0010
0000
0000
0000
,
1000
0000
0010
0000
0001
0000
0010
0100
0000
0000
0001
0000
0001
0000
0000
0000
,
0010
0000
0100
0000
0010
0000
0001
0100
0000
0010
0100
0000
0001
0000
0000
0000
,
1000
0000
0100
0000
0001
0000
0100
0010
0000
0100
1000
0000
0010
0000
0000
0000
,
0100
0000
0010
0000
1000
0000
0001
0010
0000
0000
0001
0000
0001
0000
0000
0000
,
1000
0000
0010
0000
0001
0000
0010
0000
0000
0000
0100
0000
0001
0010
0001
0000
,
0010
0100
0000
0000
0010
0000
0001
0100
0000
0000
0010
0000
0010
0000
0100
0000
,
0001
1000
0000
0000
0100
0000
0010
0100
0000
0000
1000
0000
1000
0000
0010
0000
,
0100
0010
0000
0000
1000
0000
0001
0010
0000
0000
0001
0000
0100
0000
1000
0000
,
0100
0010
0000
0000
1000
0000
0100
0001
0000
0100
0010
0100
1000
0000
0010
0000
,
0100
0001
0000
0000
0100
0000
0010
0100
0000
0000
0001
0000
0010
0000
1000
0000
,
0010
0100
0000
0000
1000
0000
0010
0100
0000
0000
0010
0000
1000
0000
0001
0000
,
0011
0000
1000
0010
1010
0000
0100
0001
,
0011
0000
0011
0000
1100
0000
1100
0000
1010
0000
1010
0000
0001
0100
0001
0100
,
0002
1000
1000
1000
1000
1000
1000
1000
,
1003
0200
0320
0032
,
0203
0010
0010
0010
0010
0010
0010
0010
,
0010
0010
0010
0010
0010
0010
0010
0310
,
2000
0001
3001
0020
0100
0130
0010
0001
,
0200
0010
0310
0200
0001
0301
0010
0100
,
0020
0001
0031
0020
0100
0130
1000
0010
,
0100
0000
0010
0000
2000
0000
0001
0000
3001
0010
0001
0010
0001
0100
0001
0100
,
0010
0000
0100
0000
0001
0000
0010
0100
0000
0100
0010
0000
0001
0000
0100
0000
,
1000
0000
0100
0000
0010
0000
1000
0100
0000
0100
0010
0000
0100
0000
1000
0000
,
0010
0000
0100
0000
0001
0000
0010
1000
0000
1000
0010
0000
0001
0000
0100
0000
,
0010
0000
0100
0000
0001
0000
0010
0001
0000
0001
0100
0000
0010
0000
0100
0000
,
0001
0010
0000
0010
0100
0000
0100
0010
0000
0000
0001
0000
0100
0000
0010
0000
,
0100
0000
1000
0000
0100
0000
0001
1000
0000
0100
0001
0000
0100
0000
1000
0000
,
0110
0010
0001
0000
1001
1000
0010
0000
,
0110
0000
0100
0000
0101
0000
0001
0000
0011
0000
0010
0000
0100
0010
0100
1000
,
0010
0000
0000
0000
0100
0000
0001
0000
0010
0000
0100
0010
0000
0001
0010
0000
,
0100
0000
0010
0000
0001
0000
0100
0000
1000
0000
0100
0010
0000
1000
0100
0000
,
0010
0000
0100
0000
1000
0000
0010
0000
0001
0000
0010
0100
0000
0010
1000
0000
,
0001
0000
0010
0000
0100
0000
0010
0000
0001
0000
0100
0010
0000
0000
0100
0000
,
0110
0000
0000
0000
1000
0000
0010
0000
0100
0000
0010
1000
0000
0100
0001
0000
,
0100
0000
0010
0000
0001
0000
0100
0000
0010
0000
0100
0001
0000
0010
0100
0000
,
0010
0001
1000
0001
0110
0000
1000
0001
,
0110
0000
1000
0001
1000
0001
1000
0001
,
0110
0000
0000
0000
1000
0100
1000
0000
0001
0000
0010
0100
0000
0100
0010
0000
,
0001
0000
0100
0000
0010
0100
0001
0000
1000
0000
0100
0001
0000
0001
0100
0000
,
1000
0000
0010
0000
0100
0001
0010
0000
0100
0000
1000
0000
0010
0100
0010
0000
,
1000
0000
0100
0000
0001
0000
0100
0000
0010
0000
0100
1000
0000
1000
0010
0000
,
0100
0000
0000
0000
0010
1000
0001
0000
0010
0000
0001
0100
0000
0100
0010
0000
,
0100
0000
0001
0000
1000
0100
0010
0000
0100
0000
1000
0001
0000
0001
0100
0000
,
1000
0000
0100
0000
0001
0010
0100
0000
0110
0000
0000
0000
1000
0010
0100
0000
,
0110
0000
1001
1001
0110
0110
0011
0011
,
1000
0100
1000
0100
0000
0000
0000
0000
0000
0000
0000
0000
0000
0000
0000
0000
;
