#TITLE:RETROFUTURE;
#SUBTITLE:;
#ARTIST:DJ SIMON;
#TITLETRANSLIT:;
#SUBTITLETRANSLIT:;
#ARTISTTRANSLIT:;
#CREDIT:Grithokskulk;
#BANNER:RETROFUTURE.png;
#BACKGROUND:RETROFUTURE-bg.png;
#LYRICSPATH:;
#CDTITLE:beatmania.png;
#MUSIC:RETROFUTURE.mp3;
#OFFSET:-4.473;
#SAMPLESTART:9.215;
#SAMPLELENGTH:15.000;
#SELECTABLE:YES;
#BPMS:0.000=200.000;
#STOPS:;
#BGCHANGES:;

//---------------dance-single - ----------------
#NOTES:
     dance-single:
     :
     Easy:
     2:
     0.162,0.341,0.000,0.056,0.000: // measure 1
0000
0000
0000
0000
,  // measure 2
0000
0000
0000
0000
,  // measure 3
0000
0000
0000
0000
,  // measure 4
0000
0000
0000
0000
,  // measure 5
1000
0000
0100
0000
,  // measure 6
0010
0000
0001
0000
,  // measure 7
0100
0000
0000
0000
,  // measure 8
0000
0000
0010
0000
,  // measure 9
0100
0000
0000
0000
,  // measure 10
0000
0000
0000
0000
,  // measure 11
0000
0000
0000
0000
,  // measure 12
0001
0000
0010
0000
,  // measure 13
0100
0000
0000
0000
,  // measure 14
0000
0000
0000
0000
,  // measure 15
0000
0000
0010
0000
,  // measure 16
0001
0000
0100
0000
,  // measure 17
0010
0000
0000
0000
,  // measure 18
0000
0000
0000
0100
,  // measure 19
0100
0010
0010
1000
,  // measure 20
1000
0100
0010
0100
,  // measure 21
1000
0000
0010
0000
,  // measure 22
0100
0000
0001
0000
,  // measure 23
0010
0000
0000
0000
,  // measure 24
0000
0000
0001
0000
,  // measure 25
1000
0000
0000
0000
,  // measure 26
0000
0000
0000
0000
,  // measure 27
0000
0000
0000
0000
,  // measure 28
0010
0000
0100
0010
,  // measure 29
0100
0000
0000
0000
,  // measure 30
0000
0000
0000
0000
,  // measure 31
0000
0000
0001
0000
,  // measure 32
0010
0000
0100
0000
,  // measure 33
1000
0000
0000
0000
,  // measure 34
0000
0000
0000
0000
,  // measure 35
0000
0000
0000
0000
,  // measure 36
0000
0000
0000
0000
,  // measure 37
0010
0000
0100
0000
,  // measure 38
0001
0000
0010
0000
,  // measure 39
0100
0000
0010
0000
,  // measure 40
0001
1000
0001
0000
,  // measure 41
1000
0000
0010
0000
,  // measure 42
0100
0000
0010
0000
,  // measure 43
1000
0000
0100
0000
,  // measure 44
0010
0100
0010
0000
,  // measure 45
0001
0000
0100
0000
,  // measure 46
0001
0000
0010
0000
,  // measure 47
0100
0000
1000
0000
,  // measure 48
0010
1000
0010
0000
,  // measure 49
1000
0000
0001
0000
,  // measure 50
0010
0000
0100
0000
,  // measure 51
0010
0000
0001
0000
,  // measure 52
0200
0000
0000
0300
,  // measure 53
0010
0000
0000
0000
,  // measure 54
0100
0000
0100
0000
,  // measure 55
0010
0000
0000
0000
,  // measure 56
2000
0000
0000
3000
,  // measure 57
0001
0000
0000
0000
,  // measure 58
0010
0000
0010
0000
,  // measure 59
0100
0000
0000
0000
,  // measure 60
2000
0000
0000
0000
,  // measure 61
3001
0000
0100
0000
,  // measure 62
0010
0000
0100
0000
,  // measure 63
0001
0000
0100
0000
,  // measure 64
0020
0000
0000
0030
,  // measure 65
0100
0000
0001
0000
,  // measure 66
0010
0000
0100
0000
,  // measure 67
0010
0000
0001
0000
,  // measure 68
2000
0000
0000
3000
;

//---------------dance-single - ----------------
#NOTES:
     dance-single:
     :
     Medium:
     6:
     0.395,0.493,0.202,0.034,0.000:
0000
0000
0000
0000
,
0000
0000
0000
0000
,
0000
0000
0000
0000
,
0000
0000
0000
0000
,
1000
0000
1010
0000
,
0010
0000
0110
0000
,
0001
0010
0100
0000
,
0010
0001
2000
0000
,
3010
0100
0010
1000
,
0100
0100
0010
0000
,
0100
1000
0010
0100
,
0001
0000
0010
0001
0010
0000
0100
0000
,
0010
0000
0011
0000
,
0001
0100
0010
0000
,
0100
0001
1000
0000
,
0100
0010
0100
1000
,
0010
0000
0100
0010
,
1000
0000
0001
0000
0010
0000
0100
0010
,
0100
0000
1000
0001
1000
0000
0010
0100
,
0010
0000
1000
0010
1000
0000
0001
0010
,
0001
0000
0011
0100
,
1000
0000
1010
0001
,
0100
0000
1000
0100
,
0010
1000
1100
0000
,
0011
0000
0001
0100
,
0010
0010
0100
0000
,
0001
1000
0100
0000
,
1000
0000
0100
1000
0100
0000
0010
0000
,
0100
0000
0011
0001
,
0100
0010
0010
0000
,
0100
0000
0101
0001
,
1000
0100
0100
0000
,
0200
0010
0010
0010
,
0010
0010
0010
0010
,
0010
0010
0010
0010
,
0010
0010
0010
0310
,
0010
0000
0000
0010
0001
0000
0100
0000
,
0010
0100
0001
1000
,
0100
0000
0000
0100
1000
0000
0010
0000
,
0100
0010
1000
0001
,
0010
0000
0000
0010
0001
0000
0100
0000
,
1000
0100
0010
1000
,
0100
0000
0000
0100
0010
0000
0100
0000
,
1000
0010
1000
0000
,
0001
0000
0000
0001
0010
0000
0001
0000
,
0100
0010
0100
0000
,
0001
0000
0000
0001
1000
0000
0100
0000
,
0001
0100
0010
0001
,
0100
0000
0000
0100
0010
0000
0100
0000
,
0001
1000
0010
0100
,
0010
0000
0000
0010
1000
0000
0100
0000
,
0020
0000
0000
0100
0000
0000
0100
0000
,
0130
0000
0110
0000
,
0001
0100
0010
0100
,
0001
0000
1100
0000
,
1000
0000
0000
1000
0000
0000
1000
0000
,
1000
0000
1010
0000
,
0010
0100
0001
0000
,
0010
0100
0010
0001
,
0100
0000
0000
0100
0000
0000
0100
0000
,
0100
0010
0110
0010
,
1000
0001
1001
0001
,
0010
0100
0110
0100
,
0010
0000
0000
0010
0000
0000
0010
0000
,
0010
0001
0101
0001
,
0100
0010
0110
0010
,
1000
0100
1100
0010
,
0100
0000
0000
0100
0000
0000
0100
0000
;

//---------------dance-single - ----------------
#NOTES:
     dance-single:
     :
     Hard:
     8:
     0.611,0.568,0.291,0.168,0.056:
0000
0000
0000
0000
,
0000
0000
0000
0000
,
0000
0000
0000
0000
,
0000
0000
0000
0000
,
1100
0000
0010
0100
1000
0000
0010
0100
,
0001
0000
0010
0001
0100
0000
1000
0100
,
0020
1000
0001
0100
,
1000
1000
0230
1000
,
0302
0010
0100
1000
,
0010
0000
0010
0000
0103
0000
0001
0100
,
0001
0000
1000
0100
1000
0000
0010
0100
,
0010
0000
1000
0100
0000
0100
0010
0000
,
0100
0000
1000
0000
1100
0000
0010
0100
,
0010
1000
0001
0000
0011
0000
0001
0100
,
0010
0000
0010
0000
0110
0000
0000
0100
,
0001
0000
0000
0001
0010
0000
0000
0010
,
0100
0010
0110
0100
,
1000
0000
0010
0000
1010
0000
0001
0100
,
0001
0000
1000
0100
1000
0000
0001
0100
,
0001
0000
1000
0100
0010
0100
1000
0020
,
0100
0000
0130
0000
0101
0000
0001
0010
,
0100
0010
0001
0000
1001
0000
1000
0020
,
0100
0000
0130
0000
0110
0000
0010
1000
,
0100
0010
0100
0000
1100
0000
1000
0002
,
0010
0000
0013
0000
0011
0000
0001
0100
,
0010
0100
0001
0000
1001
0000
1000
0100
,
1000
0000
0001
0010
0001
0000
0100
0010
,
0100
0000
0100
0001
0000
0001
1000
0000
,
0100
0000
0010
0000
0110
0000
0100
1000
,
0010
0100
0001
0000
0011
0000
0001
0200
,
1000
0000
1300
0000
1100
0000
1000
0100
,
0001
0010
0100
0000
0110
0000
0001
0100
,
0020
0100
0100
0100
,
0100
0100
0100
0100
,
0100
0100
0100
0100
,
0100
0100
0100
0100
,
0130
0000
0100
0001
0010
0100
0010
0001
,
0100
0000
0010
1000
0010
0000
1000
0100
,
1000
0000
0001
0010
1000
0010
0001
0100
,
0010
0000
0010
0100
0001
0000
1000
0100
,
0010
0000
0010
0100
1000
0010
0100
1000
,
0100
0000
0001
0100
0010
0000
0100
0001
,
0010
0000
0100
0001
0100
1000
0010
0100
,
0001
0000
0010
0100
0010
0001
0100
0000
,
0110
0000
0010
1000
0100
0010
0100
1000
,
0001
0000
0100
0001
0100
0000
0010
1000
,
0010
0000
1001
0000
0001
0100
1000
0100
,
0010
0000
1000
0100
0001
0000
0100
0000
,
0110
0000
0010
0001
0100
0001
1000
0100
,
0010
0000
0100
1000
0010
0000
0100
0000
,
1001
0000
0100
0010
0001
0100
0010
0100
,
0002
0000
0000
0000
0010
0000
0000
0000
0100
0000
0000
0000
,
1003
0000
0010
0100
0010
0000
1000
0100
,
1000
0000
0001
0010
0001
0000
0100
0001
,
0100
0000
0010
1000
0100
0000
0010
0100
,
2000
0000
0000
0000
0010
0000
0000
0000
0001
0000
0000
0000
,
3100
0000
0010
0100
1000
0000
0001
0100
,
1000
0000
0100
0001
1000
0000
0100
0001
,
0100
0000
1000
0010
0100
0000
0001
0010
,
0200
0000
0000
0000
0001
0000
0000
0000
1000
0000
0000
0000
,
0310
0000
0010
0000
0110
0000
0100
1000
,
0010
0100
0001
0000
1001
0000
1000
0200
,
0010
0000
0310
0000
0110
0000
0100
1000
,
0020
0000
0000
0000
0000
0000
0000
0000
0001
0000
0000
0000
0000
0000
0000
0000
1000
0000
0000
0000
0000
0030
0000
0000
,
0100
0000
0100
0000
0110
0000
0010
1000
,
0100
0010
0100
0000
1100
0000
1000
0002
,
0100
0000
0103
0000
0110
0000
0100
0001
,
0020
0000
0000
0000
1000
0000
0000
0000
0031
0000
0000
0000
;
