#TITLE:Programmed World;
#SUBTITLE:;
#ARTIST:kors k as StripE;
#TITLETRANSLIT:;
#SUBTITLETRANSLIT:;
#ARTISTTRANSLIT:;
#CREDIT:Grithokskulk;
#BANNER:Programmed World.png;
#BACKGROUND:Programmed World-bg.png;
#LYRICSPATH:;
#CDTITLE:beatmania IIDX.png;
#MUSIC:Programmed World.mp3;
#OFFSET:-3.315;
#SAMPLESTART:28.375;
#SAMPLELENGTH:15.000;
#SELECTABLE:YES;
#BPMS:0.000=153.000,56.000=38.250,58.000=153.000;
#STOPS:216.000=0.380
,247.500=0.360
;
#BGCHANGES:;

//---------------dance-single - ----------------
#NOTES:
     dance-single:
     :
     Easy:
     3:
     0.197,0.264,0.033,0.134,0.000: // measure 1
2000
0000
0000
0000
,  // measure 2
0000
0000
0000
0000
,  // measure 3
0000
0000
0000
0000
,  // measure 4
3001
0000
0000
0000
,  // measure 5
0002
0000
0000
0000
,  // measure 6
0000
0000
0000
0000
,  // measure 7
0000
0000
0000
0000
,  // measure 8
1003
0000
0000
0000
,  // measure 9
0200
0000
0000
0000
,  // measure 10
0000
0000
0000
0000
,  // measure 11
0000
0000
0000
0000
,  // measure 12
0310
0000
0000
0000
,  // measure 13
0020
0000
0000
0000
,  // measure 14
0000
0000
0000
0000
,  // measure 15
0130
0000
1000
0010
,  // measure 16
1000
0000
0001
0010
,  // measure 17
0001
0000
0100
0100
,  // measure 18
0010
0010
2000
0000
,  // measure 19
0000
3000
0001
0010
,  // measure 20
0001
0000
1000
0010
,  // measure 21
1000
0000
0100
1000
,  // measure 22
0100
0000
0010
0010
,  // measure 23
0100
0100
0020
0030
,  // measure 24
0002
0003
0200
0000
,  // measure 25
0000
0000
0000
0000
,  // measure 26
0000
0000
0310
0000
,  // measure 27
0000
0000
2000
3000
,  // measure 28
0200
0300
2000
0000
,  // measure 29
0000
0000
0000
0000
,  // measure 30
0000
0000
3010
0000
,  // measure 31
0000
0000
0200
0000
,  // measure 32
0000
0000
0000
0000
,  // measure 33
0000
0000
0000
0000
,  // measure 34
0000
0000
0310
0000
,  // measure 35
0000
0000
0002
0000
,  // measure 36
0000
0000
0000
0000
,  // measure 37
0000
0000
0000
0000
,  // measure 38
0000
0000
0013
0000
,  // measure 39
0000
0000
0100
0010
,  // measure 40
0100
0010
0100
1000
,  // measure 41
0100
1000
0010
1000
,  // measure 42
0010
1000
0010
0100
,  // measure 43
0010
0100
0001
0001
,  // measure 44
0010
0010
0100
0100
,  // measure 45
1000
1000
0010
0100
,  // measure 46
0001
0000
1001
0000
,  // measure 47
0110
0000
1000
0100
,  // measure 48
1000
0000
0001
0100
,  // measure 49
0001
0000
1000
1000
,  // measure 50
0010
0010
0200
0000
,  // measure 51
0000
0300
0010
0100
,  // measure 52
0010
0000
1000
0001
,  // measure 53
1000
0000
0001
0010
,  // measure 54
0001
0000
1000
0000
,  // measure 55
1001
0001
0100
0001
,  // measure 56
0000
0010
0100
0010
,  // measure 57
0000
0001
0010
0100
,  // measure 58
0000
0020
0000
0000
,  // measure 59
0030
0100
0010
0001
,  // measure 60
0000
0100
0010
0100
,  // measure 61
0000
0001
1000
0001
,  // measure 62
0000
1000
0000
0001
,  // measure 63
0100
0010
0100
0010
,  // measure 64
1000
0001
1000
0001
,  // measure 65
0010
0100
0010
0001
,  // measure 66
0200
0000
0000
0300
,  // measure 67
0010
0100
0010
0100
,  // measure 68
0001
1000
0001
1000
,  // measure 69
0100
1000
0100
1000
,  // measure 70
0010
0100
0001
0000
,  // measure 71
1100
0000
0000
0000
;

//---------------dance-single - ----------------
#NOTES:
     dance-single:
     :
     Medium:
     5:
     0.334,0.439,0.092,0.176,0.000:
2000
0000
0000
0010
0000
0000
0002
0000
,
0000
0000
0000
0000
,
0000
0000
0000
0000
0000
0000
0000
3003
,
0000
0000
0000
0000
,
0020
0000
0000
0100
0000
0000
2000
0000
,
0000
0000
0000
0000
,
0000
0000
0000
0000
,
3030
0000
0000
0000
,
0002
0000
0000
0010
0000
0000
0200
0000
,
0000
0000
0000
0000
,
0000
0000
0000
0000
0000
0000
0000
0303
,
0000
0000
0000
0000
,
0020
0000
0000
0100
0000
0000
0002
0000
,
0000
0000
0000
0033
,
2002
3003
1000
0100
,
0010
0100
0010
0000
0100
0000
1000
0000
,
0010
0100
0010
0000
0100
0000
0001
0000
,
0010
0001
0010
0000
0001
0100
0010
0100
,
0001
1001
1000
0100
,
0010
0100
1000
0000
0010
0000
0100
0000
,
0010
1000
0001
0000
0010
0000
0001
0000
,
0100
0010
0100
0000
0002
0000
0000
2000
,
0000
0000
3003
0000
1000
0000
0000
1100
,
0000
0000
0001
0000
0000
0101
0000
0000
,
0010
0000
0100
0000
0001
0000
0000
0011
,
0000
0000
1000
0000
0000
1010
0000
0000
,
0001
0000
0010
0000
0100
0000
0000
0110
,
0000
0000
0010
0000
0000
0110
0000
0000
,
1000
0000
0001
0000
0100
0000
0000
0110
,
0000
0010
0200
1000
,
0010
0000
0301
0000
2000
0000
0000
0100
,
0000
0002
0000
0000
,
0000
0000
0000
0000
,
0000
0000
0000
3003
0000
0000
0000
0000
,
0000
0000
0000
0000
0020
0000
0000
0100
,
0000
2000
0000
0000
,
0000
0000
0000
0000
,
0000
0000
3030
0000
,
0000
0000
0100
0010
,
1000
0100
1000
0000
0001
0000
0010
0000
,
0100
0010
0100
0000
0010
0000
0001
0000
,
0100
0010
0100
0000
0001
0000
0010
0000
,
0001
1000
0001
0000
1000
0100
1000
0100
,
1000
0100
1000
0000
0001
0100
0001
0100
,
0001
0100
0001
0000
0010
0100
0010
0000
,
1000
0001
1000
0000
0001
0000
0100
0000
,
0020
0030
0100
0010
,
1000
0100
1000
0000
0001
0000
0010
0000
,
0001
0100
0001
0000
0010
0000
0100
0000
,
0010
0001
0100
0020
1000
0000
0100
0000
,
1000
1030
0100
0001
,
0010
0100
0010
0000
0100
0000
0010
0000
,
0001
0100
0001
0000
1000
0000
0010
0000
,
0100
0010
0100
0000
0010
1000
0010
0000
,
1001
0000
0010
0000
0100
0000
0010
0001
,
0010
0000
0001
0000
1000
0000
0010
0100
,
0010
0000
1000
0000
0100
0000
0010
0100
,
0010
0200
0000
0000
0010
0000
1000
0000
,
1300
0010
0100
1000
,
0010
0000
0100
0010
0100
0000
0001
1000
,
0001
0000
1000
0000
0100
0000
0010
0100
,
1000
0010
0100
0000
0001
0000
0010
0100
,
0010
0000
0001
0000
0100
0010
0100
0000
,
0001
0000
1000
0000
0100
0010
0100
0000
,
1000
0100
1000
0000
0010
0100
0001
0020
,
0100
0001
0100
0031
,
0100
0000
0010
0000
0100
0001
1000
0000
,
0100
0000
1000
0000
0010
1000
0100
0000
,
1000
0010
1000
0000
0001
0010
0001
0000
,
1000
0100
0010
0001
0100
0000
0010
0000
,
0101
0000
0000
0000
;

//---------------dance-single - ----------------
#NOTES:
     dance-single:
     :
     Hard:
     9:
     0.581,0.644,0.092,0.301,0.661:
1020
0000
0000
0002
0000
0003
2000
0000
,
0000
0000
0000
3030
,
0200
0000
0000
2000
0000
0000
3000
0002
,
0000
0000
0000
0303
,
0020
0000
0000
0200
0000
0300
0002
0000
,
0000
0000
0000
0000
,
0000
0000
0000
0033
,
2002
0000
0000
3003
,
0020
0000
0000
2000
0000
3000
0200
0000
,
0000
0000
0000
0330
,
0200
0000
0000
2000
0000
0000
3000
0020
,
0000
0000
0000
0330
,
2000
0000
0000
0200
0000
0300
0002
0000
,
0000
0000
0000
3003
,
0220
0000
0000
0000
0000
0000
0330
0000
1001
0000
0000
1000
0100
0000
0000
0010
,
0000
0100
0000
1000
0000
0010
1000
0000
0010
0100
0010
0000
0100
0000
0001
0000
,
0010
0100
0010
0000
0001
0000
1000
0000
1010
0000
0000
0010
0100
0000
0000
0001
,
0000
0010
0000
0100
0000
0000
0001
0000
0100
0010
0000
0100
1000
0000
1000
0000
,
0010
0100
0001
0000
0010
0000
0010
0000
0110
0000
0000
0100
0001
0000
0000
0100
,
0000
0010
0000
0001
0000
0000
0100
0000
0010
0100
0010
0000
0100
0000
0100
0000
,
0001
1000
0100
0000
0010
0000
0100
0000
0110
0000
0000
0000
0100
1000
0000
1000
,
0100
0000
0010
0000
0001
0000
0100
0000
0010
0100
0000
0010
1000
0000
0010
0100
,
0000
0010
0001
0000
0010
0100
0010
0100
0001
0000
0000
0000
0100
0000
0010
0000
,
0100
0001
1000
0100
0001
0100
0010
0001
,
0100
0010
0010
0000
0100
0000
0001
0100
,
1000
0010
0100
0002
0010
0000
1000
0000
,
0100
0000
0010
0010
0103
0000
0001
0010
,
1000
0100
0010
0100
1000
0010
0001
1000
,
0100
0001
0010
0010
0100
0000
0010
0001
,
0001
0100
1000
0100
0010
0000
1000
0100
,
0010
0100
1000
0010
0210
0000
0000
2000
,
0000
3000
0002
0000
0000
0000
0000
0000
,
0000
0000
0303
0000
0020
0000
0000
2000
,
0000
0000
3000
0002
0000
0000
0000
0000
,
0000
0000
0033
0000
0201
0000
0000
2000
,
0000
3000
0020
0000
0000
0000
0000
0000
,
0000
0000
0000
0000
,
0000
0330
2002
0000
,
3003
0000
0000
0000
0000
0000
0000
0000
0100
0000
0010
0000
1000
0000
0000
0100
,
0000
0010
0000
0100
0000
1000
0000
0000
0010
0000
0100
0000
1000
0000
0000
0100
,
0000
0001
0000
0010
0000
0100
0000
0000
0010
0000
0001
0000
0100
0000
0000
0001
,
0000
1000
0000
0100
0000
0010
0000
0000
0100
0000
1000
0000
0010
0000
0000
1000
,
0000
0001
0000
0010
0000
0001
0000
0000
0100
0000
0010
0000
0100
0000
0010
0000
,
1000
0010
1000
0010
1000
0100
1000
0100
,
0001
0000
0100
0000
0001
0000
0100
0000
0010
0100
0010
0000
0001
1000
0001
0000
,
0100
0010
0100
0000
0010
1000
0010
0000
2000
0000
0000
0000
0000
0000
0000
0000
,
3002
0000
0000
0000
0003
0000
0000
0000
1000
0000
0100
0000
0010
0000
0100
1000
,
0000
0010
0000
0100
0000
1000
0000
0100
0010
0000
1000
0000
0001
0000
0010
0100
,
0000
0010
0000
0001
0000
0100
0010
0100
0001
0000
0010
0000
1000
0000
0010
0100
,
0000
1000
0000
0010
0000
0100
0000
0010
1000
0000
0100
0010
0000
0010
0100
0000
,
1000
0000
0001
0100
0000
0100
0001
0000
1000
0000
0010
0000
0001
0000
0010
0100
,
0000
0001
0000
0010
0000
0100
0000
0010
0001
0000
1000
0000
0010
0000
0100
1000
,
0000
0100
0000
0001
0000
0010
0100
0010
0001
0000
0100
0000
1000
0000
0100
0010
,
0000
1000
0000
0100
0000
0010
0000
0100
1000
0000
0010
0100
0000
0100
0001
0000
,
0010
0000
0000
0000
0001
0000
0100
0000
1000
0000
0100
0010
0000
1000
0000
0100
,
0000
0001
0000
0100
1000
0000
0100
0000
0010
0000
0100
1000
0000
0010
0000
0100
,
0000
1000
0100
0001
0010
0000
0100
0000
0010
0000
0001
0100
0000
0010
0000
0100
,
0000
0001
0010
0000
0100
0000
0010
0100
0000
0100
0010
0000
0001
0000
1000
0010
,
0000
0010
1000
0000
0100
0000
0010
0000
0100
0000
1000
0010
0000
0001
0000
0010
,
0000
0100
0000
0001
0010
0000
0100
0000
0001
0000
0100
0010
0000
0001
0000
0100
,
0000
0010
0100
0001
1000
0000
0100
0000
0010
0000
0100
1000
0000
0010
0000
0100
,
0000
0010
1000
0000
0001
0000
0010
0100
0000
0100
0010
0001
1000
0010
0100
0000
,
0010
0000
1000
0000
0100
0000
0010
0100
0000
1000
0000
0010
0000
0100
0000
0001
,
0010
0000
0100
0000
0010
0000
0001
0100
0000
1000
0000
0100
0000
0001
0010
0100
,
0010
0000
0100
0000
1000
0000
0010
1000
0000
0100
0000
0001
0000
0100
0000
0010
,
0001
0000
0100
0010
0000
0010
0100
0000
0001
0000
1000
0100
0000
0100
1000
0000
,
0010
0000
0100
0000
1000
0000
0100
0001
0000
0010
0000
1000
0000
0010
0000
0001
,
0100
0000
0010
0000
0100
0000
0001
0010
0000
1000
0000
0001
0000
0100
1000
0010
,
0100
0000
1000
0000
0100
0000
0010
1000
0000
0100
0000
0010
0000
0100
0000
1000
,
0010
0000
0100
0010
0000
0010
0100
0000
0001
0000
0010
0100
0000
0100
0010
0000
,
1100
0000
0000
0000
;
