#TITLE:Programmed Sun;
#SUBTITLE:;
#ARTIST:kors k;
#TITLETRANSLIT:;
#SUBTITLETRANSLIT:;
#ARTISTTRANSLIT:;
#CREDIT:Grithokskulk;
#BANNER:Programmed Sun.png;
#BACKGROUND:Programmed Sun-bg.png;
#LYRICSPATH:;
#CDTITLE:beatmania IIDX.png;
#MUSIC:Programmed Sun.mp3;
#OFFSET:-1.731;
#SAMPLESTART:81.635;
#SAMPLELENGTH:15.000;
#SELECTABLE:YES;
#BPMS:0.000=144.000;
#STOPS:;
#BGCHANGES:;

//---------------dance-single - ----------------
#NOTES:
     dance-single:
     :
     Easy:
     3:
     0.239,0.317,0.072,0.336,0.000: // measure 1
0200
0000
0000
0300
,  // measure 2
0020
0000
0000
0030
,  // measure 3
2000
0000
0000
3000
,  // measure 4
0200
0000
0000
0300
,  // measure 5
0020
0000
0000
0030
,  // measure 6
0200
0000
0000
0300
,  // measure 7
2000
0000
0000
3000
,  // measure 8
0001
0000
0100
0000
,  // measure 9
0020
0030
0010
0000
,  // measure 10
0100
0100
0100
0000
,  // measure 11
0002
0003
2000
3000
,  // measure 12
0100
0010
0100
0110
,  // measure 13
0010
0000
0001
0001
,  // measure 14
0100
0000
0010
0010
,  // measure 15
0100
0000
0001
0000
,  // measure 16
2002
3003
0220
0330
,  // measure 17
2000
3000
0100
0100
,  // measure 18
0020
0030
0100
0100
,  // measure 19
2000
3000
0002
0003
,  // measure 20
0100
0010
0100
0000
,  // measure 21
0002
0003
1001
0000
,  // measure 22
2000
3000
1001
0000
,  // measure 23
0001
0010
0100
1000
,  // measure 24
0020
0030
0110
0000
,  // measure 25
0200
0000
0000
0000
,  // measure 26
0000
0000
0000
0300
,  // measure 27
0020
0000
0000
0000
,  // measure 28
0000
0000
0000
0030
,  // measure 29
2000
0000
0000
3000
,  // measure 30
0002
0000
0000
0003
,  // measure 31
0020
0000
0000
0030
,  // measure 32
0200
0000
0000
0300
,  // measure 33
0010
0010
0000
0000
,  // measure 34
0001
0000
0000
0000
,  // measure 35
1000
0010
1000
0000
,  // measure 36
0200
0000
0300
0000
,  // measure 37
0010
0100
0000
0000
,  // measure 38
2000
0000
3000
0001
,  // measure 39
0001
0000
0000
0000
,  // measure 40
0200
0000
0300
0000
,  // measure 41
0010
0000
0100
0100
,  // measure 42
0000
0001
0010
0000
,  // measure 43
0100
0100
0000
0010
,  // measure 44
0001
0001
0000
0100
,  // measure 45
0010
0000
1000
0000
,  // measure 46
0100
0000
1000
0000
,  // measure 47
0010
0010
0100
0100
,  // measure 48
1001
0000
0000
0000
,  // measure 49
1000
0100
1000
1000
,  // measure 50
0001
0100
0001
0001
,  // measure 51
0020
0030
0200
0300
,  // measure 52
2000
3000
0010
0010
,  // measure 53
0100
0001
0010
0010
,  // measure 54
0100
0010
0001
0001
,  // measure 55
2000
3000
0002
0003
,  // measure 56
0220
0000
0000
0330
,  // measure 57
1000
1000
0000
0100
,  // measure 58
0100
0000
0010
0100
,  // measure 59
1000
1000
0000
0010
,  // measure 60
0010
0000
0100
0001
,  // measure 61
0010
0010
0000
0001
,  // measure 62
0100
0000
0010
0010
,  // measure 63
2000
3000
0200
0300
,  // measure 64
0020
0030
0200
0300
,  // measure 65
1000
0010
0000
0100
,  // measure 66
0010
0000
1000
1000
,  // measure 67
0001
0010
0000
0001
,  // measure 68
0100
0000
0010
0010
,  // measure 69
0100
0001
0000
0010
,  // measure 70
0100
0000
1000
1000
,  // measure 71
0010
0000
0100
0000
,  // measure 72
0002
0000
0000
0003
,  // measure 73
1001
0000
0000
0000
;

//---------------dance-single - ----------------
#NOTES:
     dance-single:
     :
     Medium:
     5:
     0.326,0.345,0.048,0.384,0.000:
2000
0000
0000
0200
0000
0000
3300
0000
,
0020
0000
0000
0100
0000
0130
0000
0000
,
2000
0000
0000
0002
0000
0000
3003
0000
,
0200
0000
0000
0010
0000
0310
0000
0000
,
1000
0100
0010
0001
,
1000
0010
0100
0001
,
0010
0100
0010
0000
0001
1000
0001
0000
,
0110
0000
0000
0000
1000
0001
1000
0000
,
0100
1000
0100
0000
0010
0000
0010
0000
,
0100
1000
0100
0000
1000
0000
1000
0000
,
0010
0100
0010
0000
0100
0001
0100
0000
,
0002
0000
0010
0013
,
0001
0100
0001
0000
1000
0000
1000
0000
,
0100
1000
0100
0000
1000
0000
1000
0000
,
0010
0100
0010
0000
1000
0001
1000
0000
,
0200
0000
0020
0330
,
0100
0010
0100
0000
1000
0000
0010
0000
,
0100
0010
0100
0000
0010
0000
1000
0000
,
0001
0010
0001
0000
1000
0001
1000
0000
,
0010
0100
0010
0000
1000
0000
1000
0000
,
0100
0100
0000
0000
0010
0000
0100
0000
,
1000
0010
1000
0000
0001
0100
0001
0000
,
0010
0000
0010
0000
0100
0010
0100
0000
,
2000
0000
0001
3001
,
0210
0000
0000
0000
,
0000
0000
0000
0000
,
0320
0000
0000
0000
,
2030
0000
0000
0000
,
3200
0000
0000
0000
,
0320
0000
0000
0000
,
0230
0000
0000
0000
,
2300
0000
0000
3000
,
0001
0010
0002
0000
0000
0000
0000
2000
,
0000
0000
0000
3003
,
0100
0010
0100
0020
0000
0000
0000
2000
,
0000
0000
0000
3030
,
0100
0001
0020
0000
0000
0000
0000
0200
,
0000
0000
0330
1000
,
1200
0000
0000
0000
0000
0000
0000
0020
,
0000
0000
0000
0330
,
0001
0000
0010
0000
0001
0100
0001
0000
,
1000
0000
0010
0000
1000
0100
1000
0000
,
0010
0100
0010
0000
1000
0001
1000
0000
,
0200
0000
0010
0310
,
0100
1000
0010
0000
0100
0000
0100
0000
,
0001
0010
0100
0000
0010
0000
0010
0000
,
0001
1000
0001
0000
0100
0010
0100
0000
,
2002
0000
0000
3003
,
1000
0100
1000
0000
0010
0000
0010
0000
,
1000
0001
1000
0000
0100
0000
0100
0000
,
0020
0000
0000
0030
0200
0000
0000
0300
,
0010
0001
0010
0000
0001
0100
0001
0000
,
1000
0100
1000
0000
0010
0000
0010
0000
,
1000
0001
1000
0000
0100
0000
0100
0000
,
0010
0001
0100
0000
0010
1000
0100
0000
,
0220
0000
0330
0000
,
1000
0010
2000
0000
0000
0000
0000
0002
,
0000
0000
0000
3003
,
0100
0010
1000
0200
0000
0000
0000
0020
,
0000
0000
0000
0330
,
1000
0001
2000
0000
0000
0000
0000
0002
,
0000
0000
3003
0100
,
0020
0000
0000
0000
0000
0000
0000
0200
,
0000
0000
0000
0330
,
0001
0010
0200
0000
0000
0000
0000
0020
,
0000
0000
0000
0330
,
0001
0010
0100
0020
0000
0000
0000
0002
,
0000
0000
0000
0033
,
1000
0010
0200
0000
0000
0000
0000
0020
,
0000
0000
0330
1000
,
0200
0000
0000
0000
0000
0000
0000
0020
,
0000
0000
0000
0330
,
1001
0000
0000
0000
;

//---------------dance-single - ----------------
#NOTES:
     dance-single:
     :
     Hard:
     9:
     0.609,0.662,0.080,0.392,0.364:
2100
0000
0000
0020
0000
0000
3030
0000
,
0200
0000
0000
0010
0000
0310
0000
0000
,
2000
0000
0000
3200
0000
0000
0301
0000
,
0200
0000
0000
0010
0000
0310
0000
0000
,
0001
0010
0000
0001
0000
0100
0010
0100
,
0000
0000
0001
0010
0000
0000
0010
0100
0000
0000
0100
0010
0000
0000
0010
0001
,
0000
0100
1000
0100
0000
0001
0010
0100
,
0010
0000
0010
0001
0200
0000
0000
0000
0300
0000
0020
0000
0200
0000
0300
0000
,
1030
0000
0100
0000
0010
0000
0100
0000
0000
0000
1000
0000
0010
0000
0100
0010
,
0000
0000
1000
0000
0100
0000
0001
0000
0000
0000
0100
0000
1000
0000
0010
0100
,
0000
0000
0100
0010
0000
0000
0010
1000
0000
0000
1000
0100
0000
0000
0100
0010
,
0000
0000
0010
0100
0000
0000
0100
1000
0000
0000
1000
0010
0000
0000
0010
0100
,
0000
0000
0100
0000
0010
0000
1000
0000
0000
0000
0100
0000
0001
0000
0100
0010
,
0000
0000
0001
0000
0100
0000
0010
0000
0000
0000
0100
0000
0001
0000
0010
0100
,
0000
0010
0001
0100
0000
0010
0100
0001
,
2000
0000
0100
0000
0100
0000
0000
3200
0000
0000
0010
0000
1000
0000
2300
0000
,
3000
0000
0010
0000
0100
0000
0001
0000
0000
0000
0010
0000
0001
0000
0100
0010
,
0000
0000
0100
0000
1000
0000
0100
0000
0000
0000
0001
0000
0010
0000
0100
0010
,
0000
0000
0010
0001
0000
0000
0001
0100
0000
0000
0100
1000
0000
0000
1000
0100
,
0000
0000
0100
0001
0000
0000
0001
0010
0000
0000
0010
1000
0000
0000
1000
0010
,
0001
0000
0012
0000
0000
0000
0000
0100
0000
0000
0103
0000
0000
0000
0210
0000
,
0000
0000
1000
0000
1000
0000
0000
0010
0000
0000
0010
0000
0310
0000
0100
0001
,
0010
0000
0010
0000
0100
0000
0100
0000
1000
0000
1000
0000
0010
0100
0010
0100
,
0020
0000
1030
0001
1000
0000
0000
0000
0110
0000
0110
0000
0100
0010
0000
0000
,
0012
0000
0100
0100
0000
0010
0010
0000
,
1000
0000
0100
0100
0000
0010
0010
0000
,
0203
0000
1000
0000
0010
0010
0000
1000
,
1000
0000
0010
0010
0000
0001
0001
0000
,
0320
0000
0001
0000
1000
1000
0000
0100
,
0100
0000
0001
0001
0000
0100
0100
0000
,
2030
0000
0100
0000
0001
0001
0000
0100
,
0100
0000
0010
0010
0000
3200
0000
0000
,
0310
0001
0200
0000
1000
1000
0000
0302
,
0010
0000
0010
0100
0000
0100
1003
0000
,
1000
0100
0010
0200
0000
0010
0310
0000
,
2000
0000
0010
0010
0000
0100
0100
0000
,
3001
0010
0200
0000
0001
0001
0000
2300
,
0010
0000
0010
0100
0000
0100
3002
0000
,
0203
0000
1000
0000
0010
0010
0000
0302
,
0010
0000
0003
0010
0001
0000
0100
0000
0010
0000
0010
0000
0110
0000
0000
0000
,
0200
0001
0000
0000
1000
0000
0000
0000
0010
0000
0010
0000
1300
0000
0000
0000
,
0020
0100
0000
0000
0001
0000
0000
0000
1000
0000
1000
0000
0001
0000
0001
0000
,
0230
1000
0010
0001
,
2300
0000
0000
0000
0010
0000
0000
0000
3001
0000
0010
0000
0001
0000
0100
0010
,
0000
2000
0000
0000
0100
0000
0000
0000
0010
0000
0010
0000
3010
0000
0000
0000
,
0002
0000
0100
0000
0010
0010
0013
0000
,
1000
0000
0010
0000
0100
0000
0000
0000
0001
0000
0010
0000
0100
0000
0010
0002
,
0000
0000
0000
0100
0000
0000
0203
0000
0000
0000
0000
0000
0310
0000
1000
0000
0100
0000
0010
0000
0000
0001
0000
0000
,
0100
0010
0000
0000
0100
0000
0000
0100
0001
0000
0001
0000
0010
0000
0100
0000
,
0010
0001
0000
0000
0100
0000
0000
0001
0100
0000
1000
0000
0100
0000
0001
1000
,
0000
0100
0000
0000
0010
0000
0000
0100
0000
0000
2000
0000
0000
0010
0000
0010
,
0000
3010
0000
0000
1000
0000
0000
1000
0000
0000
0001
0000
0010
0000
0001
0100
,
0000
0010
0000
0000
0100
0000
0000
0001
0000
0001
0010
0000
0100
0000
0010
0001
,
0000
0100
0000
0000
0010
0000
0000
1000
0000
0000
0100
0000
1000
0000
0010
1000
,
0000
0100
0000
0000
0010
0000
0000
0100
0000
0000
1000
0000
0010
0000
0100
0000
,
0110
0000
0110
0000
2000
0000
0000
0000
3001
0010
0100
0010
0001
0000
0000
0000
,
0100
0020
1000
0000
0001
0000
0130
0001
,
0010
0000
0100
0010
0000
0100
1000
0000
0010
0000
0100
0001
0000
0100
0010
0000
,
1000
0100
0001
0200
0010
0000
1300
0010
,
0100
0000
0001
0010
0000
0001
0100
0000
0010
0000
1000
0100
1000
0000
0010
0000
,
0100
0001
0020
0000
1000
0000
0031
0100
,
1000
0000
0100
0010
0000
0100
0001
0000
0010
0000
0100
0001
0000
0100
0010
0000
,
0200
0000
1000
0000
0310
0100
1000
0020
,
0000
0000
0100
0000
0130
0000
0000
0000
0010
0000
1000
0001
1000
0000
0000
0000
,
0001
0200
1000
0000
0010
0000
0301
0010
,
0100
0000
0010
0001
0000
0010
0100
0000
1000
0000
0001
0100
0000
0001
0010
0000
,
0100
0010
0001
0200
1000
0000
0310
0001
,
0010
0000
0100
0010
0000
0100
1000
0000
0010
0000
0100
0010
0100
0000
0001
0000
,
0010
0200
0001
0000
0310
0100
1000
0010
,
0100
0000
0010
1000
0000
0010
0001
0000
0010
0000
0100
0001
0000
0010
0001
0000
,
0200
0010
0010
0000
1300
0100
0001
0010
,
0100
0000
0000
0000
0010
0100
0010
0001
0200
0000
0010
0000
0310
0000
0000
0000
,
0101
0000
0000
0000
;
