#TITLE:Pleasure with VOLZZA;
#SUBTITLE:;
#ARTIST:ACRID-9;
#TITLETRANSLIT:;
#SUBTITLETRANSLIT:;
#ARTISTTRANSLIT:;
#CREDIT:Grithokskulk;
#BANNER:Pleasure with VOLZZA.png;
#BACKGROUND:Pleasure with VOLZZA-bg.png;
#LYRICSPATH:;
#CDTITLE:REFLEC BEAT.png;
#MUSIC:Pleasure with VOLZZA.mp3;
#OFFSET:-1.150;
#SAMPLESTART:50.855;
#SAMPLELENGTH:15.000;
#SELECTABLE:YES;
#BPMS:0.000=162.000,104.000=170.000;
#STOPS:;
#BGCHANGES:;

//---------------dance-single - ----------------
#NOTES:
     dance-single:
     :
     Easy:
     2:
     0.176,0.272,0.089,0.179,0.000: // measure 1
2002
0000
0000
0000
,  // measure 2
3003
0000
0000
0000
,  // measure 3
0020
0000
0000
0000
,  // measure 4
0030
0000
0000
0000
,  // measure 5
0200
0000
0000
0000
,  // measure 6
0300
0000
0000
0000
,  // measure 7
0002
0000
0000
0000
,  // measure 8
0003
0000
0000
0000
,  // measure 9
0020
0000
0000
0000
,  // measure 10
0030
0000
0000
0000
,  // measure 11
0002
0000
0000
0000
,  // measure 12
0003
0000
0000
0000
,  // measure 13
2000
0000
0000
0000
,  // measure 14
3000
0000
0000
0000
,  // measure 15
0020
0000
0000
0000
,  // measure 16
0030
0000
0000
0000
,  // measure 17
0200
0000
0000
0000
,  // measure 18
0300
0000
0000
0000
,  // measure 19
0020
0000
0000
0000
,  // measure 20
0030
0000
0000
0000
,  // measure 21
2000
0000
0000
0000
,  // measure 22
3000
0000
0000
0000
,  // measure 23
0200
0000
0000
0000
,  // measure 24
0300
0000
0000
0000
,  // measure 25
1000
0000
0001
0000
,  // measure 26
0100
0000
0000
0000
,  // measure 27
0010
0000
0100
0000
,  // measure 28
0010
0000
0010
0000
,  // measure 29
1000
0000
0001
0000
,  // measure 30
1000
0000
1000
0000
,  // measure 31
0001
0000
0010
0000
,  // measure 32
0001
0000
0001
0000
,  // measure 33
1000
0000
0010
0000
,  // measure 34
1000
0000
1000
0000
,  // measure 35
1001
0000
0000
0000
,  // measure 36
0110
0000
0000
0000
,  // measure 37
1001
0000
0000
0000
,  // measure 38
0110
0000
0000
0000
,  // measure 39
0001
0000
0010
0000
,  // measure 40
0001
0000
0100
0000
,  // measure 41
0002
0000
0000
0003
,  // measure 42
2000
0000
0000
3000
,  // measure 43
1001
0000
0000
0000
,  // measure 44
0110
0000
0000
0000
,  // measure 45
1001
0000
0000
0000
,  // measure 46
0110
0000
0000
0000
,  // measure 47
1000
0000
0100
0000
,  // measure 48
1000
0000
0010
0000
,  // measure 49
1000
0000
0100
0000
,  // measure 50
0010
0000
0001
0000
,  // measure 51
0200
0000
0000
0000
,  // measure 52
0000
0000
0000
0300
,  // measure 53
0010
0000
0010
0000
,  // measure 54
0100
0100
0100
0000
,  // measure 55
0001
0000
0010
0000
,  // measure 56
0100
0100
0100
0000
,  // measure 57
0010
0000
0001
0000
,  // measure 58
1000
0010
1000
0000
,  // measure 59
0100
0000
1000
0000
,  // measure 60
0001
0100
0001
0000
,  // measure 61
0010
0000
0001
0000
,  // measure 62
0100
0010
0100
0000
,  // measure 63
0001
0000
1000
0000
,  // measure 64
0100
1000
0100
0000
,  // measure 65
2000
0000
0000
3000
,  // measure 66
0002
0000
0000
0003
,  // measure 67
0200
0000
0000
0300
,  // measure 68
0020
0000
0000
0030
,  // measure 69
1000
0000
0100
0000
,  // measure 70
1000
0000
0010
0000
,  // measure 71
0100
0000
0001
0000
,  // measure 72
0010
0010
0010
0000
,  // measure 73
0001
0000
0100
0000
,  // measure 74
0010
0000
0100
0000
,  // measure 75
0001
0001
0001
0000
,  // measure 76
1000
1000
1000
0000
,  // measure 77
0110
0000
0000
0000
;

//---------------dance-single - ----------------
#NOTES:
     dance-single:
     :
     Medium:
     6:
     0.455,0.510,0.367,0.232,0.000:
2002
0000
0000
0000
,
3003
0000
0100
0100
,
0220
0000
0000
0000
0000
0000
0000
0330
,
0000
0000
0001
0001
,
0022
0000
0000
0000
,
0033
0000
1000
1000
,
2200
0000
0000
0000
,
3300
0000
0010
0010
,
0220
0000
0000
0000
,
0330
0000
0000
0000
1000
0001
1000
0000
,
2002
0000
0000
0000
,
3003
0000
0000
0000
1000
0100
1000
0000
,
2200
0000
0000
0000
,
3300
0000
0000
0000
0010
1000
0010
0000
,
2020
0000
0000
0000
,
3030
0000
0000
0000
0100
0010
0100
0000
,
0202
0000
0303
0000
,
0010
0001
0010
0000
0001
0000
1000
0000
,
0220
0000
0330
0000
,
1000
0100
1000
0000
0001
0000
0010
0000
,
0220
0000
0330
0000
,
0010
0001
0010
0000
0001
0000
0100
0000
,
0202
0000
0303
0000
,
1000
0100
1000
0000
0010
0000
0100
0000
,
0001
0000
0010
0000
,
0001
0001
0100
0000
,
0010
0100
0010
0000
0100
0000
0100
0000
,
0001
0010
0100
0110
,
0100
1000
0100
0000
1000
0000
0010
0000
,
0200
1000
0001
0310
,
0100
0001
0100
0000
0001
0000
0010
0000
,
0100
0010
0001
0001
,
1000
0010
1000
0000
0100
0000
0010
0000
,
0100
1000
0100
0010
0100
0000
0000
0000
,
0011
0000
0000
0000
0000
0000
0001
1000
,
0001
0000
0000
0000
0100
0000
0010
1000
,
0100
0000
0000
0000
0000
0000
1000
0010
,
1000
0000
0000
0000
0001
0001
0001
0000
,
0010
0000
0000
0010
0000
0000
0010
0000
,
0100
0000
0000
0100
0000
0000
0100
0000
,
1000
0000
0000
1000
0000
0000
1000
0000
,
0001
0000
0000
0000
0001
0001
0001
0000
,
0110
0000
0000
0101
,
0011
0000
0000
1100
,
0011
0000
0000
1001
,
0110
0000
0000
0000
1000
0100
1000
0000
,
0010
0000
0100
1000
0000
1000
0010
0000
,
0100
0000
0001
0010
0000
0010
0001
0000
,
0100
0000
0010
0100
0000
0100
0010
0000
,
1000
0000
0001
0010
0000
0010
0001
0000
,
2000
0000
0010
0000
,
0100
0000
3100
0000
0010
0010
0010
0000
,
0100
0010
0100
0000
0001
0000
1001
0000
,
1000
0100
1000
0000
0001
0000
0110
0000
,
0001
0010
0001
0000
1000
0100
1000
0000
,
0010
0100
1000
0100
0010
0000
0110
0000
,
0001
0010
0001
0000
0100
0000
0110
0000
,
0001
1000
0001
0000
1000
0000
1100
0000
,
0010
0100
0010
0000
1000
0001
1000
0000
,
0001
0010
0100
1000
0010
0000
0110
0000
,
0010
1000
0010
0000
1000
0000
1001
0000
,
0001
0010
0001
0000
1000
0000
1001
0000
,
0010
0100
0001
0100
0010
0000
1001
0000
,
1000
0100
0010
0100
1000
0000
0110
0000
,
1000
0000
0000
1000
0001
0000
1001
0000
,
0001
0000
0000
0001
1000
0000
1001
0000
,
0010
0100
0010
0000
1000
0001
1000
0000
,
0001
0010
0100
1000
0001
0000
1001
0000
,
0100
0000
0000
0100
0010
0000
1010
0000
,
1000
0000
0000
1000
0001
0000
0011
0000
,
0001
1000
0001
0000
0100
0010
0100
0000
,
0001
0010
0100
1000
0001
0000
1001
0000
,
1000
0010
1000
0010
0100
0000
0110
0000
,
0001
1000
0100
1000
0001
0000
0101
0000
,
0010
0100
0010
0000
1000
0001
1000
0000
,
0001
0010
0100
1000
0001
0000
0101
0000
,
1010
0000
0000
0000
;

//---------------dance-single - ----------------
#NOTES:
     dance-single:
     :
     Hard:
     8:
     0.662,0.781,0.617,0.402,0.134:
2200
0000
0000
0000
,
3300
0000
0000
0000
,
0022
0000
0000
0000
,
0033
0000
0100
0010
0000
0010
1000
0000
,
2200
0000
0000
0000
,
3300
0000
0010
0001
0000
0001
0100
0000
,
0220
0000
0000
0000
,
0330
0000
1000
0001
0010
0000
0001
0000
,
0022
0000
0000
0000
,
0033
0000
1000
0010
0100
0010
1000
0000
,
2002
0000
0000
0000
,
3003
0000
0010
0100
1000
0100
0010
0000
,
0022
0000
0000
0000
,
0033
0000
0100
0010
0000
0010
1000
0000
,
2200
0000
0000
0000
,
3300
0000
0001
0100
0010
0100
0001
0000
,
2002
0000
3000
0000
,
1003
0100
0010
0010
0100
1000
0010
0000
,
0202
0000
0300
0000
,
0013
0010
0100
0010
0001
0001
0100
1000
,
0220
0000
0030
0000
,
0310
1000
0100
0100
0001
0100
1000
0001
,
0202
0000
0003
0000
,
0310
0100
0001
0001
0010
0100
0010
0001
,
2100
0000
0010
0000
,
0100
0100
3001
1001
,
0201
0000
1000
0000
0010
0010
0001
0000
,
0320
0000
1000
0000
0001
0001
0100
0000
,
2030
0000
0100
0000
0010
0010
3100
0000
,
1000
0100
0010
0001
1000
0000
1001
0000
,
2010
0000
0100
0000
0010
0010
0100
0000
,
3002
0000
0010
0010
0013
0000
1001
0000
,
0200
0000
1000
0000
0010
0010
0310
0000
,
0100
0001
0010
0100
0010
0010
0110
0000
,
1100
0000
0000
0011
,
0101
0000
0000
0000
,
1001
0000
0000
0000
0000
0000
0000
0000
0000
0000
1000
0100
1000
0000
0000
0000
,
0101
0000
0000
0000
0001
0001
1001
0000
,
1100
0000
0000
0000
0010
0000
0110
0000
0000
0000
1000
0000
0010
0100
0010
0000
,
1010
0000
0000
0000
1000
0000
1001
0000
0000
0000
0001
0000
0010
0100
0010
0000
,
0011
0000
0000
0000
0100
0000
0110
0000
0000
0000
0001
0000
1000
0010
1000
0000
,
1001
0000
0000
0000
0110
0110
0110
0000
,
2001
0100
3010
1100
,
0012
0100
1000
0103
,
0120
0000
0000
0000
0001
0000
0000
0000
1030
0000
0010
0100
0010
0000
0000
0000
,
0012
0000
0100
0000
0010
0010
0013
0000
,
1001
0000
0000
0000
0100
0000
1100
0000
0000
0000
1000
0000
0010
0100
0010
0000
,
1010
0000
0000
0000
1000
0000
1001
0000
0000
0000
0010
0000
0100
0010
0100
0000
,
0011
0000
0000
0000
0001
0000
0101
0000
0000
0000
0010
0000
0100
0001
0100
0000
,
1001
0000
0000
0000
0110
0110
0110
0000
,
1002
1000
0100
0100
,
0010
0000
0010
0000
1003
0001
1000
0000
,
0100
0001
0100
0001
0100
0000
0010
0000
0100
0000
0100
0000
0110
0000
0000
0000
,
1000
0001
1000
0001
1000
0000
0100
0000
0010
0000
0010
0000
0110
0000
0000
0000
,
1000
0100
1000
0100
1000
0000
0010
0000
0100
0000
0010
0000
0100
0000
0100
0000
,
0001
0000
0010
0001
0010
0000
0001
0000
1000
0000
1000
0000
1001
0000
0000
0000
,
0002
0100
0100
0000
0010
0010
0103
0010
,
0200
1000
1000
0000
0010
0010
0301
0010
,
0200
0001
0001
0000
0010
0010
1300
0010
,
0100
1000
0100
0001
0010
0010
0110
0000
,
0001
0010
0001
0010
0001
0000
1000
0010
1000
0000
0001
0000
1001
0000
0000
0000
,
0100
0010
0100
0010
0100
0000
0001
1000
0001
0000
0100
0000
0110
0000
0000
0000
,
0100
1000
1000
0100
0001
0001
1001
0000
,
0001
0010
0010
1000
0010
0010
1001
0000
,
1000
0010
0100
0010
1000
0100
0110
0000
,
0001
0100
1000
0001
0010
1000
1001
0000
,
1000
0100
0001
1000
0010
0001
1001
0000
,
0010
0001
0100
0010
1000
0100
0110
0000
,
1000
0010
1000
0010
1000
0000
0001
0100
0001
0000
0100
0000
0110
0000
0000
0000
,
1000
0001
1000
0001
1000
0000
0100
0010
0100
0000
1000
0000
1001
0000
0000
0000
,
1000
0010
0001
0001
1000
0100
0110
0000
,
0001
0010
1000
1000
0001
0100
0110
0000
,
2000
0100
0001
3001
0002
0010
1003
0000
,
0002
0100
0010
0013
0200
1000
0310
0000
,
2000
0010
0001
3001
0020
0100
1030
0000
,
0100
0010
0100
0010
0100
0000
0001
1000
0001
0000
0100
0000
0110
0000
0000
0000
,
0101
0000
0000
0000
;
