#TITLE:PAPAYAPA BASS;
#SUBTITLE:;
#ARTIST:Camellia feat. Nanahira;
#TITLETRANSLIT:;
#SUBTITLETRANSLIT:;
#ARTISTTRANSLIT:;
#CREDIT:Grithokskulk;
#BANNER:PAPAYAPA BASS.png;
#BACKGROUND:PAPAYAPA BASS-bg.png;
#LYRICSPATH:;
#CDTITLE:beatmania IIDX.png;
#MUSIC:PAPAYAPA BASS.mp3;
#OFFSET:-0.440;
#SAMPLESTART:14.055;
#SAMPLELENGTH:15.000;
#SELECTABLE:YES;
#BPMS:0.000=147.000;
#STOPS:;
#BGCHANGES:0.667=PAPAYAPA BASS.avi=1.000=1=0=1,
99999=-nosongbg-=1.000=0=0=0 // don't automatically add -songbackground-
;

//---------------dance-single - ----------------
#NOTES:
     dance-single:
     :
     Easy:
     3:
     0.231,0.262,0.135,0.071,0.000: // measure 1
0000
0000
0000
0000
,  // measure 2
0000
0000
0000
0000
,  // measure 3
0000
0000
0000
0000
,  // measure 4
0000
0000
0000
0000
,  // measure 5
0000
0000
0000
1000
,  // measure 6
0100
1000
0000
0001
,  // measure 7
0100
0001
0000
0010
,  // measure 8
0000
0100
0000
2002
,  // measure 9
0000
3003
0000
0001
,  // measure 10
0100
0010
0100
0001
,  // measure 11
0000
0010
0000
0100
,  // measure 12
1000
0010
1000
0100
,  // measure 13
0000
0010
0000
0100
,  // measure 14
1000
0010
0100
0001
,  // measure 15
0000
0010
0000
0001
,  // measure 16
0000
1000
0000
0110
,  // measure 17
0220
0000
0330
0001
,  // measure 18
0000
0010
0000
0100
,  // measure 19
0100
0100
0000
0010
,  // measure 20
0000
0001
0000
0100
,  // measure 21
0100
0100
0110
0010
,  // measure 22
0000
1000
0000
0100
,  // measure 23
0010
0100
0000
1000
,  // measure 24
0000
0001
0000
0100
,  // measure 25
0000
0010
0010
0010
,  // measure 26
0000
0100
0000
0001
,  // measure 27
0010
0001
0000
1000
,  // measure 28
0000
0010
0000
0100
,  // measure 29
0100
0100
0110
0010
,  // measure 30
0000
1000
0000
0001
,  // measure 31
0010
0001
0000
1000
,  // measure 32
1000
0100
0100
0020
,  // measure 33
0000
0000
0030
0100
,  // measure 34
0000
0010
0000
0001
,  // measure 35
0001
0000
0000
0000
,  // measure 36
0100
0100
0000
0010
,  // measure 37
0010
0000
0000
0000
,  // measure 38
1000
1000
0000
0001
,  // measure 39
0001
0000
0000
0010
,  // measure 40
0000
0001
0000
0100
,  // measure 41
0000
0000
0000
0110
,  // measure 42
0000
1000
0001
0010
,  // measure 43
0000
0110
0000
0000
,  // measure 44
0001
0001
0000
1000
,  // measure 45
0000
1001
0000
0010
,  // measure 46
0000
0100
0100
0010
,  // measure 47
0000
1001
0000
1000
,  // measure 48
0100
1000
0000
0001
,  // measure 49
0100
0001
0000
0010
,  // measure 50
0000
0000
0000
0110
,  // measure 51
0100
0010
0000
0001
,  // measure 52
0010
0100
0000
1001
,  // measure 53
1000
0001
0000
0100
,  // measure 54
0010
0100
0000
0110
,  // measure 55
0010
1000
0000
0100
,  // measure 56
1000
0100
0000
0010
,  // measure 57
0000
0100
0000
2002
,  // measure 58
0000
3003
0000
0001
,  // measure 59
0100
0010
0100
0001
,  // measure 60
0010
0001
0000
1000
,  // measure 61
0100
0010
0100
1000
,  // measure 62
0010
1000
0000
0010
,  // measure 63
0100
0001
0100
0010
,  // measure 64
1000
0010
0000
1000
,  // measure 65
0000
0001
0000
0110
,  // measure 66
0220
0000
0330
0001
,  // measure 67
0010
0001
0000
1000
,  // measure 68
0010
1000
0000
0100
,  // measure 69
0000
0100
0000
0010
,  // measure 70
0010
0010
0110
0100
,  // measure 71
0000
1000
0000
0001
,  // measure 72
0100
0001
0000
1000
,  // measure 73
0100
0010
0100
1000
,  // measure 74
0000
1001
0000
0000
;

//---------------dance-single - ----------------
#NOTES:
     dance-single:
     :
     Medium:
     5:
     0.368,0.379,0.167,0.111,0.004: // measure 1
0000
0000
0000
0000
,  // measure 2
0000
0000
0000
0000
,  // measure 3
0000
0000
0000
0000
,  // measure 4
0000
0000
0000
0000
,  // measure 5
0000
0000
0000
1000
,  // measure 6
0100
1000
0100
0010
,  // measure 7
0001
0000
0010
0000
0001
0000
0100
0010
,  // measure 8
0100
0000
0001
1000
0001
0000
0220
0000
,  // measure 9
0000
0000
0330
0000
0000
0000
0001
0010
,  // measure 10
0001
1000
0010
0100
,  // measure 11
0100
0010
0010
1000
,  // measure 12
0100
0010
0100
0000
0010
0000
0001
0000
,  // measure 13
0001
1000
1000
0010
,  // measure 14
0100
0001
0100
0000
0001
0000
1000
0000
,  // measure 15
1000
0000
0100
0000
0100
0000
1000
0010
,  // measure 16
1000
0000
0001
0010
0001
0000
1001
0000
,  // measure 17
2002
0000
0000
0000
3003
0000
0001
0100
,  // measure 18
0001
0000
1000
0100
1000
0000
0001
0000
,  // measure 19
0010
0000
0100
0000
1000
0000
0010
1000
,  // measure 20
0010
0000
1000
0001
1000
0000
0001
0000
,  // measure 21
0010
0000
0100
0000
1001
0000
0001
0100
,  // measure 22
0001
0000
1000
0100
1000
0000
0010
0000
,  // measure 23
0100
0000
0001
0000
0010
0000
0100
1000
,  // measure 24
0100
0000
0010
0001
0010
0000
0001
0100
,  // measure 25
0010
0100
0001
0000
0000
0000
1000
0000
,  // measure 26
0100
0000
0010
0100
1000
0000
0010
0000
,  // measure 27
0100
0000
0001
0010
0100
0000
0010
0000
,  // measure 28
0001
0000
1000
0010
0100
0000
0001
0000
,  // measure 29
0010
0100
1001
0010
,  // measure 30
0100
0000
0001
0010
0001
0000
1000
0010
,  // measure 31
1000
0000
0100
0000
1000
0000
0010
0100
,  // measure 32
0010
0000
1000
0001
1000
0000
0100
0010
,  // measure 33
0001
0100
0010
0210
,  // measure 34
0000
0001
0000
0010
,  // measure 35
0010
0001
0000
0302
,  // measure 36
0000
0010
0000
1000
,  // measure 37
1000
0010
0000
2003
,  // measure 38
0000
0100
0000
0001
,  // measure 39
0001
0100
0000
3020
,  // measure 40
0000
0230
0000
0302
,  // measure 41
0000
0000
0003
1001
,  // measure 42
0000
0000
1000
0100
1000
0000
0110
0000
,  // measure 43
0000
1001
0000
0000
0010
0000
0100
0001
,  // measure 44
0100
0000
0001
1000
0001
0000
0110
0000
,  // measure 45
0000
1001
0000
0000
1000
0000
1001
0000
,  // measure 46
0100
0000
0010
0100
0010
0000
1001
0000
,  // measure 47
0000
0110
0000
0000
0001
0000
1000
0100
,  // measure 48
1000
0000
0001
0000
0001
0000
0100
0010
,  // measure 49
0100
0001
0001
0110
,  // measure 50
0000
0000
0000
0001
,  // measure 51
1000
0000
0010
0100
0010
0000
1000
0000
,  // measure 52
0100
0010
0001
1000
,  // measure 53
0010
1000
0010
0000
0100
0000
0001
0000
,  // measure 54
0010
0100
1000
0001
,  // measure 55
0100
0010
0100
0000
0001
0000
1000
0000
,  // measure 56
0100
0010
0001
0200
,  // measure 57
1000
0010
0001
0020
,  // measure 58
0000
0330
0000
1001
,  // measure 59
1000
0100
0010
0000
0100
0000
1000
0000
,  // measure 60
0001
0100
0010
0000
0100
0000
0001
0000
,  // measure 61
0010
0100
0010
0000
0100
0000
1000
0000
,  // measure 62
0001
0100
0010
0000
0100
0000
0001
0000
,  // measure 63
1000
0100
0010
0000
0100
0000
1000
0000
,  // measure 64
0010
0100
0010
0000
1000
0000
1001
0000
,  // measure 65
0000
0110
0000
0011
,  // measure 66
2200
0000
3300
0001
,  // measure 67
0100
0000
0010
0100
0001
0000
0010
0000
,  // measure 68
0100
0010
0100
0010
0100
0000
0010
0000
,  // measure 69
0001
0000
0100
0010
0100
0000
0001
0000
,  // measure 70
0010
0100
1001
0010
,  // measure 71
0100
0000
0001
1000
0001
0000
0010
0100
,  // measure 72
1000
0000
0100
0010
0100
0000
1000
0000
,  // measure 73
0010
0000
0100
0000
0001
0000
1000
0100
,  // measure 74
1000
0000
0000
0000
0001
0000
0000
1000
0000
0000
0000
0000
0000
0000
0000
0000
;

//---------------dance-single - ----------------
#NOTES:
     dance-single:
     :
     Hard:
     9:
     0.592,0.612,0.214,0.198,0.420: // measure 1
0000
0000
0000
0000
,  // measure 2
0000
0000
0000
0000
,  // measure 3
0000
0000
0000
0000
,  // measure 4
0000
0000
0000
0000
,  // measure 5
0000
0000
0000
1000
,  // measure 6
0100
0000
0000
0100
0010
0000
0000
0000
0010
0000
0001
0000
0100
0000
0000
0000
,  // measure 7
0010
0000
0000
0010
0100
0000
0000
0000
0100
0000
0001
0000
0010
0000
0010
0000
,  // measure 8
0100
0000
0100
0000
0010
0000
0000
0001
0000
0000
1000
0000
2002
0000
0000
0000
,  // measure 9
0000
0000
0000
0000
3003
0000
0001
0000
0001
0000
0010
0000
0100
0000
0000
0100
,  // measure 10
0010
0001
0000
0000
0100
0000
0010
0000
0100
0000
0001
0000
1000
0000
0000
1000
,  // measure 11
0100
0000
0000
0000
0001
0000
0000
0001
0100
0000
0010
0000
0100
0000
0000
0001
,  // measure 12
0010
0001
0000
1000
0010
0000
0100
0000
0010
0000
1000
0000
0100
0000
0000
0100
,  // measure 13
0010
0000
0000
0000
0001
0000
0000
0001
0100
0000
0010
0000
0100
0000
0000
0001
,  // measure 14
0010
0001
0000
1000
0010
0000
0100
0000
0010
0000
1000
0000
0100
0000
0000
0100
,  // measure 15
0010
0000
0000
0000
0100
0000
0000
0100
1000
0000
0010
0000
0100
0001
0000
0000
,  // measure 16
0101
0000
0000
0000
0001
1000
0000
0000
1001
0000
0000
0000
1100
0000
0000
0000
,  // measure 17
0022
0000
0000
0000
0033
0000
1000
0010
,  // measure 18
0100
0000
0000
0010
0000
1000
0000
0000
0001
0000
0000
0000
0010
0000
0100
0010
,  // measure 19
0100
0010
0001
0100
0010
0000
0100
0001
,  // measure 20
1000
0000
0000
0100
0000
1000
0000
0000
0010
0000
0000
0000
0110
0000
0000
0000
,  // measure 21
0101
0000
0011
0000
1100
0000
0001
0010
,  // measure 22
0100
0000
0000
0010
0000
0001
0000
0000
0100
0000
0000
0000
1000
0000
0100
0010
,  // measure 23
0100
0010
1000
0100
0001
0100
0010
0010
,  // measure 24
0001
0001
0100
0100
0010
0010
0100
0001
,  // measure 25
1000
0000
0100
0000
0010
0000
0100
0000
0100
0000
1000
0000
0010
0000
0000
0010
,  // measure 26
0100
0010
0000
0000
1000
0000
0010
0000
0001
0000
0000
0000
0010
0000
0100
0000
,  // measure 27
0001
0000
0010
0000
0100
0000
0010
0000
0001
0000
1000
0000
0100
0000
0000
0010
,  // measure 28
0100
0010
0000
0000
0100
0000
1000
0000
0010
0000
0000
0000
1010
0000
0000
0000
,  // measure 29
0101
0000
0000
0000
0011
0000
0000
0000
1100
0000
0000
0000
0001
0000
0000
0100
,  // measure 30
0010
0100
0000
0000
0001
0000
0010
0000
1000
0000
0010
0000
0100
0000
1000
0000
,  // measure 31
0010
0100
1000
0100
0001
0010
0200
0000
,  // measure 32
0001
0000
0010
0000
1000
0000
0310
0010
,  // measure 33
0001
0001
0100
0010
1000
0001
2001
0000
,  // measure 34
0100
0000
0010
0010
0000
0100
0000
3002
,  // measure 35
0000
0000
0000
0000
0100
0000
0000
0100
0000
0000
0103
0000
0020
0000
0000
0000
,  // measure 36
1000
0000
0100
0100
0000
0001
0000
0230
,  // measure 37
0000
0000
0000
0000
0010
0000
0000
0010
0000
0000
0310
0000
2000
0000
0000
0000
,  // measure 38
0010
0000
0001
0001
0000
0010
0000
0100
,  // measure 39
0000
3010
0000
0100
0010
1000
0200
0000
,  // measure 40
0302
0023
2030
3200
,  // measure 41
0000
0000
0000
0000
0000
0000
0000
0000
0310
0000
0000
0000
0011
0000
0000
0001
,  // measure 42
0010
0000
0000
0010
0100
0000
0000
0100
1000
0000
0000
1000
0010
0000
0000
0010
,  // measure 43
0001
0000
0000
0001
0010
0000
0000
0010
1000
0000
0100
0000
0010
0000
0010
0000
,  // measure 44
0100
0000
0000
0100
1000
0000
0010
0000
0100
0000
0001
0000
0010
0000
0000
0000
,  // measure 45
0100
0000
0010
0000
0001
0000
0000
0000
0101
0000
0000
0000
1010
0000
0000
0010
,  // measure 46
0100
0000
0000
0100
1000
0000
0000
1000
0100
0000
0000
0100
0001
0000
0000
0001
,  // measure 47
0010
0000
0000
0010
1000
0000
0000
1000
0010
0000
0001
0000
0200
0000
0000
0000
,  // measure 48
0010
0000
0000
0010
0000
0010
0000
0010
0000
0000
0310
0000
0000
0000
0000
0000
,  // measure 49
2000
0000
0000
0001
0000
0001
0000
0001
0000
0000
3001
0000
1001
0000
0000
0000
,  // measure 50
0000
0000
0000
0000
0000
0000
0001
0000
0001
0000
0010
0000
0100
0000
0000
1000
,  // measure 51
0010
1000
0000
0010
0100
0000
0010
0000
1000
0000
0100
0000
0001
0000
0000
0001
,  // measure 52
0100
0000
0000
0100
1000
0000
0010
0000
0010
0000
0100
0000
0001
0000
0000
0010
,  // measure 53
0001
0010
0000
0001
0100
0000
1000
0000
0100
0000
0001
0000
0010
0000
0000
0010
,  // measure 54
0100
0000
0110
0000
0000
0000
0001
0000
0001
0000
0100
0000
0010
0000
0000
0010
,  // measure 55
1000
0010
0000
1000
0100
0000
0001
0000
0100
0000
1000
0000
0010
0000
0000
0010
,  // measure 56
0100
0000
0000
0100
0001
0000
0010
0000
0010
0000
0100
0000
0020
0000
0000
0000
,  // measure 57
0032
0203
2300
3020
,  // measure 58
0032
0000
0000
0000
0203
0000
0010
0000
0310
0000
0100
0000
0001
0000
0000
1000
,  // measure 59
0100
0010
0000
0100
1000
0000
0010
0000
0001
0000
0010
0000
0100
0000
0000
0100
,  // measure 60
0001
0000
0010
0000
0100
0000
0010
0000
0010
0000
0001
0000
0100
0000
0000
0010
,  // measure 61
1000
0100
0000
0001
0100
0000
1000
0000
0010
0000
0001
0000
0010
0000
0000
0010
,  // measure 62
0100
0000
0000
0100
0001
0000
0010
0000
0010
0000
0100
0000
0001
0000
0000
0001
,  // measure 63
0100
1000
0000
1000
0010
0000
0100
0000
1000
0000
0100
0000
0001
0000
0000
0001
,  // measure 64
1000
0000
0100
0000
0000
0000
0010
0000
0010
0000
0100
0000
1000
0010
0000
0100
,  // measure 65
0000
0010
1000
0100
0001
0100
1100
0000
,  // measure 66
0012
0000
0100
0100
0103
0000
0001
0010
,  // measure 67
0100
0010
0000
0001
0000
0100
0000
0010
0100
0000
0001
0000
1000
0000
0100
0010
,  // measure 68
0100
0000
1000
0010
0000
1000
0100
0000
0001
0000
0100
0000
0010
0000
0001
0100
,  // measure 69
0001
0000
0010
0001
0000
0100
0010
0000
0100
0000
0001
0000
1010
0000
0000
0000
,  // measure 70
0101
0000
0011
0000
1100
0000
0010
0100
,  // measure 71
1000
0100
0000
0010
0000
1000
0100
0000
0001
0000
0100
0000
1000
0000
0010
0100
,  // measure 72
0010
1000
0000
0100
0000
0010
0100
0000
1000
0000
0010
0000
0100
0000
0100
0000
,  // measure 73
0001
0000
0001
0000
0010
0000
0010
0000
0100
0000
0100
0000
1000
0100
0000
0010
,  // measure 74
0000
0001
0000
0000
1010
0000
0000
0101
0000
0000
0000
0000
0000
0000
0000
0000
;
