#TITLE:PANIC HOLIC;
#SUBTITLE:;
#ARTIST:C-Show;
#TITLETRANSLIT:;
#SUBTITLETRANSLIT:;
#ARTISTTRANSLIT:;
#CREDIT:Grithokskulk;
#BANNER:PANIC HOLIC.png;
#BACKGROUND:PANIC HOLIC-bg.png;
#LYRICSPATH:;
#CDTITLE:SOUND VOLTEX.png;
#MUSIC:PANIC HOLIC.mp3;
#OFFSET:-3.595;
#SAMPLESTART:29.755;
#SAMPLELENGTH:15.000;
#SELECTABLE:YES;
#BPMS:0.000=220.000;
#STOPS:;
#BGCHANGES:;

//---------------dance-single - ----------------
#NOTES:
     dance-single:
     :
     Easy:
     4:
     0.322,0.375,0.185,0.000,0.000: // measure 1
0100
0000
0010
0000
,  // measure 2
0100
0000
0010
0000
,  // measure 3
0001
0000
1000
0000
,  // measure 4
0001
0000
1000
0000
,  // measure 5
0001
0000
0100
0000
,  // measure 6
0001
0000
0100
0000
,  // measure 7
0010
0000
1000
0000
,  // measure 8
0010
0000
1000
0000
,  // measure 9
0100
0000
0000
0000
,  // measure 10
0100
0000
0000
0000
,  // measure 11
0010
0000
0000
0000
,  // measure 12
0110
0000
1001
0000
,  // measure 13
0100
0000
0000
0000
,  // measure 14
0010
0000
0000
0000
,  // measure 15
1000
0000
0000
0000
,  // measure 16
1001
0000
0110
0000
,  // measure 17
1000
1000
1000
1000
,  // measure 18
0001
0001
0001
0001
,  // measure 19
0100
0100
0100
0100
,  // measure 20
0110
0000
1001
0000
,  // measure 21
0010
0010
0010
0010
,  // measure 22
0100
0100
0100
0100
,  // measure 23
1000
1000
1000
1000
,  // measure 24
0001
0000
0000
0000
,  // measure 25
0001
0001
0001
0000
,  // measure 26
0100
0100
0100
0000
,  // measure 27
0010
0010
0010
0000
,  // measure 28
0100
0001
0100
0000
,  // measure 29
0001
0001
0001
0000
,  // measure 30
1000
1000
1000
0000
,  // measure 31
0010
0010
0010
0000
,  // measure 32
0100
1000
0100
0000
,  // measure 33
1000
1000
1000
0000
,  // measure 34
0001
0001
0001
0000
,  // measure 35
0100
0100
0100
0000
,  // measure 36
0010
0100
0010
0000
,  // measure 37
1000
1000
1000
0000
,  // measure 38
0001
0001
0001
0000
,  // measure 39
0110
0000
1001
0000
,  // measure 40
0100
0010
0100
0000
,  // measure 41
1000
0000
1000
0000
,  // measure 42
0001
0000
0001
0000
,  // measure 43
0100
0000
0100
0000
,  // measure 44
0010
0000
0010
0000
,  // measure 45
0100
0000
0100
0000
,  // measure 46
0001
0000
0001
0000
,  // measure 47
0010
0000
0010
0000
,  // measure 48
0100
1000
0100
0000
,  // measure 49
1000
0000
1000
0000
,  // measure 50
0010
0000
0010
0000
,  // measure 51
0100
0000
0100
0000
,  // measure 52
0010
0000
0010
0000
,  // measure 53
1000
1000
1000
0000
,  // measure 54
0001
0001
0001
0000
,  // measure 55
0010
0010
0100
0100
,  // measure 56
1000
0000
0001
0000
,  // measure 57
1001
0000
0000
0000
,  // measure 58
0000
0000
0000
0100
,  // measure 59
0110
0000
0000
0000
,  // measure 60
1001
0000
0101
0000
,  // measure 61
1001
0000
0000
0000
,  // measure 62
0000
0000
0000
0100
,  // measure 63
1100
0000
0000
0000
,  // measure 64
0010
0010
0000
0110
,  // measure 65
0100
0000
0000
0000
,  // measure 66
0101
0000
0000
0000
,  // measure 67
1001
0000
0000
0000
,  // measure 68
0110
0000
0000
0000
,  // measure 69
0001
0000
1000
0000
,  // measure 70
0100
0000
0010
0000
,  // measure 71
0100
0100
0100
0100
,  // measure 72
0010
0010
0010
0000
,  // measure 73
0001
0001
0001
0000
,  // measure 74
1000
1000
1000
0000
,  // measure 75
0010
0010
0010
0000
,  // measure 76
0100
0010
0100
0010
,  // measure 77
1000
1000
1000
0000
,  // measure 78
0001
0001
0001
0000
,  // measure 79
0010
0010
0010
0010
,  // measure 80
0100
0100
0100
0100
,  // measure 81
1000
0100
1000
0100
,  // measure 82
0010
0001
0010
0001
,  // measure 83
0100
0001
0100
0001
,  // measure 84
0100
0100
0010
0010
,  // measure 85
1000
0001
1000
0001
,  // measure 86
0010
0001
0010
0001
,  // measure 87
1000
0100
1000
0100
,  // measure 88
0010
0010
0100
0000
,  // measure 89
0110
0000
0000
0000
,  // measure 90
0000
0000
0000
1000
,  // measure 91
1001
0000
0000
0000
;

//---------------dance-single - ----------------
#NOTES:
     dance-single:
     :
     Medium:
     7:
     0.518,0.541,0.472,0.037,0.000:
1100
0000
0110
0000
,
1100
0000
1001
0000
,
0101
0000
0110
0000
,
0101
0000
0011
0000
,
0110
0000
1001
0000
,
0101
0000
0110
0000
,
0101
0000
1001
0000
,
1100
0100
0100
0000
,
0020
0100
0100
0100
,
0100
0100
0100
0100
,
0100
0100
0100
0130
,
0110
0000
0000
1001
0000
0000
0100
0000
,
0210
0010
0010
0010
,
0010
0010
0010
0010
,
0010
0010
0010
0310
,
0110
0000
0000
1010
0000
0101
0000
0000
,
2001
0001
0100
0100
,
0010
0010
0100
0100
,
0001
0001
0100
0100
,
0010
0010
0001
0001
,
0100
0100
0010
0010
,
0100
0100
0001
0001
,
0010
0010
0001
3001
,
1001
0000
0000
1100
0000
0000
0001
0000
,
0100
0010
0100
0000
0010
0000
0010
0000
,
1000
0010
1000
0000
0001
0000
0001
0000
,
0010
0001
0010
0000
0001
0000
0001
0000
,
0100
0010
0100
0000
0001
1000
0001
0000
,
1000
0100
1000
0000
0010
0000
0010
0000
,
0100
0010
0100
0000
0001
0000
0001
0000
,
0010
0100
0010
0000
0001
0000
0001
0000
,
0100
0010
0100
0010
0000
0000
0100
0000
,
0001
1000
0001
0000
1000
0000
0100
0000
,
1000
0010
1000
0000
0010
0000
0100
0000
,
0010
1000
0010
0000
1000
0000
0001
0000
,
0010
0001
0010
0001
0000
0000
0100
0000
,
0010
0100
0010
0000
1000
0000
0001
0000
,
0010
0100
0010
0000
0001
0000
1000
0000
,
0010
0010
0000
0000
0100
0100
0000
0000
,
0001
0010
0100
1000
,
0010
0000
0100
0000
0010
0100
0010
0000
,
1000
1000
0100
0000
,
0010
0000
0001
0000
0100
0010
0100
0000
,
0001
0000
1000
0000
,
0100
0000
1000
0000
0010
0100
0010
0000
,
1000
0010
0100
0000
,
0001
0000
0010
0000
0001
0010
0001
0000
,
0100
0010
0100
0000
,
0001
1000
0100
1000
,
0010
0100
0010
0000
0100
0000
0000
0000
,
0001
0010
0100
0010
,
0001
1000
0001
0000
1000
0000
0000
0000
,
0100
1000
0010
0000
,
0010
0100
0001
0000
,
0001
0001
0010
0010
,
0100
0000
0000
0100
0000
0000
0100
0000
,
0110
0000
0000
0000
,
0000
0000
0000
1100
,
0011
0000
0000
0000
,
0011
0000
0000
1100
0000
0000
1001
0000
,
0110
0000
0000
0000
,
0000
0000
0000
0101
,
1010
0000
0000
0000
,
1001
0000
1001
0000
0000
1100
0000
0000
,
1010
0000
0000
0000
,
0110
0000
0000
0000
,
1010
0000
0000
0000
,
1100
0000
0000
0000
0000
0110
0000
0000
,
0011
0000
1001
0000
,
1010
0000
0110
0000
,
1002
1000
1000
1000
,
1000
1000
1000
0003
,
1000
0100
1000
0000
0001
0100
0001
0000
,
1000
0010
1000
0000
0001
0000
0011
0000
,
0001
0100
0001
0000
0100
0010
0100
0000
,
0001
0010
0100
1000
,
0010
0100
0010
0000
1000
0010
1000
0000
,
0001
0010
0001
0000
1000
0000
1001
0000
,
0100
0010
0100
0000
0001
0100
0001
0000
,
1000
0001
1000
0001
0000
1000
0000
0000
,
0010
0100
0010
0000
1000
0010
1000
0000
,
0001
0010
0001
0000
1000
0010
1000
0000
,
0001
0010
0001
0000
0100
0001
0100
0000
,
0010
0100
0010
0100
0000
0000
0001
0000
,
1000
0100
1000
0000
0001
0010
0001
0000
,
1000
0100
1000
0000
0010
1000
0010
0000
,
0100
0001
0100
0000
0001
1000
0001
0000
,
1000
0100
1000
0100
0000
0010
0000
0000
,
0110
0000
0000
0000
,
0000
0000
0000
0000
0000
1001
0000
0000
,
0110
0000
0000
0000
;

//---------------dance-single - ----------------
#NOTES:
     dance-single:
     :
     Hard:
     9:
     0.745,0.749,0.620,0.093,0.014:
0011
0000
0101
0000
,
0110
0000
1001
0000
,
1100
0000
0110
0000
,
1001
0000
0000
0000
0000
0000
0110
0000
0100
0000
0100
0000
,
1001
0000
1100
0000
,
0011
0000
1001
0000
,
0110
0110
1100
1100
,
1000
0001
0001
1000
0000
1000
0010
0100
,
0002
1000
0010
0100
,
0010
0010
0100
0100
,
1000
0010
0100
0013
,
1001
1000
0100
0110
0000
1000
0100
0000
,
2001
0100
0010
0100
,
0001
0001
0100
0100
,
3010
0100
0010
0000
1000
0001
1000
0000
,
0001
0010
0100
1000
0000
1000
0001
0000
,
0001
0001
0010
0010
0100
0000
0010
0000
,
0001
0001
0100
0100
0010
0000
1000
0000
,
0100
0100
1000
1000
0010
0000
0100
0000
,
0010
1000
0100
0010
0000
0010
0100
1000
,
0010
0010
0100
0100
0001
0000
0010
0000
,
0001
0001
0100
0100
0010
0000
0100
0000
,
0001
0001
1000
1000
0100
0000
0010
0000
,
0110
0100
1000
0010
0000
0010
0220
0330
,
0100
0100
0001
0010
0100
0010
0001
0000
,
0001
0001
1000
0010
1000
0100
0010
0000
,
0100
0100
1000
0010
0100
0010
1000
0000
,
1000
0001
0010
0001
0000
0001
0100
0000
,
0010
0010
0100
0010
1000
0100
0010
0000
,
0100
0100
1000
0010
0100
0001
0010
0000
,
0010
0010
0001
0100
1000
0100
0001
0000
,
0001
0010
0001
0010
0000
0100
0100
0000
,
1000
1000
0001
1000
0100
0010
0100
0000
,
1000
1000
0010
0001
0010
1000
0100
0000
,
0010
0010
0100
1000
0010
0100
0001
0000
,
0010
0001
0010
0001
0000
0001
0100
0010
,
0100
0100
0001
0010
0100
0010
0001
0000
,
0100
0100
1000
0100
0010
1000
0100
0000
,
0110
0010
0000
0000
1100
1000
0000
0000
,
1002
0010
0100
1003
,
2100
0000
3010
0100
0001
0100
0010
0000
,
0000
1000
0100
1000
0010
0010
0100
0000
,
0001
0000
0010
0001
0100
0010
0010
0010
,
0000
1000
0100
0001
0200
0000
0300
0000
,
1100
0000
0000
1000
0010
0100
0100
0100
,
0101
0000
0000
0001
1000
0100
0100
0100
,
0110
0000
0000
1000
0100
0000
0000
0001
,
0100
0000
0010
0100
0001
1000
0100
0100
,
0110
0000
0000
0100
1000
0010
0010
0000
,
0100
0001
0001
0001
0010
0100
0010
0000
,
0100
0000
0000
0100
1000
0000
0010
0000
,
0100
0100
0100
0010
2000
0000
3000
0000
,
1001
1001
0101
0101
,
0110
0110
1010
1010
,
1000
0001
1000
0001
0100
0010
0100
0010
,
0100
0000
0001
1000
0000
0100
0010
0000
,
0110
0000
0000
0000
,
0000
0000
0000
1100
,
0011
0000
0000
0000
,
1001
0000
0100
0110
0000
0010
1010
0000
,
1001
0000
0000
0000
,
0010
0001
0001
0100
0010
0010
0110
0000
,
1001
0000
0000
0000
,
1100
0000
1100
0000
0000
1001
0000
0000
,
0101
0100
0000
0000
0000
0000
0000
0000
,
0110
0010
0000
0000
0000
0000
0000
0000
,
1001
0001
0000
0000
0000
0000
0000
0000
,
1100
1000
0000
0000
0000
0110
0000
0000
,
0101
0001
1000
0000
1100
1000
0010
0000
,
0110
0100
0001
0000
0011
0001
1000
0000
,
1100
1000
0001
0001
0100
0100
0010
0010
,
0100
0000
0010
0000
0100
0000
0010
0000
1000
0001
1000
0000
0001
0000
0000
0000
,
0100
0100
0010
0100
1000
0100
0001
0100
,
0010
0100
0010
0100
0001
0100
0001
0100
,
0001
0001
0010
1000
0010
0001
0010
0100
,
0010
0001
0010
0001
1000
0010
1000
0010
,
0100
0100
0001
0010
0001
1000
0001
0100
,
0001
0010
0001
0100
0001
1000
0100
0010
,
0100
0100
1000
0100
1000
0001
1000
0100
,
1000
0010
1000
0100
1000
0200
0000
0300
,
0010
0010
0001
0100
1000
0100
0001
0010
,
0100
0010
0001
1000
0010
0100
0010
1000
,
0100
0100
1000
0010
0100
0010
1000
0001
,
0010
0001
0100
0010
1000
0000
1001
0000
,
0101
0001
0010
0100
0010
0001
0100
0000
,
0110
0010
1000
0100
0010
0100
1000
0000
,
1001
0001
0100
0000
0110
0010
0100
0000
,
0100
0100
0001
0001
0000
0010
0000
0000
,
0210
0010
0010
0010
,
0010
0000
0010
0000
0310
1100
0000
0000
,
1001
0000
0000
0000
;
