#TITLE:Oh My Gosh;
#SUBTITLE:;
#ARTIST:Basement Jaxx Feat. Vula Malinga;
#TITLETRANSLIT:;
#SUBTITLETRANSLIT:;
#ARTISTTRANSLIT:;
#CREDIT:Grithokskulk;
#BANNER:Oh My Gosh.png;
#BACKGROUND:Oh My Gosh-bg.png;
#LYRICSPATH:;
#CDTITLE:grithokskulk.png;
#MUSIC:Oh My Gosh.mp3;
#OFFSET:-0.777;
#SAMPLESTART:38.495;
#SAMPLELENGTH:15.000;
#SELECTABLE:YES;
#BPMS:0.000=127.000;
#STOPS:;
#BGCHANGES:;

//---------------dance-single - ----------------
#NOTES:
     dance-single:
     :
     Easy:
     3:
     0.206,0.189,0.236,0.083,0.000: // measure 1
1000
0100
1000
0000
,  // measure 2
0001
0100
0001
0000
,  // measure 3
0010
0100
0010
0000
,  // measure 4
0001
0100
0001
0000
,  // measure 5
1000
1000
1000
0200
,  // measure 6
0300
0000
0000
0000
,  // measure 7
0001
0001
0001
0200
,  // measure 8
0300
0000
0000
0000
,  // measure 9
0010
0010
0010
0002
,  // measure 10
0003
0000
0000
0000
,  // measure 11
1000
1000
1000
0000
,  // measure 12
0010
0010
0020
0030
,  // measure 13
0100
0001
1000
0200
,  // measure 14
0000
0000
0300
0000
,  // measure 15
0010
0010
0010
0200
,  // measure 16
0300
0000
0000
0000
,  // measure 17
1000
1000
1000
0020
,  // measure 18
0030
0000
0000
0000
,  // measure 19
0110
0000
1001
0000
,  // measure 20
0010
0010
0010
0010
,  // measure 21
0000
0110
0110
0000
,  // measure 22
0000
1000
0001
1000
,  // measure 23
0001
0001
0000
1000
,  // measure 24
1000
0000
1001
0000
,  // measure 25
0000
1001
1001
0000
,  // measure 26
0000
1000
0100
1000
,  // measure 27
0100
0100
0000
0010
,  // measure 28
0010
0100
0100
0100
,  // measure 29
0000
1100
1100
0000
,  // measure 30
0000
0010
0010
0000
,  // measure 31
0000
1001
1001
0000
,  // measure 32
0000
0001
0001
0000
,  // measure 33
0000
0110
0110
0000
,  // measure 34
0000
1000
1000
0000
,  // measure 35
0000
0011
0011
0000
,  // measure 36
0000
0100
0100
0000
,  // measure 37
0000
0101
0101
0000
,  // measure 38
0000
0010
0010
0000
,  // measure 39
0000
1010
1010
0000
,  // measure 40
0000
0100
0100
0000
,  // measure 41
1001
0000
0000
0000
;

//---------------dance-single - ----------------
#NOTES:
     dance-single:
     :
     Medium:
     5:
     0.310,0.283,0.047,0.094,0.000:
1000
0100
1000
0100
,
0010
0001
0010
0001
,
0100
0010
0100
0010
,
1000
0100
1000
0000
0010
0001
0010
0000
,
0100
0000
0010
0000
1000
0100
2000
0000
,
0100
0100
0100
3100
,
0010
0001
0010
0000
0001
0100
0002
0000
,
0100
0100
0100
0103
,
0010
0100
0010
0000
1000
0001
2000
0000
,
0100
0100
0100
3100
,
0010
0100
0010
0000
0100
1000
0100
0000
,
2000
3000
0002
0003
,
0100
0010
0100
0000
0001
1000
0001
0000
,
0000
0000
0000
1100
0000
0000
0000
0000
,
0001
0100
0001
0000
0010
0100
0010
0000
,
0200
1000
1000
1300
,
0010
0100
0010
0000
1000
0001
1000
0000
,
0200
0010
0010
0310
,
0001
0010
0001
0000
1000
0010
1000
0000
,
0010
0000
0100
0000
0010
0100
0010
0100
,
0000
0000
0001
1000
0001
0000
0000
0000
,
0000
1000
0100
0000
0010
0000
0001
0000
,
0010
0100
0010
0000
0000
0000
0100
0100
,
0000
1000
0010
0000
,
0000
0000
1000
0001
1000
0000
0000
0000
,
0000
0001
0010
0000
0100
0000
0010
0000
,
0001
1000
0001
0000
0000
0000
0100
0200
,
0010
0010
0310
0110
,
0000
0000
1000
0100
1000
0000
0000
0000
,
0001
0010
0100
0110
,
1000
0000
0001
0100
0001
0000
0000
0000
,
1000
0010
0100
0001
,
1001
0000
1000
0100
1000
0000
0000
0000
,
0010
1000
0100
0010
,
0001
0000
0100
0010
0100
0000
0000
0000
,
0001
1000
0100
0010
,
0100
0000
1000
0010
1000
0000
0000
0000
,
0001
1000
0010
0100
,
0010
0000
1000
0001
1000
0000
0000
0000
,
0100
0010
0001
0100
,
0010
0000
0000
0000
;

//---------------dance-single - ----------------
#NOTES:
     dance-single:
     :
     Hard:
     7:
     0.471,0.425,0.189,0.236,0.000:
1000
0100
1000
0010
0200
0000
0310
0000
,
1000
0001
0010
0001
0200
0000
0310
0000
,
0100
0001
0010
0001
0200
0000
0301
0000
,
0010
1000
0010
0001
0100
1000
0100
0000
,
0001
0010
0100
1000
0010
0100
0020
0000
,
1000
0001
0100
1030
,
0100
1000
0100
0100
0010
0001
0200
0000
,
1000
0010
0001
0301
,
0010
1000
0100
0100
1000
0010
0200
0000
,
1000
0001
0010
0301
,
0010
0001
0100
0100
0010
0000
1000
0100
,
0010
0100
0100
1000
0010
0000
0110
0000
,
0010
1000
0100
0000
0010
0001
0100
0100
,
0000
0000
0000
0202
0303
0000
0000
0000
,
1000
0100
0010
0010
0100
1000
0010
0100
,
0020
0000
1030
0010
1000
0000
1001
0000
,
0100
0010
0001
0100
0010
1000
0200
0000
,
0310
0100
0010
0001
0100
0000
0110
0000
,
1000
1100
0001
0101
,
1000
1000
0100
0100
0010
0010
0001
0001
,
0100
0000
0010
0100
0210
0000
0302
0000
,
1003
0100
0001
0100
1000
0010
0001
0010
,
0100
0001
0010
0000
0100
1000
0010
0010
,
0000
0100
0010
1000
0100
0000
1100
0000
,
1001
0000
0100
0010
2010
0000
3002
0000
,
0013
0100
0010
0001
0100
1000
0100
0001
,
0010
1000
0010
0000
0001
0100
0010
0000
,
1000
0010
0100
0001
0010
1000
0010
0001
,
0100
0000
0001
0001
2000
0000
3200
0000
,
0310
0001
0010
0100
1000
0000
1100
0000
,
1000
0010
0100
0001
0010
0000
0010
0001
,
0100
1000
0100
0001
1000
1000
0100
0000
,
1100
0000
0010
0001
0201
0000
2300
0000
,
3100
0000
0010
1000
0100
0010
0100
0000
,
1000
0100
0010
0000
0010
0100
1000
0000
,
1000
0010
0100
0001
0010
0001
0100
0000
,
0101
0000
1000
0010
0210
0000
0302
0000
,
0013
0100
0010
0000
0001
0100
0001
0000
,
1000
0100
0010
0000
0010
0100
1000
0000
,
1000
0010
0100
0001
0010
0100
1000
0000
,
1100
0000
0000
0000
;
