#TITLE:OUTBREAK;
#SUBTITLE:;
#ARTIST:USAO;
#TITLETRANSLIT:;
#SUBTITLETRANSLIT:;
#ARTISTTRANSLIT:;
#CREDIT:Grithokskulk;
#BANNER:OUTBREAK.png;
#BACKGROUND:OUTBREAK-bg.png;
#LYRICSPATH:;
#CDTITLE:beatmania IIDX.png;
#MUSIC:OUTBREAK.mp3;
#OFFSET:-10.852;
#SAMPLESTART:89.575;
#SAMPLELENGTH:15.000;
#SELECTABLE:YES;
#BPMS:0.000=195.000;
#STOPS:;
#BGCHANGES:;

//---------------dance-single - ----------------
#NOTES:
     dance-single:
     :
     Easy:
     4:
     0.273,0.275,0.016,0.047,0.000: // measure 1
0001
0000
0001
0000
,  // measure 2
0001
0010
0001
0000
,  // measure 3
0100
0000
0100
0000
,  // measure 4
0100
0010
0100
0000
,  // measure 5
0001
0000
0010
0000
,  // measure 6
0100
0000
0010
0000
,  // measure 7
0001
0100
0010
0100
,  // measure 8
0002
0000
0003
0000
,  // measure 9
1000
0000
1000
0000
,  // measure 10
1000
0100
1000
0000
,  // measure 11
0001
0000
0001
0000
,  // measure 12
0001
0100
0001
0000
,  // measure 13
1000
0000
1000
0000
,  // measure 14
1000
0010
1000
0000
,  // measure 15
0001
0010
0001
0010
,  // measure 16
0002
0000
0003
0000
,  // measure 17
0100
0100
0100
0000
,  // measure 18
0010
0010
0010
0000
,  // measure 19
0100
0000
0001
0000
,  // measure 20
1000
0100
1000
0000
,  // measure 21
0100
0100
0100
0000
,  // measure 22
0010
0010
0010
0000
,  // measure 23
0100
0000
1000
0000
,  // measure 24
0001
0100
0001
0000
,  // measure 25
0010
0010
0100
0000
,  // measure 26
0010
0010
0001
0000
,  // measure 27
1000
0000
0010
0000
,  // measure 28
0100
0010
0100
0000
,  // measure 29
0001
0001
0001
0000
,  // measure 30
1000
1000
1000
0000
,  // measure 31
0100
0000
0010
0000
,  // measure 32
0002
0000
0003
0000
,  // measure 33
1000
1000
1000
0000
,  // measure 34
0100
0100
0100
0000
,  // measure 35
0010
0000
0100
0000
,  // measure 36
1000
0001
1000
0000
,  // measure 37
0001
0001
0001
0000
,  // measure 38
0100
0100
0100
0000
,  // measure 39
0010
0000
0100
0000
,  // measure 40
0001
0010
0001
0000
,  // measure 41
0010
0010
0010
0010
,  // measure 42
0010
0010
0010
0000
,  // measure 43
0100
0100
0100
0100
,  // measure 44
0100
0100
0100
0000
,  // measure 45
1000
1000
1000
1000
,  // measure 46
1000
1000
1000
0000
,  // measure 47
0001
0001
0001
0001
,  // measure 48
0002
0000
0003
0000
,  // measure 49
0100
0000
0000
0000
,  // measure 50
0000
0000
0000
0000
,  // measure 51
0010
0000
0000
0000
,  // measure 52
1000
0000
0000
0000
,  // measure 53
0100
0000
0100
0000
,  // measure 54
0100
0010
0100
0000
,  // measure 55
1000
0000
1000
0000
,  // measure 56
0002
0000
0003
0000
,  // measure 57
0100
0100
0100
0000
,  // measure 58
0001
0001
0001
0000
,  // measure 59
0010
0010
0010
0000
,  // measure 60
0001
0001
0001
0000
,  // measure 61
0100
0100
0010
0000
,  // measure 62
0100
0100
0001
0000
,  // measure 63
0100
0100
1000
0000
,  // measure 64
0200
0000
0300
0000
,  // measure 65
0001
0010
0001
0000
,  // measure 66
1000
0010
1000
0000
,  // measure 67
0001
0010
0100
1000
,  // measure 68
0100
0000
0110
0000
,  // measure 69
1000
1000
1000
0000
,  // measure 70
0001
0001
0001
0000
,  // measure 71
0100
0010
0100
0001
,  // measure 72
0100
0010
1000
0000
,  // measure 73
0100
0010
0100
0000
,  // measure 74
1000
0001
1000
0000
,  // measure 75
0001
0100
0010
1000
,  // measure 76
0010
0100
0001
0000
,  // measure 77
1000
0100
1000
0000
,  // measure 78
0001
0100
0001
0000
,  // measure 79
0010
0001
0100
0010
,  // measure 80
1000
0100
0010
0000
,  // measure 81
0001
0001
0001
0000
,  // measure 82
0100
0100
0100
0000
,  // measure 83
0010
0100
0001
0100
,  // measure 84
0010
1000
0100
0000
,  // measure 85
0010
0000
0010
0000
,  // measure 86
0100
0010
0100
0000
,  // measure 87
1000
0000
0001
0000
,  // measure 88
0100
0010
0010
0000
,  // measure 89
1001
0000
0000
0000
;

//---------------dance-single - ----------------
#NOTES:
     dance-single:
     :
     Medium:
     6:
     0.462,0.516,0.117,0.094,0.000:
1000
0000
0000
1000
0010
0000
0100
0000
,
0010
0000
1000
0010
1000
0000
0000
0000
,
0001
0000
0000
0001
0010
0000
0001
0000
,
1000
0000
0010
0100
0010
0000
0000
0000
,
0100
0100
0001
0001
,
0010
0010
0100
0100
,
0010
0100
0010
0000
1000
0001
1000
0000
,
0220
0000
0330
0000
,
0001
0000
0000
0001
0100
0000
0001
0000
,
0010
0000
0100
1000
0100
0000
0010
0001
,
0010
0000
0000
0010
0001
0000
0100
0000
,
0010
0000
0100
0001
0100
0000
0001
1000
,
0001
0001
1000
1000
,
0100
0100
0010
0010
,
0100
1000
0100
0000
0001
0100
0001
0000
,
2000
0000
0000
3001
,
0010
0000
0001
0000
0100
0010
0100
0000
,
0010
1000
0100
0100
,
0010
0000
0100
0000
1000
0001
1000
0000
,
0001
0100
0001
0010
0001
0000
0000
0000
,
1000
0000
0100
0000
0010
0100
0010
0000
,
0100
0000
1000
0010
1000
0000
0001
0000
,
0100
0010
0100
0000
0001
1000
0001
0000
,
0020
0000
0100
0130
,
0010
0000
0001
0000
0100
0010
0100
0000
,
0001
0000
1000
0000
0100
1000
0100
0000
,
1000
0000
0010
0000
0100
0010
0100
0000
,
0001
1000
0001
0000
0010
0000
0000
0000
,
0100
0000
0010
0000
0001
1000
0001
0000
,
0100
0000
0010
0000
1000
0100
1000
0000
,
0001
0100
0001
0000
1000
0010
1000
0000
,
0002
0000
1000
0000
,
1003
0100
0010
0100
,
1000
0010
0100
0010
,
1000
0001
0010
0001
,
0100
0000
0010
0000
0100
0001
0100
0000
,
0001
0010
0100
0010
,
0001
1000
0001
0000
1000
0000
0100
0000
,
0010
0000
0100
0000
1000
0010
1000
0000
,
0020
0100
0130
0000
,
0001
0010
0100
0010
,
0001
0000
0100
0001
0100
0000
0010
0000
,
1000
0100
0010
0100
,
1000
0000
0010
0100
0010
0000
1000
0000
,
0001
0010
0100
0010
,
0001
0000
0100
0010
0100
0000
0001
0000
,
1000
0100
0010
0100
,
1000
0000
0010
0100
0010
0000
1000
0000
,
1001
0000
0000
0000
,
0000
0000
0000
0000
,
0001
0000
0010
0000
,
0100
0000
0010
0000
,
0001
0000
0000
0001
0100
0000
0010
0000
,
0100
0000
0001
1000
0001
0000
1000
0000
,
0100
0000
0000
0100
1000
0000
0010
0000
,
0200
0000
0010
0000
,
0310
0100
0010
0100
,
0001
0000
0010
0100
0010
0000
0001
0100
,
0010
1000
0100
0001
,
0100
0000
0010
0100
1000
0000
0010
0100
,
0010
1000
0001
0010
,
0001
0100
0010
0100
,
0001
1000
0001
0000
1000
0100
1000
0000
,
0020
0000
0000
0130
,
0110
0101
0110
1000
,
1100
1010
1100
0010
,
0100
1000
0100
0000
0010
0001
0010
0000
,
0002
0100
0103
0000
,
0101
0110
0101
1000
,
1100
0110
1100
0010
,
0100
1000
0010
0000
0100
0001
0010
0000
,
0200
0000
0010
0310
,
0100
0010
0100
1000
,
0100
0001
0010
0000
1000
0010
0001
0000
,
0100
0000
0010
0000
1000
0100
0010
0000
,
0100
0000
1000
0001
0100
0000
0001
0000
,
0010
0100
0010
0000
0001
0000
0100
0000
,
0010
1000
0100
0000
0001
0000
0100
0000
,
1000
0010
0100
0000
0001
0010
0100
0000
,
2000
0010
0100
3010
,
0100
0010
0100
0000
0001
0010
0001
0000
,
1000
0100
1000
0000
0010
0000
0100
0000
,
0001
1000
0001
0000
0010
0100
0010
0000
,
0001
0010
0100
0000
0010
0000
0001
0000
,
0100
0000
0010
0100
0001
0000
1000
0100
,
0010
0000
0100
1000
0010
0000
0100
0001
,
0010
0000
0001
0100
0010
0000
1000
0100
,
0020
0100
1000
0031
,
1001
0000
0000
0000
;

//---------------dance-single - ----------------
#NOTES:
     dance-single:
     :
     Hard:
     8:
     0.633,0.584,0.305,0.125,0.000:
1000
0000
0000
1000
0100
0000
1000
0000
,
0010
0000
0100
0001
0010
0000
0100
1000
,
0010
0000
0000
0010
0100
0000
0001
0000
,
1000
0000
0001
0010
1000
0000
0001
0100
,
0010
0100
0010
0001
,
0100
0010
0100
0001
,
1000
0100
1000
0000
0001
0100
0001
0000
,
0020
0000
0100
0100
0100
0000
0130
0000
,
0010
0000
0000
0010
0001
0000
0100
0000
,
0010
0000
0100
0001
0010
0000
0100
1000
,
0010
0000
0000
0010
1000
0000
0100
0000
,
0010
0000
0001
0100
1000
0000
0001
0010
,
1000
0000
0100
0010
0100
0000
1000
0000
,
0001
0000
0100
0001
0100
0000
0010
0000
,
1000
0010
0100
0010
1000
0100
0001
0100
,
0020
0000
0001
0031
,
0100
0010
0100
0001
0100
0010
0100
0000
,
0001
0010
0001
1000
0001
0100
0001
0000
,
1000
0100
1000
0000
0001
0100
0001
0000
,
1000
0010
0001
0010
0100
0000
0101
0000
,
1000
0100
0001
0100
0010
0100
1000
0000
,
0010
0100
0010
1000
0010
0001
0010
0000
,
0100
0001
0010
0000
0100
1000
0010
0000
,
0210
1000
0001
0310
,
0100
0001
0010
0000
0100
1000
0010
0000
,
1000
0010
0001
0010
1000
0100
0010
0000
,
0100
1000
0001
0000
0010
1000
0010
0000
,
0001
0100
0010
1000
0100
0001
0100
0000
,
0010
0001
0010
0000
0001
0100
0001
0000
,
0100
1000
0100
0010
1000
0100
0010
0000
,
0100
1000
0010
0000
0100
0001
0010
0000
,
0200
0001
0010
1300
,
0110
0011
1100
0011
,
0001
0100
0010
0000
0101
0000
1010
0000
,
1000
0100
0001
0000
0001
0100
1000
0000
,
1020
0001
0100
1030
,
0001
0010
0100
0000
0010
0001
0100
0000
,
1000
0100
0010
1000
0100
0010
0100
0000
,
2100
0001
0010
3100
,
0012
0100
0010
1003
,
0001
0100
1000
0100
0010
1000
0100
0001
,
0100
0010
0001
0100
1000
0100
0010
0000
,
1000
0100
0001
0100
0010
1000
0010
0001
,
0100
0000
0010
1000
0100
0001
0100
0000
,
0010
0001
0100
0001
1000
0001
0100
0001
,
0010
0000
0100
1000
0010
0001
0010
0000
,
0100
0010
1000
0010
0001
0010
0100
0010
,
2000
0100
0001
3010
,
0120
0100
1000
1000
,
0001
0001
0100
0130
,
0100
0001
0010
0200
0000
0000
0310
0000
,
0010
0001
0100
0020
0000
0000
1030
0000
,
1100
0000
0000
1000
0001
0000
0100
0000
,
0110
0000
0001
0100
0010
0000
0100
0001
,
1000
0000
0000
1000
0100
0000
0001
0000
,
0200
0000
0010
0010
0010
0000
1300
0000
,
0110
1010
0110
1010
,
0110
0000
1000
0100
0001
0000
0001
0100
,
0110
1100
0110
1100
,
0110
0000
0100
1000
0010
0000
0100
0001
,
0011
0101
0011
0101
,
1010
1100
1010
1100
,
1000
0010
0001
0010
1000
0100
0001
0100
,
0020
0000
0000
0000
0000
0100
0130
0000
,
0010
0001
0010
1000
0010
0001
0010
0100
,
0010
0001
0010
1000
0010
0001
0010
0100
,
1000
0010
0100
0000
0100
1000
0100
0000
,
0100
0001
1000
0100
0010
0000
0011
0000
,
0100
1000
0100
0010
0100
0001
0100
1000
,
0100
0010
0100
0001
0100
0010
0100
1000
,
0010
0100
0001
0000
0010
0100
0010
0000
,
1002
0010
0100
1003
,
0010
1000
0010
0001
0010
0100
0010
1000
,
0010
0100
0010
1000
0010
0001
0010
0100
,
0001
0010
0100
0000
0001
0100
1000
0000
,
0010
0100
0001
0010
0100
0000
1100
0000
,
0001
0100
1000
0100
0010
0100
0001
0100
,
1000
0100
0010
0100
0001
0100
0010
0100
,
0001
0010
0100
0000
0001
0100
1000
0000
,
0010
0100
1000
0100
0001
0000
1001
0000
,
1000
0010
0100
0010
1000
0010
0001
0010
,
0100
0010
1000
0010
0001
0010
0100
0010
,
1000
0100
0001
0100
0010
0001
0100
0010
,
2000
0100
0010
3001
,
0010
0000
0001
0100
0010
0000
0101
0000
,
1010
0000
1000
0100
0001
0000
0001
0100
,
1000
0010
0001
0010
0100
0001
0010
1000
,
0020
0100
0001
1030
,
1001
0000
0000
0000
;
