#TITLE:NZM;
#SUBTITLE:;
#ARTIST:The 4th;
#TITLETRANSLIT:;
#SUBTITLETRANSLIT:;
#ARTISTTRANSLIT:;
#CREDIT:Grithokskulk;
#BANNER:NZM.png;
#BACKGROUND:NZM-bg.png;
#LYRICSPATH:;
#CDTITLE:beatmania IIDX.png;
#MUSIC:NZM.mp3;
#OFFSET:-0.028;
#SAMPLESTART:17.635;
#SAMPLELENGTH:15.000;
#SELECTABLE:YES;
#BPMS:0.000=190.000,152.000=95.000,156.000=190.000;
#STOPS:;
#BGCHANGES:0.000=NZM.avi=1.000=1=1=0,
99999=-nosongbg-=1.000=0=0=0 // don't automatically add -songbackground-
;

//---------------dance-single - ----------------
#NOTES:
     dance-single:
     :
     Easy:
     4:
     0.308,0.331,0.137,0.355,0.000:
0000
0000
0000
0000
,
1000
1000
1000
0000
,
0010
0100
0010
0000
,
0001
0001
0001
0000
,
0010
0100
0100
2000
,
0000
0000
0000
3000
,
0001
0100
0001
0000
,
1000
0100
1000
0000
,
0001
0010
0001
0000
,
1000
0010
1000
0000
,
0010
0000
0100
0000
,
0001
0000
1000
0000
,
0100
0100
0010
0010
,
0001
0000
1001
0000
,
1000
0100
1000
0000
,
0001
0100
0001
0000
,
1000
0010
1000
0000
,
0002
0003
0020
0030
,
0100
0010
0100
0000
,
1000
0010
1000
0000
,
0001
0010
0001
0000
,
0200
0300
0020
0030
,
0100
0001
1000
0000
,
0100
1000
0001
0000
,
0010
0001
1000
0000
,
0100
1000
0100
0000
,
0001
0100
0010
0000
,
1000
0001
0010
0000
,
0001
1000
0001
0000
,
1000
0100
0010
0100
,
2000
0000
0000
3000
,
0020
0030
0200
0300
,
0002
0000
0000
0003
,
0010
0010
0010
0000
,
0200
0000
0000
0300
,
0020
0030
0002
0003
,
2000
0000
0000
3000
,
0010
0100
0001
0000
,
1001
0000
0000
0000
,
2000
0000
0000
3000
,
0200
0000
0000
0300
,
0020
0000
0000
0030
,
0200
0000
0000
0300
,
2000
0000
0000
3000
,
0002
0000
0000
0003
,
0200
0300
0020
0030
,
0200
0300
0002
0003
,
0020
0000
0000
0030
,
0200
0000
0000
0300
,
0020
0000
0000
0030
,
0002
0000
0000
0003
,
2000
0000
0000
3000
,
0020
0030
0200
0300
,
0002
0003
2000
3000
,
0200
0000
0000
0300
,
0110
0000
0110
0000
,
1001
0000
1001
0000
,
0220
0000
0000
0000
,
0330
0000
0000
0000
,
0100
0001
0100
0001
,
1000
1000
0100
0000
,
0010
0100
1000
0010
,
0100
0100
0010
0000
,
1000
0001
0010
0001
,
1000
1000
0010
0000
,
0100
0001
0010
0001
,
0100
0100
0010
0000
,
0100
0100
0001
0001
,
0010
0001
0100
0001
,
1000
1000
0100
0100
,
1000
0010
0100
0000
,
0010
0010
1000
1000
,
0001
0010
0001
0100
,
0010
0010
0100
0100
,
0001
1000
1001
0000
,
1000
0000
1001
0000
,
0001
0000
1001
0000
,
1000
0000
0110
0000
,
0001
0000
0110
0000
,
1000
0000
1010
0000
,
0001
0000
0011
0000
,
1000
0000
1100
0000
,
0001
0000
0101
0000
,
0020
0000
0000
0030
,
0200
0000
0000
0300
,
0002
0000
0000
0003
,
0020
0030
0200
0300
,
0020
0000
0000
0030
,
0002
0003
0200
0300
,
0020
0000
0000
0000
,
0000
0000
0000
0030
,
1001
0000
0000
0000
;

//---------------dance-single - ----------------
#NOTES:
     dance-single:
     :
     Medium:
     6:
     0.491,0.551,0.355,0.234,0.000:
0000
0000
0000
0000
,
1000
0000
1000
0000
1000
0100
0000
0000
,
0001
0010
0100
0010
0001
0000
0000
0000
,
1000
0100
0010
0001
0010
0000
0000
0000
,
0001
0000
0010
0100
1000
0000
0020
0000
,
0000
0000
0000
0030
,
0000
0100
0000
0100
0000
0100
0000
0100
,
0000
0100
0000
0100
0000
0100
0001
0010
,
0000
0100
0000
0100
0000
0100
0000
0100
,
0000
0100
0000
0100
0000
0100
0010
0001
,
0000
1000
0010
1000
0000
0001
0010
0001
,
0000
1000
0100
1000
0000
0001
0100
0001
,
0010
0000
0100
0000
1000
0010
1000
0000
,
0001
0100
0001
0000
1000
1000
1000
0000
,
0001
0000
0010
0100
0010
0000
0001
0000
,
0100
0000
0010
0100
0010
0000
1000
0000
,
0001
0000
0010
0100
0010
0000
1000
0000
,
0100
1000
0100
0000
1000
0000
0010
0000
,
0100
0000
0001
0010
0001
0000
0010
0000
,
0100
0010
0100
0000
0010
0000
0001
0000
,
0100
0010
0100
0000
0001
1000
0001
0000
,
2000
3200
0320
0032
,
0103
0000
0010
0100
0010
0000
0100
0000
,
0001
0000
1000
0100
1000
0000
0001
0000
,
0100
0000
0010
0100
0010
0000
0100
0000
,
0001
1000
0001
0000
1000
0000
0100
0000
,
0010
0000
0100
1000
0100
0000
1000
0000
,
0010
0100
0010
0000
0100
0000
0001
0000
,
1000
0100
1000
0000
0001
0100
0001
0000
,
0010
0001
0010
0000
0001
0000
0100
0000
,
0020
0000
0000
0000
,
0230
0000
0302
0023
,
0230
0000
0010
0000
,
0310
0001
0100
0010
,
2000
0000
0000
0000
,
3200
0000
0320
0230
,
2300
0000
0010
0000
,
3001
0100
0010
0100
,
2002
0000
0000
3003
,
1000
0000
1010
0101
,
0011
0000
1001
0000
,
0110
0000
0101
1010
,
1100
0000
0011
0000
,
1001
0000
0110
0101
,
1010
0100
0011
0100
,
1001
0000
0110
0000
,
0011
0000
1000
0010
,
1001
0000
0011
1100
,
1010
0000
0011
0000
,
1001
0000
0010
0100
,
0101
0000
1001
0000
,
1100
0000
0001
0010
,
0110
0001
0110
1000
,
0110
0000
1001
0000
,
1100
0000
0000
0000
,
1001
0000
1001
0000
,
0110
0000
0110
0000
,
2002
0000
0000
0000
,
3003
0000
0000
0000
,
1000
0100
0010
0000
0100
0000
1000
0000
,
0001
0100
0010
0000
0100
0000
0001
0000
,
0010
0100
0010
0000
0001
1000
0001
0000
,
0100
0010
0100
0000
0001
0000
1001
0000
,
1000
0100
0010
0000
0100
0000
1000
0000
,
0010
0100
0010
0000
0100
0000
0001
0000
,
0010
0001
0100
0000
0010
1000
0100
0000
,
0020
0100
0100
0130
,
0010
0001
0010
0000
0001
0100
0001
0000
,
0100
0010
0100
0000
0010
0000
1001
0000
,
1000
0100
1000
0000
0010
1000
0010
0000
,
0100
0010
0100
0000
0010
0000
1001
0000
,
0001
0010
0001
0000
0010
0100
0010
0000
,
0100
0001
0100
0000
0001
0000
1001
0000
,
1000
0100
1000
0000
0010
0100
0010
0000
,
1000
0001
1000
0000
0001
0000
0011
0000
,
0001
0000
0001
0100
0001
0000
0100
0010
,
0100
0000
0010
1000
0010
0000
1000
0100
,
1000
0000
0100
0010
0100
0000
0010
0001
,
0010
0000
0001
0100
0001
0000
1001
0000
,
0001
0000
0001
0010
0001
0000
0010
0100
,
0010
0000
0100
1000
0100
0000
1000
0010
,
1000
0000
0010
0100
0010
0000
0100
0001
,
0100
0000
0001
0010
0001
0000
0010
0001
,
0020
0000
0000
0000
,
0230
0000
0000
0000
,
2300
0000
0000
0000
,
3020
0000
0230
0000
,
0320
0000
0000
0000
,
2030
0000
3200
0000
,
0320
0000
0000
0000
,
0000
0000
0000
0130
,
1001
0000
0000
0000
;

//---------------dance-single - ----------------
#NOTES:
     dance-single:
     :
     Hard:
     9:
     0.765,0.772,0.242,0.549,0.311: // measure 1
0000
0000
0000
0000
,  // measure 2
0100
0000
0100
0000
0100
0010
0010
0000
,  // measure 3
0100
0001
0010
1000
0010
0000
1001
0000
,  // measure 4
1000
0010
0001
0010
1000
0000
0001
0010
,  // measure 5
0100
0000
1000
0010
0100
0000
0020
0000
,  // measure 6
0000
0000
0000
0030
,  // measure 7
0100
0001
0010
0100
0000
0010
0001
0010
,  // measure 8
0000
0100
1000
0100
0000
1000
0010
1000
,  // measure 9
0001
0010
0100
1000
0000
0010
0100
0010
,  // measure 10
0000
1000
0001
1000
0000
0001
0010
0000
,  // measure 11
0100
0010
0001
0100
0000
0010
0100
0001
,  // measure 12
0000
1000
0100
0010
0000
0100
1000
0010
,  // measure 13
0100
0001
0100
0001
1000
0100
1000
0100
,  // measure 14
0010
0000
0100
0000
1000
0000
0010
0000
0000
0100
0000
0000
0110
0000
0000
0000
,  // measure 15
0100
0000
0001
0000
0010
0000
0100
0000
0010
0001
0000
0000
1000
0000
0010
0000
,  // measure 16
0100
0000
0010
0000
1000
0000
0100
0000
0010
0100
0000
0000
1000
0000
0010
0000
,  // measure 17
0001
0000
0010
0000
0100
0000
0001
0000
0010
0001
0000
0000
0100
0000
0010
0000
,  // measure 18
0100
0001
1000
0000
0100
0001
0100
0000
,  // measure 19
1000
0000
0010
0000
0100
0000
0010
0000
1000
0001
0000
0000
0010
0000
1000
0000
,  // measure 20
0010
0000
0001
0000
0100
0000
0010
0000
0100
0001
0000
0000
1000
0000
0100
0000
,  // measure 21
0010
0000
0100
0000
1000
0000
0010
0000
0100
0001
0000
0000
1000
0000
0100
0000
,  // measure 22
0020
0230
2300
3020
,  // measure 23
0130
0000
0001
0000
0010
0000
0001
0000
0100
0010
0000
0000
0100
0000
0001
0000
,  // measure 24
1000
0000
0100
0000
0001
0000
0100
0000
1000
0010
0000
0000
0100
0000
0010
0000
,  // measure 25
1000
0000
0010
0000
0001
0000
0010
0000
0100
0001
0000
0000
0010
0000
1000
0000
,  // measure 26
0010
0000
0100
0000
0100
0000
0000
0000
0010
0000
0001
0010
0001
0000
0000
0000
,  // measure 27
0010
0000
0100
0000
0010
0000
0001
0000
0100
0010
0000
0000
0100
0000
0001
0000
,  // measure 28
1000
0000
0100
0000
0001
0000
0100
0000
1000
0010
0000
0000
0100
0000
0010
0000
,  // measure 29
1000
0100
1000
0000
0001
0100
0001
0000
,  // measure 30
0010
0001
0010
0000
0001
0100
0010
1000
,  // measure 31
0200
0000
0010
0010
0320
0000
0000
0000
,  // measure 32
0230
0000
1000
1000
2300
0000
3020
0000
,  // measure 33
0230
0000
0001
0001
0302
0000
0000
0000
,  // measure 34
0013
0100
0010
0001
0100
1000
0100
0010
,  // measure 35
2000
0000
0100
0100
3200
0000
0000
0000
,  // measure 36
0320
0000
0100
0100
0230
0000
2300
0000
,  // measure 37
3020
0000
0100
0100
0230
0000
0302
0000
,  // measure 38
0013
0001
0100
1000
0100
0001
0010
1000
,  // measure 39
0020
0000
0000
0000
,  // measure 40
0130
0000
0100
1000
0000
1000
0010
0000
0010
0001
0000
0001
,  // measure 41
0020
0230
0302
0023
,  // measure 42
0130
0000
0100
0010
0000
0010
0001
0000
0001
0100
0000
0100
,  // measure 43
2000
3200
0320
2030
,  // measure 44
3100
0000
0100
0001
0000
0001
0100
0000
0100
1000
0000
1000
,  // measure 45
0020
0032
0023
1030
,  // measure 46
2100
3001
0102
1003
,  // measure 47
2010
3001
0011
1100
,  // measure 48
1010
0000
0010
0100
0010
1000
0100
0000
0010
0001
0100
0010
,  // measure 49
0200
0302
0023
0230
,  // measure 50
1300
0000
0010
0100
0010
1000
0001
0000
0010
0001
0100
0010
,  // measure 51
0200
0302
0023
0230
,  // measure 52
0310
0000
0001
0100
0010
0100
0001
0000
1000
0100
0001
0100
,  // measure 53
1000
0000
1000
0010
0100
0010
1000
0000
1000
0100
0001
0100
,  // measure 54
2000
3001
0200
0310
,  // measure 55
2000
3200
0320
0031
,  // measure 56
0102
0000
0100
0000
,  // measure 57
1000
0000
1000
0000
,  // measure 58
0023
0000
0000
0000
,  // measure 59
0200
0000
0000
0330
,  // measure 60
0001
0000
0010
0001
0000
0000
0100
0000
0010
0000
0100
0000
1000
0000
0100
0000
,  // measure 61
0010
0000
1000
0100
0000
0000
0001
0000
0100
0000
0010
0000
0001
0000
0100
0000
,  // measure 62
0010
0000
1000
0010
0000
0000
0001
0000
0010
0000
0100
0000
0001
0000
0010
0000
,  // measure 63
0100
0010
0100
0010
0100
0000
0000
0000
1000
0001
1000
0001
1000
0000
0000
0000
,  // measure 64
0001
0000
0010
0100
0000
0000
0010
0000
0001
0000
0100
0000
1000
0000
0100
0000
,  // measure 65
0010
0000
1000
0100
0000
0000
0001
0000
0100
0000
0010
0000
0001
0000
0010
0000
,  // measure 66
1000
0000
0010
0100
0000
0000
1000
0000
0010
0000
0001
0000
0010
0000
0100
0000
,  // measure 67
0101
1010
1100
0011
,  // measure 68
1000
0010
0110
1000
0100
0001
0101
0100
,  // measure 69
1000
0010
0110
0100
0001
1000
1001
0000
,  // measure 70
0001
0100
0110
0010
0100
0001
1001
1000
,  // measure 71
0100
0010
0100
0010
0100
0000
0000
0000
1000
0001
1000
0001
1000
0000
0000
0000
,  // measure 72
0001
0100
0110
0100
1000
0100
0110
0010
,  // measure 73
1000
0100
0110
0010
0001
1000
1001
0000
,  // measure 74
0001
0100
0110
0100
0001
0010
0110
0100
,  // measure 75
1100
1010
0110
0101
,  // measure 76
0001
0000
0000
0001
0010
0000
0000
0000
0001
0000
0000
0001
0100
0000
0000
0000
,  // measure 77
0001
0000
0000
0001
1000
0000
0000
0000
0100
0000
0000
0100
0010
0000
0100
0000
,  // measure 78
1000
0000
0000
1000
0100
0000
0000
0000
1000
0000
0000
1000
0001
0000
0000
0000
,  // measure 79
1000
0000
0000
1000
0010
0000
0000
0000
0001
0000
0010
0000
1000
0000
0100
0000
,  // measure 80
0001
0000
0000
0001
0100
0000
0000
0000
0100
0000
0000
0100
0010
0000
0000
0000
,  // measure 81
0010
0000
0000
0010
0001
0000
0000
0000
0001
0000
0000
0001
1000
0000
0000
0000
,  // measure 82
1000
0000
0000
1000
0010
0000
0000
0000
0010
0000
0000
0010
0100
0000
0000
0000
,  // measure 83
0100
0000
0000
0100
0001
0000
1000
0000
0100
0000
0010
0000
0001
0000
0100
0000
,  // measure 84
0020
0000
1000
1000
2030
0000
3200
0000
,  // measure 85
0320
0000
0100
0100
0230
0000
0320
0000
,  // measure 86
0032
0000
0100
0100
0203
0000
0320
0000
,  // measure 87
0230
0000
0001
0001
0302
0000
0010
0010
,  // measure 88
0023
0000
0100
0100
0230
0000
0320
0000
,  // measure 89
0032
0000
0100
0100
0203
0000
0320
0000
,  // measure 90
0130
0001
0100
0001
1000
0001
1000
0001
,  // measure 91
1000
0100
1000
0010
0100
0001
0010
0100
,  // measure 92
1001
0000
0000
0000
;
