#TITLE:NOW I KNOW;
#SUBTITLE:(Yuu Miyake Remix);
#ARTIST:Shihoko Hirata;
#TITLETRANSLIT:;
#SUBTITLETRANSLIT:;
#ARTISTTRANSLIT:;
#CREDIT:Grithokskulk;
#BANNER:NOW I KNOW (Yuu Miyake Remix)-bn.png;
#BACKGROUND:NOW I KNOW (Yuu Miyake Remix)-bg.png;
#LYRICSPATH:;
#CDTITLE:grithokskulk.png;
#MUSIC:NOW I KNOW (Yuu Miyake Remix).mp3;
#OFFSET:-6.695;
#SAMPLESTART:52.095;
#SAMPLELENGTH:15.000;
#SELECTABLE:YES;
#BPMS:0.000=145.000;
#STOPS:;
#BGCHANGES:;

//---------------dance-single - ----------------
#NOTES:
     dance-single:
     :
     Easy:
     3:
     0.234,0.263,0.018,0.290,0.000: // measure 1
1000
0000
0100
0000
,  // measure 2
0010
0010
0010
0000
,  // measure 3
0100
0000
1000
0000
,  // measure 4
0001
0001
0001
0000
,  // measure 5
0200
0000
0000
0000
,  // measure 6
0300
0010
0010
0000
,  // measure 7
2000
0000
3000
0000
,  // measure 8
0002
0000
0003
0000
,  // measure 9
0020
0000
0000
0000
,  // measure 10
0030
0100
0100
0000
,  // measure 11
2000
3000
0002
0003
,  // measure 12
0200
0000
0000
0300
,  // measure 13
0020
0000
0000
0000
,  // measure 14
0030
1000
1000
1000
,  // measure 15
0200
0000
0000
0300
,  // measure 16
0020
0000
0000
0030
,  // measure 17
0002
0000
0000
0000
,  // measure 18
0003
0100
0100
0100
,  // measure 19
0020
0030
0200
0300
,  // measure 20
2002
0000
0000
3003
,  // measure 21
2000
3000
0200
0300
,  // measure 22
0020
0000
0000
0030
,  // measure 23
0002
0003
0200
0300
,  // measure 24
0020
0000
0000
0030
,  // measure 25
2000
3000
1000
0000
,  // measure 26
0200
0300
0100
0000
,  // measure 27
0020
0000
0030
0010
,  // measure 28
0100
0000
0100
0100
,  // measure 29
2000
0000
3000
0000
,  // measure 30
0002
0003
0001
0000
,  // measure 31
0200
0300
0100
0000
,  // measure 32
0100
0100
0100
0000
,  // measure 33
0020
0030
0010
0000
,  // measure 34
2000
3000
1000
0000
,  // measure 35
0001
0001
0000
1000
,  // measure 36
1000
0000
0100
0000
,  // measure 37
0020
0030
0010
0000
,  // measure 38
0001
0001
0001
0000
,  // measure 39
0200
0300
0100
0000
,  // measure 40
0010
0010
0010
0000
,  // measure 41
2000
3000
1000
0000
,  // measure 42
0100
0100
0100
0000
,  // measure 43
1000
1000
0001
0001
,  // measure 44
0100
0000
0010
0010
,  // measure 45
1000
1000
1000
1000
,  // measure 46
1000
1000
1000
1000
,  // measure 47
1000
1000
1000
1000
,  // measure 48
1000
1000
1000
1000
,  // measure 49
0001
0001
0001
0001
,  // measure 50
0001
0001
0001
0001
,  // measure 51
1000
1000
1000
1000
,  // measure 52
1000
1000
1000
1000
,  // measure 53
0010
0010
0010
0010
,  // measure 54
0010
0010
0010
0010
,  // measure 55
0010
0010
0010
0010
,  // measure 56
0010
0010
0010
0010
,  // measure 57
0100
0100
0100
0100
,  // measure 58
0100
0100
0100
0100
,  // measure 59
0100
0100
0100
0100
,  // measure 60
0100
0100
0200
0300
,  // measure 61
1001
0000
0000
0000
;

//---------------dance-single - ----------------
#NOTES:
     dance-single:
     :
     Medium:
     5:
     0.313,0.395,0.149,0.342,0.000:
1000
0000
0000
1000
0100
0000
0000
0000
,
0010
0100
0110
0000
,
0010
0000
0001
0000
0100
0010
0100
0000
,
0002
0010
0103
0010
,
2000
0000
0000
0000
,
0000
0100
0100
3100
,
0200
0000
0000
0000
,
0310
0001
0100
0000
,
0020
0000
0000
0000
,
0000
1000
1030
0000
,
0100
0000
0000
0010
0000
0000
0100
0000
,
0001
0010
0100
1000
,
1002
0000
0000
0000
,
0000
0010
0013
0000
,
0002
0000
0000
0000
,
0103
0000
0010
0000
1000
0100
1000
0000
,
0020
0000
0000
0000
,
0000
0100
0130
0000
,
0001
1000
0001
1000
0000
0001
0000
0001
,
0000
0001
2000
0000
0000
0000
3000
0000
,
2200
3300
0022
0033
,
0202
0000
0303
0000
,
0220
0330
2020
3030
,
2200
0000
3300
0000
,
0010
0000
0000
0010
0000
0100
0000
0000
,
1000
0000
0000
1000
0000
0001
0000
0000
,
0220
0000
0330
0000
0000
1000
0001
2000
,
0000
3000
0001
0001
,
2002
0000
3003
0000
,
0100
0000
0100
0000
0100
0010
1000
0000
,
2200
0000
0000
0000
3300
0000
0000
0010
,
0000
0000
0100
0000
0100
0010
0100
0000
,
2200
0000
3300
0000
,
0001
0100
0010
0000
0100
0000
0000
0000
,
0001
1000
0001
0000
0000
0020
0000
0200
,
0000
0000
0330
0000
,
2002
0000
0000
0000
3003
0000
0000
0010
,
0000
0010
0100
0000
0010
0000
0001
0000
,
0220
0000
0000
0000
0330
1000
0000
0002
,
0000
0000
0003
0000
,
0200
0000
0000
0000
0310
0000
0100
0001
,
0000
1000
0001
2000
0000
0000
3000
0000
,
0100
0100
0100
0100
,
0020
0000
0100
0130
,
1100
1000
0100
1000
,
0100
1000
0100
1000
,
0100
1000
0100
1000
,
0100
1000
0100
1000
,
0001
0100
0001
0100
,
0001
0100
0001
0100
,
0010
0100
0010
0100
,
0010
0100
0010
0100
,
0010
1000
0010
0000
1000
0000
1000
0000
,
0001
0010
0001
0000
0010
0000
0010
0000
,
1000
0100
1000
0000
0100
0000
0100
0000
,
0001
0100
0001
0000
0100
0000
0100
0000
,
0001
1000
0001
1000
0001
1000
0001
0000
,
0010
0100
0010
0100
0010
0100
0010
0000
,
0001
0010
0001
0000
1000
0010
1000
0000
,
0010
0100
0010
0000
0100
0000
1001
0000
,
0110
0000
0000
0000
;

//---------------dance-single - ----------------
#NOTES:
     dance-single:
     :
     Hard:
     7:
     0.495,0.526,0.518,0.553,0.000:
1000
0100
0000
0010
0100
0010
0000
1000
,
0100
0001
0100
1000
0020
0000
0130
0000
,
0002
2003
0100
3001
,
0020
0000
1000
0000
0031
0100
0000
0010
,
2002
0000
0000
0000
,
0003
0010
0100
3001
,
0220
0000
0000
0000
0000
0300
0000
1000
,
0000
0100
0000
1000
0000
0100
0130
0000
,
0202
0000
0000
0000
,
0003
1000
0010
0301
,
1000
0100
0010
0100
0000
1000
0000
1000
,
0000
0010
0020
0000
0100
0000
0130
0000
,
2020
0000
0000
0000
,
0030
0100
0001
3010
,
0220
0000
0000
0000
0030
0000
0010
0010
,
0000
0001
0000
1000
0000
0001
0301
0000
,
2002
0000
0000
0000
,
0003
0100
0010
3100
,
1100
0100
0010
0001
0000
0101
0000
1010
,
0000
1000
0200
0000
0310
0000
0110
0000
,
2200
0000
3300
0000
0021
0002
0033
0000
,
0202
0000
0303
0000
2010
0020
3030
0000
,
2200
0000
3300
0000
0210
0020
0330
0000
,
2002
0000
3003
0000
0102
0200
0303
0000
,
0220
0000
0330
1000
0100
0010
0001
0000
,
2002
0000
3003
0001
0010
1000
0010
0001
,
0202
0000
0303
0000
0010
0110
0000
2020
,
0000
3030
2001
3100
,
2002
0000
3003
0100
0010
1000
0100
0010
,
0100
0000
0100
0000
0110
0010
0001
0000
,
0101
0000
0010
1000
0000
1000
0100
1100
,
0000
1000
0200
0000
0010
0000
0310
0000
,
0220
0000
0330
0100
1000
0010
0100
0001
,
0202
0000
0303
1000
0100
0000
0100
0000
,
0110
0110
0110
0000
1000
1001
0000
0210
,
0000
0010
0310
0000
1000
0100
0010
0000
,
0220
0000
0330
0100
1000
0000
0001
0100
,
0110
0000
0110
0000
1010
0010
0100
0001
,
0022
0000
0033
0000
0100
1000
0000
2010
,
0000
0010
3010
0000
0200
0000
1300
0000
,
0202
0000
0303
1000
1000
0000
0100
0000
,
0110
0110
2100
3010
,
0210
0010
1000
0301
,
2002
0000
3003
0000
0100
0010
0100
0000
,
1100
1100
1100
1100
,
1100
1100
1100
1100
,
1000
0100
0010
0000
1000
0100
0010
0000
,
1000
0100
0010
0000
1000
0100
0010
0000
,
1000
0010
0001
0000
1000
0010
0001
0000
,
1000
0010
0001
0000
1000
0010
0001
0000
,
1000
0100
0001
0000
1000
0100
0001
0000
,
1000
0100
0001
0000
1000
0100
0001
0000
,
0010
0001
0100
0000
0010
0001
0100
0000
,
0010
0001
0100
0000
0010
0001
0100
0000
,
0010
0100
1000
0000
0010
0100
1000
0000
,
0010
0100
1000
0000
0010
0100
1000
0000
,
0010
0100
1000
1000
0001
0100
0010
0000
,
0010
0100
0001
0001
1000
0100
0010
0000
,
0001
1000
0010
0110
0010
1000
0100
1100
,
1000
0001
0100
0010
1000
0000
1010
0000
,
0101
0000
0000
0000
;
