#TITLE:NO LIMIT;
#SUBTITLE:-oretachi ni genkai wa nai-;
#ARTIST:SUPER STAR MITSURU vs. Legendary Dancer Mike;
#TITLETRANSLIT:;
#SUBTITLETRANSLIT:;
#ARTISTTRANSLIT:;
#CREDIT:Grithokskulk;
#BANNER:NO LIMIT -oretachi ni genkai wa nai-.png;
#BACKGROUND:NO LIMIT -oretachi ni genkai wa nai--bg.png;
#LYRICSPATH:;
#CDTITLE:beatmania IIDX.png;
#MUSIC:NO LIMIT -oretachi ni genkai wa nai-.mp3;
#OFFSET:0.101;
#SAMPLESTART:90.195;
#SAMPLELENGTH:15.000;
#SELECTABLE:YES;
#BPMS:0.000=150.000;
#STOPS:;
#BGCHANGES:;

//---------------dance-single - ----------------
#NOTES:
     dance-single:
     :
     Easy:
     5:
     0.324,0.548,0.277,0.168,0.000:
0000
0000
1000
0000
,
0001
0000
0100
0000
,
0010
0000
0100
0000
,
0001
0000
0010
0000
,
0100
0000
0010
0010
,
0010
0010
0100
0100
,
0100
0100
1000
0000
,
0001
0000
2002
0000
,
0000
3003
0100
0000
,
0100
0000
0100
0100
,
0100
0100
0001
0000
,
0001
0000
0001
0001
,
0001
0001
0010
0000
,
0010
0000
0010
0010
,
0010
0010
1000
0000
,
1000
0000
1000
1000
,
1000
1000
0100
0000
,
0100
0100
0000
0100
,
0100
0000
0001
0000
,
0001
0001
0000
0001
,
0001
0000
0010
0000
,
0010
0010
0000
0010
,
0010
0000
1000
0000
,
1000
1000
0000
1000
,
1000
0000
0200
0000
,
0302
0000
0023
0000
,
2030
0000
3020
0000
,
0032
0000
0203
0000
,
2300
0000
3200
0000
,
0302
0000
0023
0000
,
2030
0000
3020
0000
,
0032
0000
0203
0000
,
2300
0000
3100
0100
,
0100
0100
0001
0001
,
0001
0001
0010
0010
,
0010
0010
1000
1000
,
1000
1000
0100
0100
,
0100
0100
1000
1000
,
1000
1000
0010
0010
,
0010
0010
0002
0000
,
0000
0003
0100
0001
,
0010
1000
0100
0001
,
0010
1000
0010
0001
,
0100
1000
0010
0001
,
0100
0000
0100
0001
,
0010
1000
0100
0001
,
0010
1000
0010
0001
,
0100
1000
0010
0001
,
0100
0000
0001
0100
,
1000
0010
0001
0100
,
1000
0000
0100
0001
,
0010
1000
0100
0001
,
0010
0000
0001
0100
,
1000
0010
0001
0100
,
1000
0010
1000
0100
,
0001
0010
0100
0100
,
0100
0000
0110
0000
,
1001
0000
0110
0000
,
1001
0000
0110
0000
,
1001
0000
0110
0000
,
1001
0000
0100
0001
,
0010
0000
1000
0100
,
0001
0000
0100
1000
,
0010
0000
0001
0100
,
1000
0000
1001
1001
,
0110
0110
1001
1001
,
0110
0110
1001
1001
,
0110
0110
1001
1001
,
0110
0110
1001
1001
,
0110
0110
1001
1001
,
0110
0110
1000
0100
,
0001
0010
2000
0000
,
0000
0000
3001
0000
;

//---------------dance-single - ----------------
#NOTES:
     dance-single:
     :
     Medium:
     6:
     0.480,0.487,0.176,0.327,0.000:
0000
0000
2100
0000
,
3020
0000
0032
0000
,
0203
0000
0302
0000
,
0023
0000
2030
0000
,
3200
0000
0310
0100
,
1000
0001
1000
0000
0010
0000
0100
0000
,
0001
0010
0001
0000
1000
0010
1000
0000
,
0001
0010
0001
0000
0220
0000
0000
0000
,
0000
0000
0330
0000
1001
0000
0100
0010
,
0100
0000
0001
0010
0001
0000
1000
0000
,
0100
0000
0010
0010
0100
0000
1000
0010
,
1000
0000
0001
0010
0001
0000
0100
0000
,
0010
0000
0100
0100
0001
0000
1000
0010
,
1000
0000
0100
1000
0100
0000
0010
0000
,
0100
0000
1000
0000
0010
0000
0100
0010
,
0100
0000
0001
0010
0001
0000
0010
0000
,
0100
0100
0100
0000
0010
0000
0001
0100
,
0001
0000
1000
0010
1000
0000
0100
0000
,
0010
0000
0100
0000
1000
0000
0010
0100
,
0010
0000
0100
0001
0100
0000
0001
0000
,
0010
0100
0010
0000
0001
0000
0100
0010
,
0100
0000
0001
1000
0001
0000
0010
0000
,
0100
1000
0100
0000
1000
0010
1000
0000
,
0001
0010
0001
0000
0200
0000
0010
0000
,
0020
0330
0002
0000
,
0023
0000
2030
0000
,
3200
0000
0302
0000
,
0023
0000
0100
0001
,
0200
0330
0200
0000
,
0302
0000
0023
0000
,
2030
0000
3200
0000
,
0302
0000
0203
0000
,
1000
0310
0110
1001
,
0010
0100
0010
0000
0011
0000
1100
0000
,
0010
0100
0010
0000
1010
0000
0000
0000
,
0101
0000
0020
1000
,
0001
0000
0130
0000
1000
0001
1000
0000
,
0001
0100
0001
0000
0010
0001
0010
0000
,
0100
1000
0100
0000
1000
0010
1000
0010
,
0100
0001
0100
0001
0020
0000
0000
0000
,
0000
0000
0030
0000
0100
0000
0010
0001
,
0100
0000
0100
0010
1000
0000
0100
1000
,
0100
1000
0100
0000
0010
0000
0001
0100
,
0001
0000
1000
0100
1000
0000
0010
0100
,
0001
0100
0010
0000
1000
0000
0001
0010
,
0100
0000
0010
0001
0100
0000
0010
0100
,
0001
0100
0010
0000
1000
0000
0100
0010
,
0100
0000
1000
0001
1000
0000
0001
0010
,
0100
1000
0010
0000
0100
0000
0001
1000
,
0100
0000
0010
0001
0100
0000
0010
0100
,
0001
1000
0100
0000
1000
0000
0010
0100
,
0001
0000
0010
0100
0010
0000
0100
1000
,
0010
0100
0001
0000
0010
0000
0001
0100
,
0010
0000
0100
0001
0010
0000
0100
0010
,
0001
0100
1000
0000
0100
0000
0010
1000
,
0100
0000
0010
0100
2000
0000
3002
0000
,
0023
0000
0230
0000
0310
0001
0100
0010
,
0200
0301
0020
0130
,
2000
0000
3001
0000
0100
0010
0100
0001
,
1000
1100
0012
0100
,
0010
0000
1003
0000
0100
0010
0100
0000
,
0001
1000
0200
0001
,
1000
0000
0310
0000
0001
0100
0010
0000
,
0100
0001
2001
0100
,
0010
3001
1001
0110
,
1000
0001
1000
0000
1100
0000
0011
0000
,
0100
0001
0100
0000
1010
0000
1100
0000
,
0001
1000
0001
0000
0011
0000
0101
0000
,
0110
0000
0000
0000
1000
0100
1000
0100
,
0010
0100
0010
0000
0001
0010
0001
0010
,
0001
0100
0001
0000
1000
0100
0010
0001
,
1000
0100
0010
0001
0200
0000
0000
0000
,
0000
0000
0010
0010
0310
0000
0000
0000
;

//---------------dance-single - ----------------
#NOTES:
     dance-single:
     :
     Hard:
     8:
     0.631,0.609,0.311,0.319,0.306: // measure 1
0000
0000
0002
0000
,  // measure 2
0020
0003
2000
0030
,  // measure 3
0200
3000
0002
0300
,  // measure 4
0020
0003
2000
0030
,  // measure 5
0200
0000
3300
0000
0010
0001
0100
0010
,  // measure 6
0100
0100
0100
0000
0001
1000
0100
0001
,  // measure 7
0100
0100
0100
0000
0011
0000
0000
0000
,  // measure 8
1100
0000
0000
0000
0010
0100
0010
0100
,  // measure 9
0010
0010
0110
0000
1001
0000
1000
0100
,  // measure 10
0010
0000
0000
0010
0100
0000
0010
0000
0001
0000
0000
0001
1000
0000
0002
0000
,  // measure 11
0000
0100
0100
0103
0010
0100
0010
0010
,  // measure 12
1000
0000
0000
1000
0100
0000
0010
0000
0100
0000
0000
0100
0010
0000
0002
0000
,  // measure 13
0000
0100
0100
0103
0001
0010
1000
0010
,  // measure 14
0001
0000
0000
0001
1000
0000
0010
0000
0100
0000
0000
0100
1000
0000
0200
0000
,  // measure 15
0000
0010
0010
0310
0001
0010
0010
0001
,  // measure 16
0010
0000
0000
0010
0100
0000
0001
0000
0100
0000
0000
0100
1000
0000
0020
0000
,  // measure 17
0000
0000
0100
0000
0100
0000
0130
0000
0010
0100
0010
0000
0100
0000
0001
0000
,  // measure 18
1000
0000
0000
1000
0100
0000
0010
0000
0100
0000
0000
0100
1000
0000
0020
0000
,  // measure 19
0000
0000
0100
0000
0100
0000
0130
0000
0001
0010
0001
0000
0100
0000
0010
0000
,  // measure 20
0100
0000
0000
0100
0001
0000
0010
0000
0100
0000
0000
0100
0010
0000
0002
0000
,  // measure 21
0000
0000
1000
0000
1000
0000
1003
0000
0010
0000
0100
0010
0100
0000
0010
0000
,  // measure 22
1000
0000
0000
1000
0100
0000
0001
0000
0100
0000
0000
0100
0010
0000
0002
0000
,  // measure 23
0000
0000
0100
0000
0100
0000
0103
0000
0010
0100
0010
0000
0100
0000
0100
0000
,  // measure 24
0001
0000
0000
0001
0010
0000
0100
0000
0010
0000
0000
0010
0000
0000
0010
0000
,  // measure 25
0000
0010
0000
0000
0110
0000
0000
0000
0200
0000
0000
0000
0000
0000
0000
0000
,  // measure 26
0002
0300
0020
0003
,  // measure 27
2000
0030
0200
3000
,  // measure 28
0002
0300
0020
0003
,  // measure 29
2000
3030
0020
0000
,  // measure 30
0002
0030
0200
0003
,  // measure 31
2000
0300
0020
3000
,  // measure 32
0002
0030
0200
0003
,  // measure 33
2000
0000
3300
0000
0100
0010
1000
0100
,  // measure 34
0010
0010
0010
0000
0100
0010
0001
0100
,  // measure 35
0010
0000
0010
0000
0010
0000
0000
0000
1000
0000
0000
1000
0100
0000
0010
0000
,  // measure 36
0001
0000
0000
0001
0100
0000
0010
0000
1000
0000
1000
0000
0001
0000
0001
0000
,  // measure 37
1000
0001
1001
0000
0100
0010
0100
0010
,  // measure 38
0100
0001
0100
0001
0010
0001
0010
0001
,  // measure 39
0010
0100
0010
0100
1000
0100
1000
0100
,  // measure 40
1000
0001
1000
0001
2002
0000
0000
0000
,  // measure 41
3003
0000
0000
0000
1001
0000
1001
0000
1001
0000
0000
0001
0100
0000
0010
0000
,  // measure 42
0100
0000
0000
0100
0001
0000
0011
0000
0000
0000
0100
0000
0010
0100
0010
0000
,  // measure 43
2000
0000
0000
0010
0000
0000
3000
0000
0110
0000
0000
0100
0010
0000
1000
0000
,  // measure 44
0100
0000
0000
0100
0010
0000
0100
0000
0000
0000
1000
0000
0001
1000
0001
0000
,  // measure 45
0010
0000
0000
0100
0000
0000
0010
0000
1001
0000
0000
0001
0100
0000
0010
0000
,  // measure 46
0100
0000
0000
0100
0001
0000
0011
0000
0000
0000
0010
0000
0100
0010
0100
0000
,  // measure 47
2000
0000
0000
0010
0000
0000
3000
0000
0100
0000
0000
0100
1000
0000
0100
0000
,  // measure 48
0010
0000
0000
1000
0000
0000
1100
0000
0000
0000
0010
0000
0100
0010
0100
0000
,  // measure 49
0010
0000
0001
0100
0001
0000
1000
0000
0100
0000
0000
0100
0010
0000
0100
0000
,  // measure 50
0001
0000
0000
0011
0000
0000
1100
0000
0000
0000
0010
0000
0100
0010
0100
0000
,  // measure 51
0001
0000
0010
0100
0010
0000
0100
0000
1100
0000
0000
0000
0010
0000
0100
0000
,  // measure 52
0010
0000
0000
0100
0000
0000
1001
0000
0000
0000
0100
0000
0001
1000
0001
0000
,  // measure 53
0010
0000
0100
0010
0100
0000
0010
0000
0001
0000
0100
0000
0001
0000
0100
0000
,  // measure 54
0010
0100
0010
0100
0010
1000
0010
1000
,  // measure 55
0100
1000
0100
1000
0010
0100
0001
0010
,  // measure 56
0100
0000
0000
1000
0000
0000
0001
0000
0000
0110
0000
0000
0000
0000
0001
0000
0100
0000
0010
0000
1000
0000
0100
0000
,  // measure 57
0010
0000
0000
0000
0001
0000
0000
0000
0100
0000
0000
0000
0010
0000
0000
0000
0000
0000
0000
0000
0000
0000
0000
0000
0001
0000
0000
0000
0000
0000
0000
0000
0000
0001
0000
0000
0100
0000
0000
0000
0000
0000
0000
0000
0000
0100
0000
0000
,  // measure 58
1000
0000
0000
1000
0100
0000
0000
0100
0010
0000
0000
0010
1000
0000
0000
1000
,  // measure 59
0100
0000
0000
0100
0010
0000
0000
0000
1000
0000
0000
1000
0010
0000
0000
0010
,  // measure 60
0100
0101
1020
0001
,  // measure 61
1000
0000
0000
0000
0130
0000
0000
0000
0010
0000
0000
0010
1000
0000
0000
1000
,  // measure 62
0100
0000
0000
0100
0001
0000
0000
0001
0100
0000
0000
0100
0010
0000
0000
0010
,  // measure 63
0001
0000
0100
0000
0010
0000
0000
0000
1000
0000
0000
1000
0100
0000
0000
0100
,  // measure 64
0010
0000
0110
0000
0001
0010
0001
0100
,  // measure 65
0110
0000
1000
0001
1001
0000
1100
0000
,  // measure 66
0001
0010
1001
0000
0110
0000
0101
0000
,  // measure 67
0010
0001
1001
0000
1100
0000
0011
0000
,  // measure 68
0100
0010
1000
0001
0110
0000
0011
0000
,  // measure 69
1100
0000
0000
0000
1000
0010
1000
0010
,  // measure 70
0100
0010
0100
0010
0100
0001
0100
0001
,  // measure 71
0010
0000
0001
0000
0010
0000
0001
0000
1000
0001
1000
0000
0010
0100
0010
0000
,  // measure 72
1000
0100
1000
0000
0001
0010
0001
0000
0220
0000
0000
0000
0000
0000
0000
0000
,  // measure 73
0330
0000
0100
0100
1001
0000
0000
0000
;

//---------------dance-single - ----------------
#NOTES:
     dance-single:
     :
     Challenge:
     9:
     0.748,0.791,1.000,0.336,0.151:
0000
0000
0000
0000
0000
0000
0000
1010
,
0000
0000
0011
0000
0000
0101
0000
0000
,
0010
0000
0110
0000
0100
0000
0000
0101
,
0000
0000
1000
0000
0000
1100
0000
0000
,
0010
0110
1100
0011
,
1000
0001
1000
0000
1010
0000
0101
0000
,
0010
0100
0010
0000
0001
1000
0001
1000
,
0010
0100
0010
0100
2002
0000
0000
0000
,
0000
0000
3003
0000
1001
0000
0110
0110
,
1001
0000
0000
0101
0000
0000
1010
0000
0110
0000
0000
1100
0000
0000
0011
0000
,
0000
0101
0110
0101
0000
1100
0000
0110
,
1001
0000
0000
1100
0000
0000
0011
0000
0110
0000
0000
1001
0000
0000
0101
0000
,
0000
1010
0110
1010
0000
1100
0000
0011
,
1001
0000
0000
0000
0110
0000
1010
0000
1100
0000
0000
0110
0000
0000
1100
0000
,
0000
1010
1001
0101
0000
0110
0000
0011
,
1100
0000
0000
1001
0000
0000
0110
0000
0101
0000
0000
0011
0000
0000
1100
0000
,
0000
0110
1100
0110
0000
1001
0000
0101
,
1010
0000
0000
1100
0000
0000
1010
0000
0110
0000
0000
0101
0000
0000
0011
0000
,
0000
0110
1100
0110
0000
0011
0000
1001
,
0110
0000
0000
0101
0000
0000
0110
0000
1001
0000
0000
1100
0000
0000
0110
0000
,
0000
1001
0110
1001
0000
0101
0000
0110
,
0101
0000
0000
1100
0000
0000
0011
0000
1010
0000
0000
1001
0000
0000
0110
0000
,
0000
0011
1010
0011
0000
0110
0000
0101
,
1100
0000
0000
1010
0000
0000
1001
0000
0110
0000
0100
0010
0100
0000
0001
1000
,
0001
0010
0110
0000
0200
0000
0000
0000
,
0002
0300
0020
0003
,
2000
0030
0200
3000
,
0002
0300
0020
0003
,
2000
0030
0020
3000
,
0002
0030
0200
0003
,
2000
0300
0020
3000
,
0002
0030
0200
0003
,
2000
3300
1001
0110
,
1001
0110
1001
0110
,
1001
0110
1001
0110
,
1001
0110
1001
0110
,
1001
0110
0101
0011
,
1010
1100
0101
0011
,
1010
0000
1100
0000
0001
0100
1000
0010
,
0001
0100
1000
0010
0002
0000
0000
0000
,
0000
0000
1000
1003
1001
0000
0011
1100
,
0011
0000
0000
0110
0000
0000
0101
0000
0000
0000
1010
0000
0101
0000
1010
0000
,
1100
0000
0000
0110
0000
0000
0000
0000
1100
0000
0000
0000
1001
0000
0101
0000
,
1001
0000
0000
1100
0000
0000
0110
0000
0000
0000
1100
0000
1010
0000
1100
0000
,
0011
0000
0000
1001
0000
0000
0110
0000
1001
0000
0000
0000
0011
0000
1100
0000
,
1010
0000
0000
0101
0000
0000
0110
0000
0000
0000
1001
0000
0110
0000
1100
0000
,
0011
0000
0000
0101
0000
0000
0000
0000
1001
0000
0000
0000
0110
0000
1001
0000
,
0110
0000
0000
1100
0000
0000
1001
0000
0000
0000
0101
0000
0110
0000
0101
0000
,
1001
0000
0000
1100
0000
0000
0110
0000
1001
0000
0000
0000
0101
0000
1010
0000
,
0101
0000
0000
1001
0000
0000
1100
0000
0000
0000
0110
0000
1100
0000
1001
0000
,
0101
0000
0000
0110
0000
0000
0000
0000
0101
0000
0000
0000
1001
0000
1100
0000
,
0110
0000
0000
0011
0000
0000
1100
0000
0000
0000
1010
0000
0101
0000
1010
0000
,
0101
0000
0011
1001
0101
0000
0110
0101
,
0110
0000
0000
1010
0000
0000
1100
0000
0000
0000
0110
0000
1100
0000
0110
0000
,
1100
0000
0000
1001
0000
0000
0000
0000
0101
0000
0000
0000
0011
0000
1001
0000
,
0011
0000
0000
0000
0000
0000
0000
0000
0000
1100
0000
0000
0000
0000
0000
0000
0000
0000
1010
0000
0000
0000
0000
0000
0000
0000
0000
0000
1000
0000
0000
0000
0010
0000
0000
0000
0100
0000
0000
0000
0001
0000
0000
0000
0010
0000
0000
0000
,
0100
1000
0010
0100
0000
0000
0110
0000
0000
1001
0000
0000
,
0110
0000
1001
0000
0202
0000
0303
0011
,
0011
1100
1001
0110
,
0101
0000
0110
0000
2002
0000
3003
0110
,
0110
0000
1100
0011
,
0101
0000
1010
0000
0220
0000
0330
1001
,
1001
0000
1100
1010
,
0101
0000
0011
0000
2002
0000
3003
0110
,
0110
0000
0101
0011
,
1010
1100
0101
1100
,
1010
0011
1010
1100
,
0101
0011
0110
1001
,
0110
1001
0020
2030
,
3200
0302
0023
2030
,
3200
0302
0023
0032
,
0203
2300
3020
0000
,
0030
0000
0110
0110
0110
0000
0000
0000
;
