#TITLE:Mushi no sumu sho;
#SUBTITLE:;
#ARTIST:Camellia feat. Nana Takahashi;
#TITLETRANSLIT:;
#SUBTITLETRANSLIT:;
#ARTISTTRANSLIT:;
#CREDIT:Grithokskulk;
#BANNER:Mushi no sumu sho.png;
#BACKGROUND:Mushi no sumu sho-bg.png;
#LYRICSPATH:;
#CDTITLE:grithokskulk.png;
#MUSIC:Mushi no sumu sho.mp3;
#OFFSET:-9.263;
#SAMPLESTART:44.415;
#SAMPLELENGTH:15.000;
#SELECTABLE:YES;
#BPMS:0.000=161.500,56.000=80.750,76.000=161.500;
#STOPS:138.000=0.440
;
#BGCHANGES:;

//---------------dance-single - ----------------
#NOTES:
     dance-single:
     :
     Easy:
     2:
     0.165,0.192,0.083,0.129,0.000: // measure 1
1000
0000
0010
0000
,  // measure 2
0100
0000
0000
0000
,  // measure 3
0001
0000
0010
0000
,  // measure 4
0100
0000
0010
0000
,  // measure 5
0002
0000
0000
0000
,  // measure 6
0000
0000
0000
0003
,  // measure 7
1000
0000
0100
0000
,  // measure 8
1000
1000
1000
0000
,  // measure 9
0001
0000
0010
0000
,  // measure 10
0001
0001
0001
0000
,  // measure 11
0100
0000
0010
0000
,  // measure 12
0100
0100
0100
0000
,  // measure 13
0000
0001
0001
0000
,  // measure 14
1000
0010
1000
0000
,  // measure 15
0200
0000
0000
0000
,  // measure 16
0000
0000
0000
0300
,  // measure 17
0020
0000
0000
0000
,  // measure 18
0000
0000
0000
0030
,  // measure 19
0001
1000
0020
0030
,  // measure 20
0100
0000
0010
0010
,  // measure 21
0010
0100
0000
0001
,  // measure 22
0010
0000
0001
0010
,  // measure 23
0100
0100
0010
0000
,  // measure 24
0100
0000
1000
0010
,  // measure 25
1000
0100
0000
0100
,  // measure 26
0010
0100
1000
0000
,  // measure 27
0001
0000
0100
0010
,  // measure 28
0100
0100
0010
0000
,  // measure 29
1000
1000
0001
0000
,  // measure 30
0020
0000
0030
0000
,  // measure 31
0200
0000
0300
0000
,  // measure 32
1000
0000
0010
0010
,  // measure 33
1000
0000
0001
0001
,  // measure 34
0010
0000
0100
0000
,  // measure 35
1000
0001
1001
2000
,  // measure 36
0000
0000
3000
0002
,  // measure 37
0000
0000
0003
0200
,  // measure 38
0300
0020
0030
2000
,  // measure 39
3000
0002
0003
2002
,  // measure 40
0000
0000
0000
0000
,  // measure 41
0000
0000
0000
0000
,  // measure 42
0000
0000
0000
0000
,  // measure 43
0000
0000
3003
1000
,  // measure 44
0100
1000
0000
0010
,  // measure 45
0100
0010
0000
0000
,  // measure 46
0001
0001
0000
0100
,  // measure 47
0010
0010
0100
0110
,  // measure 48
0000
0000
0000
1001
,  // measure 49
0000
0000
0000
1100
,  // measure 50
0000
0000
0000
0011
,  // measure 51
0000
0000
0110
0000
,  // measure 52
0000
0000
1001
0000
0000
0000
0000
0110
;

//---------------dance-single - ----------------
#NOTES:
     dance-single:
     :
     Medium:
     5:
     0.342,0.359,0.194,0.203,0.000:
0100
0000
0000
0100
0010
0000
0000
0010
,
1000
0100
0010
0100
,
0010
0000
0000
0010
0100
0000
0000
0100
,
1000
0000
0000
0001
0100
0001
0010
0000
,
0002
0100
0010
0100
,
0010
0100
1000
0003
,
1000
0100
1000
0000
0010
0000
0100
0000
,
0010
1000
0010
1000
0001
0000
0010
0000
,
0100
0000
0010
0001
0010
0000
0001
0000
,
0100
0001
0010
0001
0100
0000
0110
0000
,
1001
0000
1000
0100
0010
0000
0100
0000
,
1000
0010
1000
0000
0010
0100
0010
1000
,
0000
0000
0110
0000
1000
0001
1000
0000
,
0001
0010
0100
1000
0001
0000
0100
0000
,
0110
0000
0010
1000
0010
0000
0100
0001
,
0100
0000
0010
0000
0000
0000
0010
0001
,
0010
0000
0100
1000
0100
0000
1000
0001
,
0020
0230
0320
0032
,
2003
0000
3020
0000
0230
0000
0300
0010
,
0110
0000
0000
0010
0001
0000
0100
0000
,
0010
0100
0001
1000
,
1001
0000
0000
1000
0100
0000
0010
0000
,
0100
0000
1000
0000
0010
0000
0100
0010
,
0100
0000
0000
0001
1000
0000
0100
0000
,
0010
0100
0000
1000
,
0100
0000
0010
0100
0010
0000
1000
0010
,
1000
0000
0001
0010
0001
0100
0001
0000
,
0010
0010
0100
0100
,
1000
0000
1000
0000
0010
0100
0010
0000
,
1000
0002
0000
0000
1003
0000
0000
0010
,
0100
0020
0000
0000
0130
0000
0000
0000
,
0001
0010
0100
0010
,
0001
0000
0100
0000
0010
0000
1000
0100
,
2000
0000
3002
0100
,
0203
0010
0310
2000
,
0000
3200
0000
0320
,
0000
0230
0000
0320
,
0000
0032
0000
0203
,
0000
0020
0330
0210
,
1000
0010
0010
0001
,
0010
0001
0001
1000
,
0010
1000
1000
0001
,
0010
0001
0301
0110
,
1000
0000
0100
0010
0100
0000
1000
0000
,
0001
0000
0010
0001
0010
0000
0000
0000
,
0001
0000
0100
0010
0100
0000
0001
1000
,
0100
1000
0010
0000
0100
0000
0110
0000
,
0000
0101
0000
0000
0000
0000
0011
0000
,
0000
1100
0000
0000
0000
0000
1010
0000
,
0000
0110
0000
0000
0000
0000
1001
0000
,
0000
0011
0000
0000
1001
0000
0000
0110
,
0000
0000
1001
0000
0000
1100
0000
0011
;

//---------------dance-single - ----------------
#NOTES:
     dance-single:
     :
     Hard:
     8:
     0.531,0.613,0.332,0.369,0.254:
0200
0000
0000
0010
0320
0000
1000
0000
,
0001
0100
1000
0230
,
0302
0000
0013
0100
2000
0000
0000
3100
,
0200
0000
0000
0010
0310
0100
1000
0010
,
0200
1000
0001
0010
,
1000
0010
0001
0300
,
0010
1000
0100
0000
0001
0100
0010
0010
,
0100
0010
0001
0100
0010
0000
0110
0000
,
1000
0010
0100
0000
0100
0010
1000
0100
,
0010
0100
0100
0010
0001
1000
0100
0010
,
0100
0000
1100
0000
1000
0010
0100
0000
,
0100
0010
1000
0001
0010
0000
0011
0000
,
0002
0000
0103
0000
0010
0100
0010
0000
,
1000
0100
0010
0010
0001
0100
0010
0010
,
0100
0000
0000
0010
0100
0100
0001
0010
0100
0000
0000
0010
0010
0001
1000
0010
,
0200
0000
0000
0010
0020
0000
0000
0000
0000
0000
0300
0000
1000
0000
0100
0000
,
2030
0000
0000
0100
3100
0010
0100
1000
0001
0000
0000
0100
0100
0010
0100
0001
,
0020
0000
0000
0100
0230
0000
0000
0010
0320
0000
0000
0001
0032
0000
0000
0000
,
2003
0000
0000
0000
3002
0000
0000
0000
0023
0000
0000
0000
0030
0000
0100
0010
,
0011
0000
0000
0000
0001
0000
0100
0010
0100
0000
0000
0001
0100
0000
0000
0100
,
0010
0000
0000
0010
1000
0000
0000
0000
0100
0000
0010
0000
0100
0000
1000
0000
,
0010
0000
0000
0000
1000
0000
0001
0010
0001
0000
0000
0000
0100
0010
0000
0000
,
1000
0000
0000
1000
0100
0000
0000
0100
0010
0000
0000
0000
0100
0000
1000
0000
,
1010
0000
0000
0000
0010
0000
0100
0001
0100
0000
0000
0000
0001
0000
0010
0000
,
0100
0000
0000
0100
0010
0000
0000
0010
0001
0000
0000
0001
0100
0000
0000
0000
,
0120
0000
0000
0030
1000
0000
0100
0000
2100
0000
0000
0000
3001
0000
0100
0000
,
0210
0000
0301
0010
1000
0010
0001
0100
,
0010
1000
0010
0100
0010
0001
0010
0100
,
0010
1000
0010
0100
0010
1000
0100
0010
,
0001
0002
0000
1000
1000
2003
0000
0100
,
0010
3200
0000
0010
0010
0310
0100
0000
,
1000
0000
0010
0001
0010
0000
0100
0001
,
0010
0000
0000
0010
0001
0000
0000
0001
0100
0000
0000
1000
0000
0000
0100
0000
,
0010
0000
0000
0110
0000
0000
1000
0000
0001
0000
0000
1001
0000
0000
0010
0000
,
0100
0000
0000
0110
0000
0000
0010
0000
0002
0000
0000
0000
2003
0000
0000
0000
,
3200
0320
0031
0012
,
0203
0320
0130
0102
,
2003
3200
0320
0230
,
2300
0000
3020
0000
0030
0000
0110
0001
,
0010
0100
0010
0010
0001
0100
0010
1000
,
0100
0001
0100
0100
1000
0010
0100
1000
,
0100
0001
1000
1000
0010
0001
0010
0100
,
0001
0000
0010
0000
0100
0010
0100
0010
0100
0000
0000
0000
1000
0100
1000
0100
,
1000
0000
0010
0000
0100
0000
0001
0000
0010
0000
0000
0000
0001
0100
0001
0100
,
0001
0010
1000
0010
0100
0010
0000
0000
,
0110
0000
0000
0000
1000
0000
0100
0000
0010
0000
0000
0000
0100
1000
0100
0010
,
0100
0000
0010
0000
0100
0000
0100
0000
1000
0000
0000
0110
0000
0000
0101
0000
,
0000
0110
0000
0000
1010
0000
0000
0000
0000
0000
0000
1001
0000
0000
0011
0000
,
0000
1001
0000
0000
0000
0000
0000
0000
0000
0000
0000
1100
0000
0000
0110
0000
,
0000
1100
0000
0000
1010
0000
0000
0000
0000
0000
0000
1001
0000
0000
0011
0000
,
0000
0110
0000
0000
0000
0000
0000
0011
0000
0000
0110
0000
0000
1100
0000
0000
,
0000
0000
0000
1010
0000
0000
0110
0000
0000
0101
0000
0000
0000
0000
2002
0000
,
0000
0000
0000
0000
,
0000
3003
0000
0000
0000
0000
0000
0000
;
