#TITLE:Miseria;
#SUBTITLE:;
#ARTIST:MAX MAXIMIZER;
#TITLETRANSLIT:;
#SUBTITLETRANSLIT:;
#ARTISTTRANSLIT:;
#CREDIT:Grithokskulk;
#BANNER:Miseria.png;
#BACKGROUND:Miseria-bg.png;
#LYRICSPATH:;
#CDTITLE:REFLEC BEAT.png;
#MUSIC:Miseria.mp3;
#OFFSET:-5.613;
#SAMPLESTART:21.235;
#SAMPLELENGTH:15.000;
#SELECTABLE:YES;
#BPMS:0.000=92.000,8.000=184.000,39.000=367.999,87.000=92.000,91.000=367.998,118.000=91.999,127.000=183.999,191.000=23.000,192.000=367.999,248.000=92.000,250.000=367.998,306.000=183.999,310.000=91.999,326.000=22.999;
#STOPS:22.000=0.300
,118.000=0.220
;
#BGCHANGES:;

//---------------dance-single - ----------------
#NOTES:
     dance-single:
     :
     Easy:
     5:
     0.315,0.519,0.127,0.333,0.000: // measure 1
2000
0000
3002
0000
,  // measure 2
0203
0000
0320
0030
,  // measure 3
0100
0000
0000
0000
,  // measure 4
0110
0000
0000
0000
,  // measure 5
0100
0000
0000
0000
,  // measure 6
0110
0000
0000
0001
,  // measure 7
0000
0000
0000
1001
,  // measure 8
0000
0000
0000
0001
,  // measure 9
0000
0000
0000
1001
,  // measure 10
0000
0000
0000
1000
,  // measure 11
0000
0100
0000
1000
,  // measure 12
0000
0000
0000
0010
,  // measure 13
0000
0100
0000
0010
,  // measure 14
0000
0000
0000
0100
,  // measure 15
0000
0001
0000
0010
,  // measure 16
0000
0001
0000
0100
,  // measure 17
0000
0010
0000
0100
,  // measure 18
0000
0000
0000
0001
,  // measure 19
0000
1000
0000
0100
,  // measure 20
0000
0000
0000
1000
,  // measure 21
0000
0010
0000
0100
,  // measure 22
0000
0000
0000
0020
,  // measure 23
0030
0200
0300
0010
,  // measure 24
0000
1000
0000
0000
,  // measure 25
0100
0000
0000
0100
,  // measure 26
0000
1000
0000
0001
,  // measure 27
0000
0000
0000
0010
,  // measure 28
0000
0001
0000
0100
,  // measure 29
0000
0000
0000
0000
,  // measure 30
0001
0010
0000
0110
,  // measure 31
0000
1001
0000
0101
,  // measure 32
0000
1100
0000
1000
,  // measure 33
0100
0010
0100
2000
,  // measure 34
3000
0002
0003
0100
,  // measure 35
0010
1000
0010
0200
,  // measure 36
0300
0002
0003
0010
,  // measure 37
0100
0010
0100
2000
,  // measure 38
3000
0020
0030
1000
,  // measure 39
0001
0010
0100
0020
,  // measure 40
0000
0000
0030
0100
,  // measure 41
0010
0001
1000
0020
,  // measure 42
0030
0200
0300
0001
,  // measure 43
0100
1000
0100
0020
,  // measure 44
0030
2000
3000
0100
,  // measure 45
1000
0010
0100
0002
,  // measure 46
0003
0020
0030
0100
,  // measure 47
0010
0001
0000
0200
,  // measure 48
0000
0000
0000
0000
0300
0000
0220
0330
,  // measure 49
0100
0000
0001
0000
,  // measure 50
0010
0000
0001
0000
,  // measure 51
0100
0010
0100
0000
,  // measure 52
0001
1000
0001
0000
,  // measure 53
1000
0000
0100
0000
,  // measure 54
0010
0000
0100
0000
,  // measure 55
1000
0001
1000
0001
,  // measure 56
1000
0000
0000
1001
,  // measure 57
0000
0001
0000
0100
,  // measure 58
0010
0100
0000
0000
,  // measure 59
0001
0000
0010
0000
,  // measure 60
0100
0010
0100
0000
,  // measure 61
1000
0000
0010
0000
,  // measure 62
0100
0000
0001
0000
,  // measure 63
0020
0230
0310
0000
,  // measure 64
0001
0000
0100
0000
,  // measure 65
0010
0000
0100
0000
,  // measure 66
0001
0000
1000
0100
,  // measure 67
1000
0000
0001
0000
,  // measure 68
0010
0000
0100
0000
,  // measure 69
0010
0000
0001
0100
,  // measure 70
0010
0100
0001
0000
,  // measure 71
1001
0000
0100
0000
,  // measure 72
1000
0000
0010
0000
,  // measure 73
0000
0100
0010
0100
,  // measure 74
0001
0010
0100
0010
,  // measure 75
0000
0000
0100
0000
,  // measure 76
0001
0000
0010
0000
,  // measure 77
0100
0000
2000
0000
,  // measure 78
0000
3000
2002
3003
,  // measure 79
0200
0310
2000
3100
,  // measure 80
0020
0031
0200
0310
,  // measure 81
0200
0301
0020
0130
,  // measure 82
2000
3000
0110
0000
;

//---------------dance-single - ----------------
#NOTES:
     dance-single:
     :
     Medium:
     8:
     0.536,0.759,0.069,0.284,0.064:
2000
0000
0010
0010
3002
0000
0010
0010
,
2003
0000
0100
0100
3002
0000
0103
0000
,
0100
0010
0100
0010
0000
0100
0000
0010
,
1000
0001
1000
0001
0000
1000
0000
0001
,
0010
0100
0010
0100
0000
0010
0000
0100
,
1000
0010
0100
0001
0000
0000
0010
0100
,
0010
0001
0000
0100
0000
0010
0100
0001
,
0010
0100
0000
0010
0000
0100
0010
0100
,
1000
0010
0000
0100
0000
0010
1000
0001
,
0010
0100
0000
0000
0000
0000
0100
0000
,
1000
0100
0010
0100
,
1000
0010
0000
0010
,
0100
0001
0010
0001
,
0100
0010
0000
0100
,
0001
1000
0100
0010
,
0100
1000
0000
0010
,
0100
0010
1000
0001
,
0000
1001
0000
0010
,
0001
0100
0010
0100
,
0001
1000
0000
0100
,
1000
0010
0100
0010
,
1000
0000
0000
0000
0100
0000
0000
0000
0000
0000
0000
0000
0020
0000
0000
0100
,
0000
0130
0000
0000
0020
0000
0000
0031
0000
0000
0000
0000
1000
0000
0000
0000
,
0010
0100
0010
1000
,
1000
0001
0000
0010
,
0001
0100
0010
0100
,
0100
0010
0000
0100
,
0001
0010
0100
0010
,
0010
0100
0000
1000
,
0100
0000
0000
0000
0010
0000
0000
0000
0001
0000
0000
0000
0110
0000
0000
0010
,
0000
1000
0000
0010
0101
0000
0000
0001
0000
0010
0000
0001
1010
0000
0000
0010
,
0000
0100
0000
0001
0210
0000
0000
1300
0000
0000
0000
0000
2010
0000
0000
0000
,
0100
0001
0010
0100
,
0100
0010
0010
3002
,
0010
0000
0100
0000
1000
0000
0010
0010
,
0010
0100
0003
0020
,
1000
0001
0100
0001
,
0001
0100
0031
0200
,
1000
0000
0010
0000
0001
0000
0010
0010
,
0010
0001
0300
0020
,
1000
0000
0001
0001
0001
0000
0100
0100
,
0100
1000
0130
2000
,
0100
0000
0001
0001
0001
0000
0010
0010
,
0010
0100
3000
0002
,
0010
0000
0100
0100
0100
0000
0010
0010
,
0010
1000
0103
2000
,
0100
0000
0001
0001
0001
0000
0010
0010
,
0010
0000
0100
0000
3000
0000
2002
3003
,
0100
0010
0100
1000
,
0100
0001
0100
0010
,
0100
0001
0100
0010
,
0100
0001
1000
1000
,
0100
0001
0100
1000
,
0100
0010
0100
1000
,
0010
0100
0100
0001
,
0020
0000
0030
0000
,
0100
0010
0001
0010
,
0100
0010
0001
0010
,
1000
0010
0100
0010
,
0001
0010
0100
0100
,
1000
0010
0001
0010
,
0100
0010
0001
0010
,
2000
3002
0013
0100
,
1000
0010
0100
0001
,
0010
0100
0010
0001
,
0010
0001
1000
0010
,
1000
0010
1000
0100
,
0001
1000
0010
0001
,
1000
0010
0100
0010
,
0100
0010
1000
0001
,
1000
0001
0010
0001
,
0100
0010
1000
0100
,
0010
0100
1000
0001
,
1000
0001
0100
0010
,
0100
0010
1000
0001
,
0010
0100
0010
0001
,
1000
0010
0200
0000
,
0000
0000
0000
0000
0320
0000
1000
1000
,
2030
0000
0100
0100
3200
0000
0001
0001
,
0302
0000
0010
0010
0023
0000
1000
1000
,
2030
0000
0100
0100
3200
0000
0010
0010
,
0320
0000
0000
0001
0031
0000
0000
0000
;

//---------------dance-single - ----------------
#NOTES:
     dance-single:
     :
     Hard:
     10:
     0.837,1.000,0.196,0.333,0.416:
2200
0000
0000
3000
0000
0000
0310
0001
0010
0100
0010
0001
0200
0000
0000
0300
0000
0000
0010
0100
0001
0010
0100
1000
,
0020
0000
0000
0030
0000
0000
0100
0001
1000
0100
1000
0001
0200
0000
0000
0300
0000
0000
0010
0100
0001
0000
0000
0000
,
1000
0010
0100
0000
0010
0000
0010
0000
0000
0000
1010
0000
0000
0000
0101
0000
,
0010
0001
0100
0000
0010
0000
0020
0000
0000
0000
0130
0000
0000
0000
0000
0000
,
0001
1000
0100
0000
0010
0000
0010
0000
0000
0000
1100
0000
0000
0000
0110
0000
,
0100
1000
0010
0000
0100
0000
0100
0000
0000
0000
0000
0000
0001
0010
0100
0000
,
0010
0000
0010
0000
0000
0000
1001
0000
0000
0000
0110
0000
0001
0100
0010
0000
,
0100
0000
0200
0000
0000
0000
1000
0000
0000
0000
0301
0000
0010
0001
1000
0000
,
0100
0000
0100
0000
0000
0000
0110
0000
0000
0000
1001
0000
0010
0100
0001
0000
,
0010
0020
0000
0000
0000
0030
0001
0000
,
0010
0100
0010
0001
,
0100
0000
0010
0100
0010
0000
0100
0000
,
0001
0010
0100
0010
,
0001
0000
0100
0010
0100
0000
0010
0000
,
1000
0100
0001
0100
,
1000
0000
0100
1000
0100
0000
0010
0000
,
0001
0100
1000
0100
,
0001
0000
0010
0100
0010
0001
0100
0000
,
0010
1000
0100
0010
,
0100
0000
1000
0010
0100
0010
1000
0000
,
0001
0010
0001
0100
,
0010
0000
0000
0000
0000
0000
0000
0000
0100
0000
0000
0000
0001
0000
0000
0000
0010
0000
0000
0000
0100
0000
0000
0000
0010
0001
0010
0000
0001
0000
0001
0000
,
0000
0000
1001
0000
0000
0000
0110
0000
0100
0010
0100
0000
0001
0000
0002
0000
0000
0000
0000
0000
0003
0000
0000
0000
1000
0000
0000
0000
0100
0000
0000
0000
,
1000
0010
0100
0010
,
1000
0000
1000
0000
0001
0000
0010
0100
,
0010
0001
0100
1000
,
0100
0000
0100
0000
0010
0000
1000
0010
,
1000
0001
0010
0100
,
0010
0010
0001
0100
,
0001
0000
0000
0000
0010
0000
0000
0000
0001
0000
0000
0000
0000
0000
0000
0000
1000
0000
0000
0000
0000
0000
0000
0000
0010
0100
0010
0000
0200
0000
0001
0000
,
0000
0000
1000
0000
0000
0000
0301
0000
0010
0001
0010
0000
0200
0000
0010
0000
0000
0000
1300
0000
0000
0000
0000
0000
0001
1000
0001
0000
0200
0000
1000
0000
,
0000
0010
0000
1300
0100
0001
0010
0200
0000
0000
0300
0000
0012
0000
0000
0000
,
1003
0010
0001
0010
0100
0010
1000
0010
,
0100
0010
1000
0010
0001
0010
2010
0000
,
3100
0001
0100
0010
0100
1000
0100
0001
,
0100
0000
1000
0000
0100
0000
0010
0100
1000
0000
0010
0000
0102
0000
0000
0000
,
1003
0010
0001
0010
1000
0100
0001
0100
,
1000
0000
0000
0000
0010
0100
0001
0010
0100
0000
0000
0000
0012
0000
0000
0000
,
1003
0010
0100
1000
0100
0001
0010
0100
,
0010
0000
0000
0000
0001
0010
0100
1000
0010
0000
0000
0000
0210
0000
0000
0000
,
1000
1000
1000
0000
0001
0001
0001
0000
,
0010
0010
0010
0000
0001
0010
0302
0000
,
0010
0100
0010
0000
1000
0100
1000
0000
,
0010
0010
0010
0100
0103
0000
2001
0000
,
0010
0010
0010
0000
0100
0001
0100
0000
,
0010
0000
0001
0000
0010
0000
0000
0000
0001
0000
0000
0000
3001
0010
0100
0000
,
0010
0000
0010
0000
0000
0000
0011
0000
0000
0000
1100
0000
0010
0100
0010
0000
,
0001
0000
0001
0000
0000
0000
1000
0000
0010
0000
0100
0000
2002
0000
0000
3003
,
1000
0010
0100
0010
,
1000
0001
0010
1000
,
0010
0001
0100
0010
,
1000
0010
1000
0010
0100
0001
0100
0001
,
0010
0100
0001
0100
,
1000
0001
0010
0100
,
1000
0010
1000
0100
,
0010
0001
0010
0001
1000
0100
1000
0100
,
0010
0100
1000
0100
,
0010
0001
0100
0010
,
1000
0100
1000
0100
0010
0100
0010
0100
,
1000
0100
1000
0100
0010
0100
0010
0100
,
1000
0010
0100
0001
,
0010
0100
0010
0100
1000
0001
1000
0001
,
0200
0000
0320
0000
0130
0001
0100
0001
,
0100
0001
0100
0001
1000
0010
1000
0010
,
1000
0010
1000
0010
1000
0000
0001
0000
,
0010
0100
0010
0001
,
1000
0000
0100
0000
0010
0001
0010
0001
,
0010
0001
0010
0001
0100
0001
0100
0001
,
0100
0001
0100
0001
0010
0000
0100
0000
,
0010
0001
0100
0010
,
0100
0000
0000
0000
0001
0010
0001
0010
,
0001
0010
0001
0010
0001
0100
0001
0100
,
0001
0100
0001
0100
0010
0100
0010
0100
,
0010
0100
0010
0100
0010
1000
0010
1000
,
0010
1000
0010
1000
0001
0010
0100
1000
,
0010
0100
0001
0010
0100
1000
0010
0100
,
0001
0010
0100
1000
0020
0000
0000
0000
,
0000
0000
0000
0000
0000
0000
0000
0000
0000
0000
0000
0000
0230
0000
0000
0000
0000
0000
0301
0010
0001
1000
0010
1000
,
0200
0000
0000
0000
0000
0000
1300
0010
0001
1000
0100
0001
0020
0000
0000
0000
0000
0000
0031
0100
0010
0100
0001
1000
,
0200
0000
0000
0000
0000
0000
0310
0100
1000
0010
0100
0001
0020
0000
0000
0000
0000
0000
0031
0100
0001
0010
0100
0010
,
0002
0000
0000
0000
0000
0000
1003
0010
0100
0010
1000
0100
2000
0000
0000
0000
0000
0000
3010
0100
0001
1000
0100
0010
,
0002
0000
0000
0000
0000
0000
1003
0010
0100
0001
0010
0100
2000
0000
0000
3000
0000
0000
0000
0000
0000
0000
0000
0000
;
