#TITLE:Mind Mapping;
#SUBTITLE:;
#ARTIST:Ryu☆;
#TITLETRANSLIT:;
#SUBTITLETRANSLIT:;
#ARTISTTRANSLIT:;
#CREDIT:Grithokskulk;
#BANNER:Mind Mapping.png;
#BACKGROUND:Mind Mapping-bg.png;
#LYRICSPATH:;
#CDTITLE:beatmania IIDX.png;
#MUSIC:Mind Mapping.mp3;
#OFFSET:0.050;
#SAMPLESTART:17.235;
#SAMPLELENGTH:15.000;
#SELECTABLE:YES;
#BPMS:0.000=128.000;
#STOPS:;
#BGCHANGES:0.000=Mind Mapping.avi=1.000=1=1=0,
99999=-nosongbg-=1.000=0=0=0 // don't automatically add -songbackground-
;

//---------------dance-single - ----------------
#NOTES:
     dance-single:
     :
     Easy:
     2:
     0.176,0.202,0.009,0.191,0.000: // measure 1
0000
2000
0000
0000
,  // measure 2
3000
0002
0000
0000
,  // measure 3
0003
0200
0000
0000
,  // measure 4
0300
0020
0030
0200
,  // measure 5
0300
0002
0000
0000
,  // measure 6
0003
0020
0000
0000
,  // measure 7
0030
0200
0000
0000
,  // measure 8
0300
2000
0000
0000
,  // measure 9
3000
0001
0001
0001
,  // measure 10
0000
0100
0010
0100
,  // measure 11
0000
1000
0100
1000
,  // measure 12
0000
0001
0100
0001
,  // measure 13
0000
0020
0030
0200
,  // measure 14
0300
0010
0001
0010
,  // measure 15
0000
0001
1000
0001
,  // measure 16
0000
1000
0010
1000
,  // measure 17
0000
0020
0000
0000
,  // measure 18
0030
0100
0000
0001
,  // measure 19
0000
0010
0000
1000
,  // measure 20
0000
0000
0000
0010
,  // measure 21
0000
0200
0000
0000
,  // measure 22
0300
0010
0000
0100
,  // measure 23
0000
0001
0000
1000
,  // measure 24
0000
0100
0000
0010
,  // measure 25
0000
0200
0000
0000
,  // measure 26
0300
1000
1000
1000
,  // measure 27
0000
0001
0001
0001
,  // measure 28
0000
0100
0100
0100
,  // measure 29
0000
0010
0010
0010
,  // measure 30
0000
0100
0100
0100
,  // measure 31
0000
0001
0001
0001
,  // measure 32
0000
1000
1000
1000
,  // measure 33
0000
0100
0100
0100
,  // measure 34
0000
0020
0000
0000
,  // measure 35
0000
0000
0000
0000
,  // measure 36
0030
0200
0000
0000
,  // measure 37
0000
0000
0000
0000
,  // measure 38
0300
2002
0000
0000
,  // measure 39
0000
0000
0000
0000
,  // measure 40
0000
0000
0000
0000
,  // measure 41
0000
0000
0000
0000
,  // measure 42
3003
0100
0100
0100
,  // measure 43
0100
0010
0100
0001
,  // measure 44
0000
0010
0100
1000
,  // measure 45
0000
0001
1000
0010
,  // measure 46
0000
1000
0000
0010
,  // measure 47
0000
0100
0010
1000
,  // measure 48
0000
0001
0010
0100
,  // measure 49
0000
0010
0001
0100
,  // measure 50
0000
0020
0000
0000
,  // measure 51
0030
0100
0000
0001
,  // measure 52
0000
0010
0000
0100
,  // measure 53
0000
0010
0000
0001
,  // measure 54
0000
2000
3000
0002
,  // measure 55
0003
0100
0010
0100
,  // measure 56
0001
0100
0010
0100
,  // measure 57
1000
0100
0001
0010
,  // measure 58
0100
2000
0000
0000
,  // measure 59
0000
3000
0000
0000
;

//---------------dance-single - ----------------
#NOTES:
     dance-single:
     :
     Medium:
     5:
     0.362,0.379,0.069,0.589,0.000:
0000
1000
0100
1000
,
0000
0001
0100
0001
,
0010
0100
0010
0100
,
1000
0000
0010
0000
0000
0010
0100
0000
,
0000
0100
0001
0010
,
0000
0010
0001
1000
,
0100
1000
0010
0100
,
0010
1000
0002
0000
0000
0000
0000
0000
,
0000
0010
0010
0013
,
0011
0000
0001
0100
0001
0100
0001
0000
,
1000
0000
0100
1000
0100
1000
0100
0000
,
0010
0000
0100
1000
0100
1000
0100
0000
,
0010
0002
0003
2000
,
3000
0000
0020
0000
0000
0000
0200
0030
,
0000
0002
0300
0020
,
0003
0200
0030
0020
,
0300
0002
0000
0000
,
0033
0000
1000
0010
1000
0020
0000
0230
,
0000
0320
0000
2030
0000
3002
0000
0023
,
0000
0230
0000
0310
0001
0020
0000
0032
,
0000
0203
0000
0000
0000
0020
0000
0000
,
0330
0000
0100
0001
0100
0002
0000
2003
,
0000
3200
0000
0320
0000
0230
0000
2300
,
0000
3010
0100
0001
0100
0020
0000
0230
,
0000
0302
0000
2003
0000
3200
0000
0000
,
0300
0000
0010
0000
0010
0000
0100
0010
,
0100
0000
1000
0000
1000
0000
0001
0100
,
0001
0000
1000
0000
1000
0000
0100
1000
,
0200
0300
0010
0000
0010
0000
0100
0010
,
0100
0000
1000
0000
1000
0000
0001
0100
,
0001
0000
1000
0000
1000
0000
0010
0100
,
0010
1010
0000
0001
,
0001
0011
0000
0100
,
0000
0020
0000
0200
,
0030
2000
0300
0002
,
3000
0200
0003
0020
,
0300
0200
0030
0002
,
0303
2001
0000
0000
,
0000
0200
0000
0000
,
3000
0020
0000
0000
,
0300
0002
0000
0000
,
0033
1000
1000
1000
,
1001
0000
0001
0100
0001
0100
0001
0000
,
1000
0000
0100
0010
0100
0010
0100
0000
,
1000
0000
0010
0100
0010
0000
1000
0000
,
0001
1001
0000
0110
,
0000
0000
0001
0010
0001
0010
0001
0000
,
0100
0000
0010
1000
0010
1000
0010
0000
,
1000
0000
0100
1000
0100
1000
0100
0000
,
0010
0200
0000
0000
,
0300
0000
0010
0001
0010
0002
0000
0203
,
0000
0320
0000
0230
0000
0302
0000
2003
,
0000
3200
0000
1300
0100
2000
0000
3020
,
0000
0230
0000
0000
0000
0020
0000
0000
,
0330
0000
0100
0001
0100
0002
0000
2003
,
0000
3200
0000
0320
0000
0230
0000
2300
,
0000
3001
0100
0001
0100
0002
0000
0023
,
0000
0230
0000
2300
0000
3020
0000
0000
,
0030
0110
0000
0000
;

//---------------dance-single - ----------------
#NOTES:
     dance-single:
     :
     Hard:
     7:
     0.524,0.454,0.139,0.399,0.087:
0000
0000
1000
0010
0100
0010
1000
0000
,
0001
0010
0100
0010
0001
0100
0010
0000
,
0100
0000
0001
1000
0100
0010
0100
0000
,
1000
0010
0200
0000
0000
0010
0020
0000
,
0330
0000
0100
0001
0010
0100
1000
0000
,
0100
1000
0010
0100
0010
1000
0001
0000
,
0010
0000
0100
0010
0001
0100
0010
0000
,
0100
0001
0200
0000
0000
0000
0000
0000
,
0000
0010
0010
0310
,
0110
0000
1000
0100
0001
0100
0010
0000
,
0001
0100
1000
0100
0010
1000
0100
0000
,
0011
0000
0010
0100
0001
0100
1000
0000
,
0010
0100
0002
0000
0013
0100
0020
0000
,
0130
1000
0010
0001
0010
0100
0001
0000
,
1000
0100
0001
0100
0010
0001
0100
0000
,
1010
0000
1000
0010
0100
1000
0100
0000
,
0001
0010
0100
0100
0010
0010
0001
0001
,
0100
0100
0010
0100
0001
2000
0000
3100
,
0001
0200
0000
0310
0001
0200
0000
1300
,
0100
0020
0000
1030
0100
0020
0000
0130
,
1000
0001
0010
0100
0010
0001
0100
1000
,
0100
0010
1000
0100
0010
0200
0000
1300
,
0010
0200
0000
0301
0010
0002
0000
0013
,
0100
0010
0001
0100
1000
0200
0000
0310
,
1000
0200
0000
0302
0000
0203
0000
1000
,
1300
0000
0000
0000
0010
0000
0100
0000
0020
0000
1000
0000
0000
1000
0000
1000
,
0030
0000
0000
0000
1000
0000
0100
0000
0001
0000
0200
0000
0000
0010
0000
0010
,
0300
0000
0000
0000
0010
0000
0001
0000
0200
0000
0010
0000
0000
0010
0000
0010
,
0300
0000
0000
0000
0100
0000
0001
0000
0010
0000
0200
0000
0000
0010
0000
0010
,
0300
0000
0000
0000
0001
0000
0010
0000
0200
0000
0010
0000
0000
0010
0000
0010
,
0300
0000
0000
0000
0001
0000
0100
0000
0010
0000
0200
0000
0000
0001
0000
0001
,
0300
0000
0000
0000
1001
0000
0000
0000
1000
0000
0100
0000
0010
0000
0100
1000
,
0000
1000
0100
0000
0020
0000
0000
0000
1000
0000
0000
0000
0031
0000
1000
0000
,
1001
0000
1000
0100
0010
0100
1000
0010
,
0100
0001
0010
1000
0010
0001
1000
0000
,
1001
0000
1000
0010
0001
0010
1000
0100
,
0010
0100
2000
0000
0000
0001
0002
0000
,
3003
0000
0001
0100
0010
0100
0001
0000
,
0010
0100
1000
0100
0010
0100
2000
0000
,
3010
0000
0100
0010
1000
0001
0020
0000
,
0130
0010
0002
0000
0203
0000
0320
0000
,
2030
0000
0000
0000
0100
0000
0000
0100
0000
0000
0100
0000
0000
0100
0000
0000
,
3100
0000
0010
0100
1000
0010
0110
0000
,
0100
0001
0010
1000
0010
0001
0011
0000
,
1100
0000
0001
0100
1000
0100
0110
0000
,
0010
1000
0002
0000
0013
0100
0020
0000
,
0130
1000
0010
0001
0010
0100
0110
0000
,
0001
0010
1000
0010
0001
0010
0110
0000
,
0011
0000
1000
0010
0100
1000
1100
0000
,
0010
1000
0100
0100
0010
0010
0001
0001
,
1001
0000
0001
0100
0010
0200
0000
0301
,
0010
2000
0000
3010
0001
0200
0000
1300
,
0100
0020
0000
1030
0010
0002
0000
0013
,
0100
0000
0001
0000
0010
0000
0100
0010
0000
0100
0010
0000
0100
0000
1000
0000
,
0000
0010
0100
0010
0100
0000
0001
0000
0010
0000
0200
0000
0000
0000
0310
0000
,
0001
0200
0000
1300
0100
0020
0000
1030
,
0100
0001
0100
0010
0001
0200
0000
0301
,
0010
0200
0000
2300
0000
3020
0000
0000
,
0030
1001
0000
0000
;
